osu file format v14

[General]
AudioFilename: audio.mp3
AudioLeadIn: 0
PreviewTime: 52719
Countdown: 0
SampleSet: Soft
StackLeniency: 0.7
Mode: 3
LetterboxInBreaks: 0
SpecialStyle: 0
WidescreenStoryboard: 1

[Editor]
DistanceSpacing: 0.8
BeatDivisor: 4
GridSize: 8
TimelineZoom: 3.099996

[Metadata]
Title:Tabibito no Uta (TV Size)
TitleUnicode:旅人の唄 (TV Size)
Artist:Ohara Yuiko
ArtistUnicode:大原ゆい子
Creator:Kyousuke-
Version:Reincarnate
Source:無職転生 ~異世界行ったら本気だす~
Tags:Mushoku Tensei ~Isekai Ittara Honki Dasu~ Jobless Reincarnation: I Will Seriously Try If I Go To Another World op opening anime japanese celtic 大原由衣子 folk ln
BeatmapID:2825112
BeatmapSetID:1365827

[Difficulty]
HPDrainRate:8.2
CircleSize:5
OverallDifficulty:7.5
ApproachRate:5
SliderMultiplier:1.4
SliderTickRate:1

[Events]
//Background and Video events
0,0,"bg.jpg",0,0
//Break Periods
//Storyboard Layer 0 (Background)
//Storyboard Layer 1 (Fail)
//Storyboard Layer 2 (Pass)
//Storyboard Layer 3 (Foreground)
//Storyboard Layer 4 (Overlay)
//Storyboard Sound Samples

[TimingPoints]
296,437.956204379562,3,2,1,50,1,0
5534,437.956204379562,3,2,1,50,1,0
6396,437.956204379562,3,2,1,50,1,8
6836,437.956204379562,3,2,1,50,1,0
8138,437.956204379562,3,2,1,50,1,0
9438,437.956204379562,3,2,1,50,1,0
10328,437.956204379562,3,2,1,50,1,8
10768,437.956204379562,3,2,1,50,1,0
12534,437.956204379562,3,2,1,50,1,8
13402,437.956204379562,3,2,1,50,1,0
16023,437.956204379562,3,2,1,50,1,0
17336,437.956204379562,3,2,1,50,1,8
17368,437.956204379562,3,2,1,50,1,0
21296,437.956204379562,3,2,1,50,1,0
52828,-100,3,2,1,50,0,1
71223,-100,3,2,1,50,0,0
73823,437.956204379562,3,2,1,50,1,0
83020,437.956204379562,3,2,1,50,1,8
83033,437.956204379562,3,2,1,50,1,0

[HitObjects]
460,192,296,5,0,0:0:0:0:
51,192,514,1,0,0:0:0:0:
256,192,733,1,0,0:0:0:0:
460,192,952,1,0,0:0:0:0:
51,192,1171,1,0,0:0:0:0:
256,192,1390,128,0,1500:0:0:0:0:
358,192,1609,1,0,0:0:0:0:
460,192,1609,128,0,2923:0:0:0:0:
51,192,1828,128,0,1938:0:0:0:0:
153,192,2047,128,0,2157:0:0:0:0:
358,192,2266,128,0,4237:0:0:0:0:
51,192,2485,1,0,0:0:0:0:
153,192,2704,128,0,2814:0:0:0:0:
256,192,2923,128,0,5387:0:0:0:0:
460,192,3142,128,0,3252:0:0:0:0:
51,192,3361,1,0,0:0:0:0:
153,192,3580,128,0,3690:0:0:0:0:
460,192,3799,1,0,0:0:0:0:
51,192,4018,1,0,0:0:0:0:
153,192,4237,128,0,5469:0:0:0:0:
358,192,4566,1,0,0:0:0:0:
460,192,4620,1,0,0:0:0:0:
51,192,4675,128,0,5469:0:0:0:0:
460,192,5113,128,0,5305:0:0:0:0:
460,192,5387,128,0,5469:0:0:0:0:
256,192,5469,128,0,5534:0:0:0:0:
358,192,5534,1,4,0:0:0:0:
460,192,5534,1,0,0:0:0:0:
51,192,5534,128,2,5971:0:0:0:0:
358,192,5752,128,0,5862:0:0:0:0:
256,192,5971,128,2,6190:0:0:0:0:
460,192,5971,1,0,0:0:0:0:
51,192,6190,128,8,6614:0:0:0:0:
358,192,6190,1,0,0:0:0:0:
460,192,6190,1,0,0:0:0:0:
256,192,6396,1,2,0:0:0:0:
358,192,6396,1,0,0:0:0:0:
153,192,6614,1,0,0:0:0:0:
358,192,6614,128,0,7054:0:0:0:0:
460,192,6833,128,0,7273:0:0:0:0:
153,192,6836,1,2,0:0:0:0:
256,192,6836,1,0,0:0:0:50:cymbal.wav
153,192,7054,128,0,7164:0:0:0:0:
51,192,7273,1,2,0:0:0:0:
256,192,7273,128,0,7492:0:0:0:0:
153,192,7492,128,0,7575:0:0:0:0:
460,192,7492,128,0,7894:0:0:0:0:
51,192,7520,128,0,7602:0:0:0:0:
256,192,7711,1,0,0:0:0:0:
153,192,7711,1,2,0:0:0:0:
358,192,7894,128,0,8003:0:0:0:0:
256,192,7894,128,0,8003:0:0:0:0:
51,192,7894,128,8,8003:0:0:0:0:
51,192,8138,1,2,0:0:0:0:
153,192,8138,1,0,0:0:0:0:
358,192,8138,128,0,8575:0:0:0:0:
460,192,8138,1,0,0:0:0:0:
153,192,8356,128,0,8466:0:0:0:0:
256,192,8575,128,2,9013:0:0:0:0:
460,192,8575,1,0,0:0:0:0:
51,192,8794,1,8,0:0:0:0:
358,192,8794,128,0,9438:0:0:0:0:
460,192,8794,1,0,0:0:0:0:
51,192,9013,1,2,0:0:0:0:
153,192,9013,1,0,0:0:0:0:
460,192,9232,128,0,9656:0:0:0:0:
51,192,9438,1,2,0:0:0:0:
153,192,9438,1,0,0:0:0:50:cymbal.wav
256,192,9438,128,0,10094:0:0:0:0:
153,192,9875,128,2,10094:0:0:0:0:
460,192,9875,1,0,0:0:0:0:
51,192,10094,1,8,0:0:0:0:
358,192,10094,128,0,10240:0:0:0:0:
460,192,10167,128,0,10328:0:0:0:0:
153,192,10240,128,0,10400:0:0:0:0:
51,192,10328,128,10,10473:0:0:0:0:
256,192,10400,128,0,10546:0:0:0:0:
358,192,10473,128,0,10601:0:0:0:0:
460,192,10546,128,0,10656:0:0:0:50:tom.wav
51,192,10601,128,0,10768:0:0:0:0:
153,192,10656,128,0,10768:0:0:0:0:
358,192,10768,1,2,0:0:0:0:
460,192,10768,128,4,11205:0:0:0:0:
256,192,10768,1,0,0:0:0:0:
153,192,10986,128,0,11096:0:0:0:0:
51,192,11205,1,2,0:0:0:0:
256,192,11205,128,0,11424:0:0:0:0:
51,192,11424,1,8,0:0:0:0:
153,192,11424,1,0,0:0:0:0:
460,192,11424,128,0,11862:0:0:0:0:
153,192,11643,1,2,0:0:0:0:
256,192,11643,1,0,0:0:0:0:
153,192,11862,128,0,12300:0:0:0:0:
358,192,11862,1,0,0:0:0:0:
51,192,12081,128,2,12534:0:0:0:0:
358,192,12081,1,0,0:0:0:0:
256,192,12081,1,0,0:0:0:50:cymbal.wav
358,192,12300,128,0,12410:0:0:0:0:
460,192,12534,1,0,0:0:0:0:
256,192,12534,128,2,12752:0:0:0:0:
51,192,12752,128,0,13190:0:0:0:0:
358,192,12752,128,0,12835:0:0:0:0:
460,192,12780,128,0,12862:0:0:0:0:
256,192,12971,1,2,0:0:0:0:
358,192,12971,1,0,0:0:0:0:
153,192,13190,128,8,13300:0:0:0:0:
256,192,13190,128,0,13300:0:0:0:0:
460,192,13190,128,0,13300:0:0:0:0:
51,192,13402,1,2,0:0:0:0:
153,192,13402,128,0,13839:0:0:0:0:
358,192,13402,1,0,0:0:0:0:
460,192,13402,1,0,0:0:0:0:
358,192,13620,128,0,13730:0:0:0:0:
51,192,13839,1,2,0:0:0:0:
256,192,13839,128,0,14277:0:0:0:0:
51,192,14058,1,8,0:0:0:0:
153,192,14058,128,0,14715:0:0:0:0:
460,192,14058,1,0,0:0:0:0:
358,192,14277,1,2,0:0:0:0:
460,192,14277,1,0,0:0:0:0:
51,192,14496,128,0,14934:0:0:0:0:
256,192,14715,128,2,15372:0:0:0:0:
358,192,14715,128,0,15591:0:0:0:50:cymbal.wav
460,192,14715,1,0,0:0:0:0:
51,192,15153,1,2,0:0:0:0:
460,192,15153,128,0,15263:0:0:0:0:
51,192,15372,1,8,0:0:0:0:
153,192,15372,1,0,0:0:0:0:
460,192,15372,128,0,16023:0:0:0:0:
153,192,15591,1,2,0:0:0:0:
256,192,15591,128,0,16023:0:0:0:0:
51,192,15810,1,2,0:0:0:0:
358,192,15810,128,0,16023:0:0:0:0:
51,192,16023,128,2,18681:0:0:0:0:
153,192,16023,1,4,0:0:0:0:
460,192,16241,128,0,16296:0:0:0:0:
358,192,16460,128,0,16515:0:0:0:0:
153,192,16679,128,0,16734:0:0:0:0:
460,192,17368,128,0,17477:0:0:0:0:
153,192,17368,128,0,17477:0:0:0:0:
358,192,17395,128,0,17504:0:0:0:0:
256,192,17550,128,0,17623:0:0:0:0:
358,192,17805,128,0,17878:0:0:0:0:
460,192,17988,128,0,18061:0:0:0:0:
153,192,18462,1,0,0:0:0:0:
153,192,18681,128,0,18791:0:0:0:0:
460,192,18681,128,0,18791:0:0:0:0:
256,192,18709,128,0,18818:0:0:0:0:
358,192,18900,128,0,18955:0:0:0:0:
460,192,19119,128,0,19174:0:0:0:0:
256,192,19338,128,0,19393:0:0:0:0:
153,192,19557,128,0,19612:0:0:0:0:
51,192,19776,128,0,19831:0:0:0:0:
256,192,19886,128,0,19940:0:0:0:0:
153,192,19940,128,0,19995:0:0:0:0:
51,192,19995,128,0,20105:0:0:0:0:
460,192,19995,128,0,20050:0:0:0:0:
358,192,20214,1,0,0:0:0:0:
256,192,20433,1,0,0:0:0:0:
460,192,20652,128,0,20707:0:0:0:0:
256,192,20871,128,0,21200:0:0:0:0:
358,192,21090,128,0,21296:0:0:0:0:
51,192,21296,128,0,22171:0:0:0:50:cymbal.wav
153,192,21296,128,0,21733:0:0:0:0:
460,192,21296,128,0,21514:0:0:0:0:
358,192,21733,128,0,21843:0:0:0:0:
460,192,21733,1,0,0:0:0:0:
153,192,22171,128,0,22609:0:0:0:0:
51,192,22609,128,0,22719:0:0:0:0:
256,192,22609,128,0,22719:0:0:0:0:
358,192,22609,128,0,23485:0:0:0:0:
153,192,23047,1,0,0:0:0:0:
460,192,23047,128,0,23157:0:0:0:0:
256,192,23485,128,0,23923:0:0:0:0:
460,192,23485,128,0,23595:0:0:0:0:
153,192,23704,1,0,0:0:0:0:
51,192,23923,128,0,25237:0:0:0:0:
153,192,23923,128,0,24033:0:0:0:0:
460,192,23923,128,0,24033:0:0:0:0:
153,192,24361,1,0,0:0:0:0:
256,192,24361,128,0,24471:0:0:0:0:
358,192,24799,128,0,24909:0:0:0:0:
460,192,24799,1,0,0:0:0:0:
153,192,25237,128,0,25347:0:0:0:0:
256,192,25237,128,0,25347:0:0:0:0:
358,192,25237,128,0,26113:0:0:0:0:
51,192,25675,1,0,0:0:0:0:
460,192,25675,128,0,25785:0:0:0:0:
256,192,26113,1,0,0:0:0:0:
153,192,26551,128,0,26989:0:0:0:0:
256,192,26551,128,0,26660:0:0:0:0:
358,192,26551,128,0,26660:0:0:0:0:
51,192,26989,1,0,0:0:0:0:
256,192,26989,128,0,27427:0:0:0:0:
358,192,26989,128,0,27098:0:0:0:0:
153,192,27427,128,0,27536:0:0:0:0:
358,192,27427,128,0,27865:0:0:0:0:
153,192,27865,128,0,27974:0:0:0:0:
256,192,27865,128,0,27974:0:0:0:0:
460,192,27865,128,0,28741:0:0:0:0:
51,192,28303,128,0,28412:0:0:0:0:
358,192,28303,1,0,0:0:0:0:
153,192,28741,128,0,28850:0:0:0:0:
256,192,28741,128,0,29179:0:0:0:0:
358,192,28741,1,0,0:0:0:0:
51,192,28960,128,0,29069:0:0:0:0:
358,192,28960,128,0,29179:0:0:0:0:
51,192,29179,128,0,30055:0:0:0:0:
153,192,29179,128,0,29288:0:0:0:0:
460,192,29179,128,0,29288:0:0:0:0:
358,192,29617,1,0,0:0:0:0:
460,192,29617,128,0,29726:0:0:0:0:
358,192,30055,128,0,30493:0:0:0:0:
460,192,30274,128,0,30383:0:0:0:0:
51,192,30328,128,0,30383:0:0:0:0:
153,192,30383,128,0,30438:0:0:0:0:
256,192,30438,128,0,30493:0:0:0:0:
51,192,30493,1,0,0:0:0:0:
460,192,30493,128,0,31368:0:0:0:0:
153,192,31806,128,0,32463:0:0:0:0:
256,192,31806,128,0,32025:0:0:0:0:
460,192,31806,128,0,32244:0:0:0:0:
358,192,32025,128,0,32901:0:0:0:0:
256,192,32244,128,0,32682:0:0:0:0:
460,192,32463,128,0,32901:0:0:0:0:
153,192,32682,128,0,33120:0:0:0:0:
256,192,32901,128,0,33120:0:0:0:0:
51,192,33120,128,0,33339:0:0:0:0:
358,192,33120,128,0,33558:0:0:0:0:
460,192,33120,128,0,33777:0:0:0:0:
153,192,33339,128,0,33996:0:0:0:0:
51,192,33558,128,0,34215:0:0:0:0:
358,192,33777,128,0,34215:0:0:0:0:
460,192,34215,128,0,34434:0:0:0:0:
51,192,34434,128,0,34872:0:0:0:0:
256,192,34434,128,0,34653:0:0:0:0:
358,192,34434,128,0,35091:0:0:0:0:
153,192,34653,128,0,35529:0:0:0:0:
256,192,34872,128,0,35310:0:0:0:0:
51,192,35091,128,0,35529:0:0:0:0:
358,192,35310,128,0,35748:0:0:0:0:
256,192,35529,128,0,35748:0:0:0:0:
51,192,35748,128,0,36460:0:0:0:0:
153,192,35748,128,0,36405:0:0:0:0:
460,192,35748,128,0,36514:0:0:0:0:
358,192,36186,128,0,36733:0:0:0:0:
153,192,36514,128,0,36843:0:0:0:0:
51,192,36569,128,0,36843:0:0:0:0:
460,192,36624,128,0,36843:0:0:0:0:
358,192,36843,128,0,37062:0:0:0:0:
153,192,37062,128,0,37938:0:0:0:0:
256,192,37062,128,0,37500:0:0:0:0:
460,192,37062,128,0,37281:0:0:0:0:
358,192,37281,128,0,37719:0:0:0:0:
460,192,37500,128,0,38157:0:0:0:0:
256,192,37719,128,0,38376:0:0:0:0:
358,192,37938,128,0,38157:0:0:0:0:
153,192,38157,128,0,38376:0:0:0:0:
51,192,38376,128,0,39060:0:0:0:0:
358,192,38376,128,0,38814:0:0:0:0:
460,192,38376,128,0,38595:0:0:0:0:
153,192,38595,128,0,39252:0:0:0:0:
460,192,38814,128,0,39252:0:0:0:0:
358,192,39060,128,0,39471:0:0:0:0:
51,192,39252,128,0,39471:0:0:0:0:
460,192,39471,128,0,39690:0:0:0:0:
51,192,39690,128,0,39909:0:0:0:0:
256,192,39690,128,0,40128:0:0:0:0:
358,192,39690,128,0,40566:0:0:0:0:
153,192,39909,128,0,40347:0:0:0:0:
51,192,40128,128,0,40785:0:0:0:0:
256,192,40347,128,0,41004:0:0:0:0:
153,192,40566,128,0,40785:0:0:0:0:
358,192,40785,128,0,41004:0:0:0:0:
51,192,41004,128,0,42098:0:0:0:0:
153,192,41004,128,0,41770:0:0:0:0:
460,192,41004,128,0,41989:0:0:0:0:
358,192,41441,128,0,41989:0:0:0:0:
153,192,41879,128,0,42098:0:0:0:0:
256,192,42098,1,8,0:0:0:0:
358,192,42098,1,0,0:0:0:0:
460,192,42098,1,0,0:0:0:0:
51,192,42208,1,8,0:0:0:0:
153,192,42208,1,0,0:0:0:0:
256,192,42317,1,2,0:0:0:0:
358,192,42317,1,0,0:0:0:50:cymbal.wav
460,192,42317,128,0,43631:0:0:0:0:
153,192,42755,1,0,0:0:0:0:
51,192,42974,128,0,43084:0:0:0:0:
358,192,43193,1,0,0:0:0:0:
51,192,43412,1,2,0:0:0:0:
153,192,43412,1,0,0:0:0:0:
51,192,43631,128,8,44726:0:0:0:0:
256,192,43631,1,0,0:0:0:0:
358,192,43631,1,0,0:0:0:0:
358,192,44069,128,0,44179:0:0:0:0:
256,192,44316,1,0,0:0:0:0:
460,192,44316,128,0,44726:0:0:0:0:
358,192,44507,128,0,44945:0:0:0:0:
153,192,44726,128,2,44799:0:0:0:0:
51,192,44799,128,2,44872:0:0:0:0:
256,192,44872,128,2,44945:0:0:0:0:
153,192,44945,1,2,0:0:0:0:
460,192,44945,128,0,46013:0:0:0:0:
51,192,45383,128,0,45493:0:0:0:0:
256,192,45602,1,0,0:0:0:0:
153,192,45821,1,0,0:0:0:0:
358,192,45821,128,0,46259:0:0:0:0:
51,192,46013,1,2,0:0:0:0:
153,192,46013,1,0,0:0:0:0:
51,192,46259,1,8,0:0:0:0:
256,192,46259,1,0,0:0:0:0:
460,192,46259,128,0,47135:0:0:0:0:
51,192,46697,128,0,47354:0:0:0:0:
153,192,46697,1,0,0:0:0:0:
153,192,47135,128,2,47573:0:0:0:0:
256,192,47135,1,0,0:0:0:0:
358,192,47190,1,0,0:0:0:0:
460,192,47244,1,0,0:0:0:0:
358,192,47354,128,2,47427:0:0:0:0:
51,192,47427,128,2,47573:0:0:0:0:
256,192,47500,128,2,47573:0:0:0:0:
358,192,47573,128,2,47646:0:0:0:0:
460,192,47573,128,0,48887:0:0:0:0:
51,192,48011,1,0,0:0:0:0:
358,192,48230,1,0,0:0:0:0:
51,192,48449,128,0,48558:0:0:0:0:
153,192,48640,1,2,0:0:0:0:
256,192,48640,1,0,0:0:0:0:
153,192,48887,1,8,0:0:0:0:
256,192,48887,1,0,0:0:0:50:cymbal.wav
358,192,48887,128,0,50201:0:0:0:0:
153,192,49325,128,0,49434:0:0:0:0:
51,192,49544,1,0,0:0:0:0:
460,192,49544,128,0,49653:0:0:0:0:
51,192,49763,128,0,49872:0:0:0:0:
153,192,49954,1,8,0:0:0:0:
256,192,49954,1,0,0:0:0:0:
51,192,50201,128,2,51186:0:0:0:0:
153,192,50201,1,0,0:0:0:0:
460,192,50201,1,0,0:0:0:0:
460,192,50639,1,0,0:0:0:0:
256,192,50858,1,0,0:0:0:0:
460,192,51077,128,0,51514:0:0:0:0:
51,192,51296,1,8,0:0:0:0:
153,192,51296,1,0,0:0:0:0:
358,192,51296,128,0,51514:0:0:0:0:
51,192,51514,128,2,51624:0:0:0:0:
256,192,51514,1,0,0:0:0:50:cymbal.wav
153,192,51569,128,0,51679:0:0:0:0:
460,192,51624,128,0,51733:0:0:0:0:
358,192,51679,128,0,51788:0:0:0:0:
51,192,51733,128,0,51843:0:0:0:0:
256,192,51788,128,0,51898:0:0:0:0:
153,192,51843,128,0,51952:0:0:0:0:
460,192,51898,128,0,52007:0:0:0:0:
358,192,51952,128,0,52062:0:0:0:0:
51,192,52007,128,0,52117:0:0:0:0:
153,192,52062,128,0,52171:0:0:0:0:
460,192,52117,128,0,52226:0:0:0:0:
256,192,52171,128,0,52281:0:0:0:0:
358,192,52226,128,0,52336:0:0:0:0:
153,192,52281,128,0,52390:0:0:0:0:
51,192,52336,128,0,52445:0:0:0:0:
358,192,52390,128,8,52500:0:0:0:0:
460,192,52390,1,0,0:0:0:0:
256,192,52445,128,0,52555:0:0:0:0:
51,192,52500,128,0,52609:0:0:0:0:
153,192,52555,128,0,52664:0:0:0:0:
358,192,52609,1,8,0:0:0:0:
460,192,52609,128,0,52719:0:0:0:0:
256,192,52664,128,0,52774:0:0:0:0:
153,192,52719,128,0,52828:0:0:0:0:
460,192,52774,128,0,52828:0:0:0:0:
51,192,52828,128,2,53485:0:0:0:0:
256,192,52828,1,4,0:0:0:0:
358,192,52828,1,0,0:0:0:0:
358,192,53047,128,0,53157:0:0:0:0:
256,192,53266,1,2,0:0:0:0:
460,192,53266,128,0,54033:0:0:0:0:
153,192,53485,1,8,0:0:0:0:
256,192,53485,128,0,53595:0:0:0:0:
358,192,53485,128,0,54142:0:0:0:0:
51,192,53704,1,2,0:0:0:0:
153,192,53704,128,0,53814:0:0:0:0:
256,192,53923,128,0,54799:0:0:0:0:
153,192,54142,128,2,55018:0:0:0:0:
460,192,54142,128,0,54580:0:0:0:0:
51,192,54580,128,2,54690:0:0:0:0:
358,192,54580,1,0,0:0:0:0:
358,192,54799,128,8,55237:0:0:0:0:
460,192,54799,1,0,0:0:0:0:
51,192,55018,128,2,55456:0:0:0:0:
256,192,55018,128,0,55128:0:0:0:0:
153,192,55237,128,0,55456:0:0:0:0:
460,192,55237,128,0,55347:0:0:0:0:
256,192,55456,1,2,0:0:0:0:
358,192,55456,1,0,0:0:0:50:cymbal.wav
460,192,55456,128,0,56004:0:0:0:0:
153,192,55894,1,2,0:0:0:0:
358,192,55894,128,0,56551:0:0:0:0:
51,192,56113,1,8,0:0:0:0:
256,192,56113,1,0,0:0:0:0:
460,192,56113,128,0,56223:0:0:0:0:
51,192,56332,128,2,56441:0:0:0:0:
153,192,56332,128,0,56743:0:0:0:0:
256,192,56551,128,0,56743:0:0:0:0:
460,192,56551,128,0,56660:0:0:0:0:
358,192,56743,128,0,56852:0:0:0:50:cymbal.wav
460,192,56743,128,0,57317:0:0:0:0:
51,192,56743,1,2,0:0:0:0:
256,192,56989,128,0,57427:0:0:0:0:
51,192,57208,1,2,0:0:0:0:
153,192,57208,128,0,57536:0:0:0:0:
51,192,57427,128,8,57755:0:0:0:0:
358,192,57427,1,0,0:0:0:0:
460,192,57427,128,0,57947:0:0:0:0:
153,192,57646,1,2,0:0:0:0:
358,192,57646,128,0,58056:0:0:0:0:
51,192,57865,1,0,0:0:0:0:
256,192,57865,128,0,58056:0:0:0:0:
460,192,58056,1,0,0:0:0:0:
51,192,58056,128,2,58741:0:0:0:0:
153,192,58056,128,4,58522:0:0:0:0:
256,192,58522,1,2,0:0:0:0:
358,192,58522,128,0,58631:0:0:0:0:
153,192,58741,1,8,0:0:0:0:
256,192,58741,1,0,0:0:0:0:
358,192,58741,128,0,59179:0:0:0:0:
51,192,58960,128,2,59398:0:0:0:0:
460,192,58960,128,0,59069:0:0:0:0:
153,192,59179,128,0,59398:0:0:0:0:
256,192,59398,128,2,59836:0:0:0:0:
358,192,59398,128,0,60164:0:0:0:50:cymbal.wav
460,192,59398,1,0,0:0:0:0:
153,192,59836,1,2,0:0:0:0:
460,192,59836,128,0,59945:0:0:0:0:
51,192,60055,1,8,0:0:0:0:
256,192,60055,128,0,60274:0:0:0:0:
460,192,60055,128,0,60383:0:0:0:0:
51,192,60274,128,2,60712:0:0:0:0:
358,192,60274,128,0,60383:0:0:0:0:
153,192,60493,128,0,60712:0:0:0:0:
460,192,60493,128,0,60602:0:0:0:0:
256,192,60712,128,2,61150:0:0:0:0:
358,192,60712,128,0,61478:0:0:0:50:cymbal.wav
460,192,60712,1,0,0:0:0:0:
51,192,61150,1,2,0:0:0:0:
153,192,61150,128,0,61259:0:0:0:0:
153,192,61368,1,8,0:0:0:0:
256,192,61368,128,0,61587:0:0:0:0:
460,192,61368,128,0,61587:0:0:0:0:
153,192,61587,128,2,61697:0:0:0:0:
358,192,61587,128,0,61806:0:0:0:0:
51,192,61806,128,0,61916:0:0:0:0:
460,192,61806,128,0,62025:0:0:0:0:
51,192,62025,128,2,62573:0:0:0:0:
153,192,62025,128,0,62354:0:0:0:50:cymbal.wav
256,192,62025,1,0,0:0:0:0:
358,192,62025,1,0,0:0:0:0:
153,192,62463,128,8,63011:0:0:0:0:
460,192,62463,128,0,62792:0:0:0:0:
51,192,62682,128,8,63230:0:0:0:0:
358,192,62682,128,0,62901:0:0:0:0:
256,192,62901,128,8,63120:0:0:0:0:
460,192,62901,128,2,63230:0:0:0:0:
153,192,63120,128,0,63230:0:0:0:50:tom.wav
358,192,63120,128,0,63339:0:0:0:0:
51,192,63339,128,4,63996:0:0:0:0:
153,192,63339,1,2,0:0:0:0:
256,192,63339,1,0,0:0:0:0:
460,192,63339,128,0,63777:0:0:0:0:
256,192,63777,128,2,63887:0:0:0:0:
358,192,63777,128,0,64215:0:0:0:0:
153,192,63996,1,8,0:0:0:0:
460,192,63996,128,0,64653:0:0:0:0:
153,192,64215,128,2,64544:0:0:0:0:
256,192,64215,128,0,64434:0:0:0:0:
358,192,64434,128,0,64653:0:0:0:0:
51,192,64653,1,2,0:0:0:0:
153,192,64653,128,0,65310:0:0:0:50:cymbal.wav
256,192,64653,128,0,65091:0:0:0:0:
358,192,65091,1,2,0:0:0:0:
460,192,65091,128,0,65201:0:0:0:0:
256,192,65310,1,8,0:0:0:0:
358,192,65310,1,0,0:0:0:0:
460,192,65310,128,0,65748:0:0:0:0:
51,192,65529,128,2,65639:0:0:0:0:
153,192,65529,128,0,65967:0:0:0:0:
256,192,65748,128,0,65967:0:0:0:0:
358,192,65748,128,0,65858:0:0:0:0:
51,192,65967,128,2,66405:0:0:0:0:
358,192,65967,1,0,0:0:0:50:cymbal.wav
460,192,65967,128,0,66733:0:0:0:0:
153,192,66405,128,2,66514:0:0:0:0:
256,192,66405,1,0,0:0:0:0:
51,192,66624,128,8,67171:0:0:0:0:
153,192,66624,1,0,0:0:0:0:
358,192,66624,128,0,66952:0:0:0:0:
256,192,66843,128,2,67062:0:0:0:0:
460,192,66843,128,0,67281:0:0:0:0:
153,192,67062,128,0,67171:0:0:0:0:
358,192,67062,128,0,67281:0:0:0:0:
51,192,67281,1,2,0:0:0:0:
153,192,67281,128,0,67719:0:0:0:50:cymbal.wav
256,192,67281,128,0,67938:0:0:0:0:
51,192,67500,128,0,67719:0:0:0:0:
358,192,67719,128,2,68047:0:0:0:0:
460,192,67719,1,0,0:0:0:0:
51,192,67938,128,8,68485:0:0:0:0:
153,192,67938,1,0,0:0:0:0:
460,192,67938,128,0,68266:0:0:0:0:
153,192,68157,128,2,68595:0:0:0:0:
358,192,68157,1,0,0:0:0:0:
256,192,68376,128,0,68595:0:0:0:0:
460,192,68376,1,0,0:0:0:0:
51,192,68595,1,2,0:0:0:0:
358,192,68595,128,4,69142:0:0:0:0:
460,192,68595,128,0,69361:0:0:0:0:
153,192,69033,1,2,0:0:0:0:
256,192,69033,128,0,69799:0:0:0:0:
51,192,69252,128,8,69361:0:0:0:0:
358,192,69252,1,0,0:0:0:0:
51,192,69471,1,2,0:0:0:0:
460,192,69471,128,0,69580:0:0:0:0:
358,192,69690,128,0,70566:0:0:0:0:
153,192,69744,1,0,0:0:0:0:
51,192,69799,1,0,0:0:0:0:
460,192,69854,1,0,0:0:0:0:
153,192,69909,1,2,0:0:0:0:
256,192,69909,128,0,70347:0:0:0:0:
153,192,70347,128,2,70456:0:0:0:0:
460,192,70347,128,0,71113:0:0:0:0:
51,192,70566,1,8,0:0:0:0:
153,192,70566,128,0,71004:0:0:0:0:
256,192,70566,128,0,70675:0:0:0:0:
358,192,70785,128,2,71168:0:0:0:0:
51,192,71004,128,8,71113:0:0:0:0:
256,192,71113,128,0,71223:0:0:0:0:
153,192,71168,128,0,71277:0:0:0:0:
51,192,71223,128,2,72482:0:0:0:0:
358,192,71223,1,0,0:0:0:50:cymbal.wav
460,192,71223,1,0,0:0:0:0:
358,192,71879,128,0,71989:0:0:0:50:tom.wav
460,192,71879,1,0,0:0:0:0:
153,192,72098,1,0,0:0:0:50:tom.wav
256,192,72098,1,0,0:0:0:0:
358,192,72372,128,0,72427:0:0:0:0:
153,192,72482,128,0,72536:0:0:0:0:
256,192,72509,128,0,72564:0:0:0:0:
358,192,72536,128,2,72591:0:0:0:0:
460,192,72536,128,0,73522:0:0:0:0:
51,192,72974,1,2,0:0:0:0:
153,192,72974,1,0,0:0:0:0:
51,192,73193,1,2,0:0:0:0:
256,192,73193,1,0,0:0:0:0:
358,192,73193,1,0,0:0:0:0:
51,192,73412,1,2,0:0:0:0:
256,192,73412,1,0,0:0:0:0:
358,192,73412,1,0,0:0:0:0:
51,192,73631,1,2,0:0:0:0:
153,192,73631,1,0,0:0:0:0:
256,192,73631,1,0,0:0:0:0:
460,192,73631,1,0,0:0:0:0:
51,192,73823,128,2,74178:0:0:0:0:
256,192,73823,128,4,74288:0:0:0:0:
358,192,73823,128,0,74288:0:0:0:0:
460,192,73823,128,0,74589:0:0:0:0:
51,192,74288,128,2,75027:0:0:0:0:
153,192,74288,128,0,75027:0:0:0:0:
256,192,74507,1,8,0:0:0:0:
358,192,74507,1,0,0:0:0:0:
358,192,74698,128,2,75136:0:0:0:0:
460,192,74698,128,0,75903:0:0:0:0:
256,192,74945,1,0,0:0:0:0:
153,192,75136,128,8,75574:0:0:0:0:
51,192,75136,128,2,75574:0:0:0:0:
256,192,75574,128,2,76341:0:0:0:0:
358,192,75793,128,0,76122:0:0:0:0:
51,192,75793,1,8,0:0:0:0:
460,192,76012,1,0,0:0:0:0:
153,192,76012,128,2,76450:0:0:0:0:
358,192,76231,1,0,0:0:0:0:
51,192,76231,128,8,76450:0:0:0:0:
256,192,76450,128,4,76888:0:0:0:0:
358,192,76450,128,2,76888:0:0:0:0:
460,192,76450,1,0,0:0:0:0:
51,192,76669,128,0,77436:0:0:0:0:
153,192,76888,128,2,77217:0:0:0:0:
358,192,77107,128,8,77655:0:0:0:0:
460,192,77107,128,0,77436:0:0:0:0:
256,192,77326,128,0,78093:0:0:0:0:
153,192,77326,128,2,77874:0:0:0:0:
51,192,77545,128,2,77874:0:0:0:0:
460,192,77545,128,0,77655:0:0:0:0:
358,192,77764,128,2,78093:0:0:0:0:
460,192,77764,128,0,78421:0:0:0:50:cymbal.wav
51,192,77983,128,8,78312:0:0:0:0:
153,192,77983,128,0,78312:0:0:0:0:
256,192,78202,128,4,78421:0:0:0:0:
358,192,78202,128,2,78421:0:0:0:0:
51,192,78421,128,0,79078:0:0:0:50:tom.wav
153,192,78421,128,0,78859:0:0:0:0:
358,192,78640,1,2,0:0:0:0:
460,192,78640,1,0,0:0:0:50:tom.wav
256,192,78859,1,0,0:0:0:50:tom.wav
460,192,78859,1,0,0:0:0:0:
153,192,79078,1,4,0:0:0:0:
256,192,79078,1,2,0:0:0:0:
358,192,79078,128,0,80392:0:0:0:0:
460,192,79078,128,0,79187:0:0:0:0:
460,192,79297,128,0,79625:0:0:0:0:
153,192,79516,128,2,79625:0:0:0:0:
256,192,79516,128,0,80063:0:0:0:0:
51,192,79735,1,8,0:0:0:0:
153,192,79735,1,0,0:0:0:0:
460,192,79735,128,0,80392:0:0:0:0:
51,192,79954,1,2,0:0:0:0:
256,192,80173,128,0,81049:0:0:0:0:
51,192,80392,128,2,80939:0:0:0:0:
153,192,80392,128,0,80501:0:0:0:50:cymbal.wav
153,192,80611,128,0,80939:0:0:0:0:
358,192,80830,128,2,81158:0:0:0:0:
460,192,80830,1,0,0:0:0:0:
51,192,81049,128,8,81596:0:0:0:0:
153,192,81049,1,0,0:0:0:0:
460,192,81049,128,0,81377:0:0:0:0:
153,192,81268,128,2,81706:0:0:0:0:
358,192,81268,1,0,0:0:0:0:
256,192,81487,128,8,81706:0:0:0:0:
460,192,81487,1,2,0:0:0:0:
51,192,81706,1,2,0:0:0:0:
358,192,81706,128,0,81815:0:0:0:50:cymbal.wav
460,192,81706,128,0,82034:0:0:0:0:
358,192,81925,128,0,82253:0:0:0:0:
51,192,82144,128,2,82801:0:0:0:0:
460,192,82144,128,0,82910:0:0:0:0:
153,192,82363,1,8,0:0:0:0:
256,192,82363,1,0,0:0:0:50:cymbal.wav
358,192,82363,1,0,0:0:0:0:
256,192,82582,1,2,0:0:0:0:
358,192,82582,1,0,0:0:0:0:
153,192,82801,1,0,0:0:0:0:
256,192,82801,1,0,0:0:0:0:
358,192,83033,1,0,0:0:0:0:
51,192,83033,128,2,83470:0:0:0:0:
460,192,83033,1,0,0:0:0:0:
358,192,83251,1,2,0:0:0:0:
460,192,83251,1,0,0:0:0:0:
153,192,83470,128,2,83580:0:0:0:0:
256,192,83470,128,0,83580:0:0:0:0:
460,192,83470,128,0,83580:0:0:0:0:
51,192,83689,1,8,0:0:0:50:tom.wav
153,192,83689,1,0,0:0:0:0:
460,192,83689,128,0,84127:0:0:0:0:
51,192,83908,1,8,0:0:0:50:tom.wav
153,192,83908,1,0,0:0:0:0:
256,192,83908,1,0,0:0:0:0:
51,192,84127,128,2,84237:0:0:0:0:
153,192,84127,128,8,84237:0:0:0:50:tom.wav
358,192,84127,128,0,84237:0:0:0:0:
51,192,84346,128,2,85770:0:0:0:0:
153,192,84346,128,4,86098:0:0:0:0:
256,192,84346,128,0,86536:0:0:0:0:
358,192,84346,128,0,86755:0:0:0:0:
460,192,84346,128,0,86783:0:0:0:0:
51,192,85879,128,0,87193:0:0:0:0:
153,192,86208,128,0,87193:0:0:0:0:
256,192,86646,128,0,87193:0:0:0:0:
358,192,86865,128,0,87193:0:0:0:0:
460,192,86892,128,0,87193:0:0:0:0:
