osu file format v14

[General]
AudioFilename: audio.mp3
AudioLeadIn: 0
PreviewTime: 52770
Countdown: 0
SampleSet: Soft
StackLeniency: 0.7
Mode: 0
LetterboxInBreaks: 0
WidescreenStoryboard: 1

[Editor]
Bookmarks: 52839
DistanceSpacing: 0.2
BeatDivisor: 8
GridSize: 32
TimelineZoom: 1

[Metadata]
Title:Tabibito no Uta (TV Size)
TitleUnicode:旅人の唄 (TV Size)
Artist:Ohara Yuiko
ArtistUnicode:大原ゆい子
Creator:Kibbleru
Version:ImpureDog's Insane
Source:Mushoku Tensei ~Isekai Ittara Honki Dasu~
Tags:Jobless Reincarnation: I Will Seriously Try If I Go To Another World 無職転生 ~異世界行ったら本気だす~ opening MANYO Touhou Amateurre Impurepug KineticDog Winnie Kocari Momochikun Mochi japanese folk pop
BeatmapID:2820266
BeatmapSetID:1363149

[Difficulty]
HPDrainRate:4
CircleSize:4
OverallDifficulty:7
ApproachRate:8
SliderMultiplier:1.8
SliderTickRate:1

[Events]
//Background and Video events
0,0,"91686049_p0.jpg",0,0
//Break Periods
//Storyboard Layer 0 (Background)
//Storyboard Layer 1 (Fail)
//Storyboard Layer 2 (Pass)
//Storyboard Layer 3 (Foreground)
//Storyboard Layer 4 (Overlay)
//Storyboard Sound Samples

[TimingPoints]
270,437.956204379562,3,2,1,20,1,0
4430,-100,3,2,1,5,0,0
4649,-100,3,2,1,50,0,0
4978,-100,3,2,1,5,0,0
5087,-100,3,2,1,50,0,0
5415,-100,3,2,1,5,0,0
5525,-100,3,2,1,70,0,0
17350,-133.333333333333,3,2,1,50,0,0
18664,-100,3,2,1,30,0,0
21291,-166.666666666667,3,2,2,40,0,0
31802,-133.333333333333,3,2,2,50,0,0
42094,-133.333333333333,3,2,1,60,0,0
52824,-100,3,2,1,70,0,0
72532,-166.666666666667,3,2,1,70,0,0
72970,-133.333333333333,3,2,1,70,0,0
73408,-111.111111111111,3,2,1,70,0,0
73846,-90.9090909090909,3,2,1,70,0,0
74503,-100,3,2,1,70,0,0
84467,-100,3,2,1,40,0,0

[Colours]
Combo1 : 247,153,227
Combo2 : 253,159,98
Combo3 : 255,224,130
Combo4 : 244,130,130

[HitObjects]
57,370,5525,6,0,P|12:328|29:232,1,135,6|0,3:2|0:0,0:0:0:0:
89,292,5963,1,0,3:2:0:0:
89,292,6182,2,0,P|137:274|166:224,1,90,10|0,0:0|3:2,0:0:0:0:
166,350,6620,5,0,0:0:0:0:
165,211,6839,2,0,P|147:163|97:134,1,90,2|0,3:2|0:0,0:0:0:0:
48,283,7277,2,0,P|98:291|148:262,1,90,0|2,3:2|0:0,0:0:0:0:
44,146,7715,2,0,P|11:185|11:243,1,90,0|8,3:2|0:0,0:0:0:0:
256,169,8153,6,0,B|291:138|291:138|298:56|226:22,1,180,2|0,3:2|3:2,0:0:0:0:
132,146,8810,2,0,P|146:219|169:272,1,90,10|0,0:0|3:2,0:0:0:0:
172,71,9248,1,0,0:0:0:0:
326,148,9467,2,0,P|399:134|467:102,1,135,2|0,3:2|0:0,0:0:0:0:
480,92,9905,1,0,3:2:0:0:
367,236,10124,5,10,0:0:0:0:
388,378,10343,1,8,3:3:0:0:
500,290,10562,1,4,3:3:0:0:
418,303,10781,6,0,B|337:321|346:219|255:243,1,180,6|0,3:2|3:2,0:0:0:0:
474,178,11438,2,0,P|487:126|466:69,1,90,10|0,0:0|3:2,0:0:0:0:
415,9,11876,1,0,0:0:0:0:
410,118,12095,6,0,P|441:161|498:181,1,90,2|0,3:2|0:0,0:0:0:0:
328,200,12533,2,0,P|274:205|228:244,1,90,0|2,3:2|0:0,0:0:0:0:
298,87,12971,2,0,P|319:38|309:-21,1,90,0|8,3:2|0:0,0:0:0:0:
245,225,13409,6,0,B|211:257|208:305|208:305|167:288|121:309,1,180,2|0,3:2|3:2,0:0:0:0:
54,353,14066,1,10,0:0:0:0:
145,216,14285,2,0,P|128:168|70:135,1,90,0|0,3:2|0:0,0:0:0:0:
121,308,14723,2,0,P|222:290|245:225,1,180,2|0,3:2|3:2,0:0:0:0:
199,77,15380,5,10,0:0:0:0:
158,232,15598,1,8,3:3:0:0:
283,133,15817,1,4,3:3:0:0:
124,141,16036,1,6,3:2:0:0:
256,192,16255,12,2,18664,0:0:0:0:
394,326,19759,5,2,0:0:0:0:
400,334,19868,1,2,0:0:0:0:
406,342,19978,2,0,P|462:333|435:252,2,135.000005149842,0|0|0,0:0|0:0|0:0,0:0:0:0:
277,198,21292,6,0,B|292:182|292:182|267:145|274:84,1,107.999996704102,2|0,3:2|0:0,0:0:0:0:
317,38,21949,1,0,0:0:0:0:
378,81,22168,2,0,P|413:92|452:85,1,53.9999983520508,2|0,0:0|0:0,0:0:0:0:
498,26,22606,2,0,P|454:37|436:113,1,107.999996704102,2|2,3:2|0:0,0:0:0:0:
429,90,23482,2,0,P|444:120|445:152,1,53.9999983520508,2|0,0:0|0:0,0:0:0:0:
425,215,23920,6,0,L|306:198,1,107.999996704102,2|0,3:2|0:0,0:0:0:0:
243,183,24577,1,0,0:0:0:0:
196,242,24796,2,0,P|192:281|211:315,1,53.9999983520508,2|0,0:0|0:0,0:0:0:0:
345,296,25234,2,0,P|342:230|297:187,1,107.999996704102,2|2,3:2|0:0,0:0:0:0:
18,334,26328,5,0,0:0:0:0:
6,347,26547,2,0,L|128:329,1,107.999996704102,2|2,3:2|0:0,0:0:0:0:
180,365,27423,2,0,P|201:326|197:293,1,53.9999983520508,2|0,0:0|0:0,0:0:0:0:
225,180,27861,2,0,P|261:219|262:272,1,107.999996704102,2|0,3:2|0:0,0:0:0:0:
201,317,28518,1,0,0:0:0:0:
261,272,28737,2,0,B|290:269|289:280|313:280,1,53.9999983520508,2|0,0:0|0:0,0:0:0:0:
328,205,29175,6,0,P|336:152|390:109,2,107.999996704102,2|2|2,3:2|0:0|0:0,0:0:0:0:
305,134,30270,1,2,0:0:0:0:
295,139,30380,1,2,0:0:0:0:
286,144,30489,1,2,3:2:0:0:
286,144,31146,1,0,3:2:0:0:
249,66,31365,2,0,P|232:35|206:21,1,53.9999983520508,0|0,3:2|3:2,0:0:0:0:
66,128,31803,6,0,P|131:142|179:79,1,135.000005149842,2|0,3:2|0:0,0:0:0:0:
23,90,32460,2,0,P|32:131|74:156,2,67.5000025749208,0|0|0,0:0|0:0|0:0,0:0:0:0:
54,17,33117,5,2,3:2:0:0:
124,40,33336,1,0,0:0:0:0:
46,23,33555,1,0,0:0:0:0:
130,29,33774,2,0,L|207:37,1,67.5000025749208,0|0,0:0|0:0,0:0:0:0:
280,12,34212,5,2,0:0:0:0:
218,130,34431,2,0,B|216:209|166:174|164:247,1,135.000005149842,2|0,3:2|0:0,0:0:0:0:
218,363,35088,1,0,0:0:0:0:
278,312,35307,2,0,P|271:282|230:252,1,67.5000025749208,0|0,0:0|0:0,0:0:0:0:
58,257,35744,2,0,P|80:322|157:326,2,135.000005149842,2|2|2,3:2|0:0|0:0,0:0:0:0:
48,245,36839,1,2,0:0:0:0:
6,175,37058,6,0,B|27:126|2:77|2:77|28:23,1,135.000005149842,2|0,3:2|0:0,0:0:0:0:
121,8,37715,2,0,L|93:84,1,67.5000025749208,0|0,0:0|0:0,0:0:0:0:
29,34,38153,5,0,0:0:0:0:
100,106,38372,2,0,P|145:121|185:104,1,67.5000025749208,2|0,3:2|0:0,0:0:0:0:
217,40,38810,1,0,0:0:0:0:
318,172,39029,2,0,P|344:124|303:51,1,135.000005149842,0|2,0:0|0:0,0:0:0:0:
217,40,39686,6,0,L|246:123,1,67.5000025749208,2|0,3:2|0:0,0:0:0:0:
258,247,40124,2,0,L|235:183,1,67.5000025749208,0|0,0:0|0:0,0:0:0:0:
324,109,40562,2,0,P|357:120|401:129,1,67.5000025749208,0|0,0:0|0:0,0:0:0:0:
156,226,41000,6,0,P|92:248|17:268,1,135.000005149842,2|2,3:2|3:2,0:0:0:0:
121,153,41876,1,2,3:2:0:0:
6,290,42095,5,8,0:0:0:0:
1,323,42204,1,8,0:0:0:0:
14,354,42314,2,0,P|73:378|123:337,1,135.000005149842,6|0,3:2|0:0,0:0:0:0:
155,266,42971,1,0,0:0:0:0:
68,150,43190,2,0,P|49:177|44:210,1,67.5000025749208,0|0,0:0|3:2,0:0:0:0:
263,367,43628,6,0,B|289:301|289:301|254:220,1,135.000005149842,10|0,0:0|0:0,0:0:0:0:
253,136,44285,2,0,P|211:112|197:56,1,101.250003862381,0|0,0:0|0:0,0:0:0:0:
198,57,44723,5,8,0:0:0:0:
200,50,44832,1,8,0:0:0:0:
202,43,44942,2,0,P|170:104|100:104,1,135.000005149842,2|0,3:2|0:0,0:0:0:0:
1,63,45598,1,0,3:2:0:0:
60,22,45817,2,0,P|96:17|137:10,1,67.5000025749208,0|0,0:0|3:2,0:0:0:0:
264,138,46255,6,0,B|291:161|291:161|417:182,1,135.000005149842,10|0,0:0|0:0,0:0:0:0:
375,99,47131,1,0,3:2:0:0:
419,35,47350,5,8,0:0:0:0:
419,35,47460,1,8,0:0:0:0:
419,35,47569,2,0,P|506:35|516:100,1,135.000005149842,2|0,3:2|0:0,0:0:0:0:
493,138,48226,1,0,3:2:0:0:
375,99,48445,2,0,P|359:49|375:8,1,67.5000025749208,0|0,0:0|3:2,0:0:0:0:
299,251,48883,6,0,B|313:318|313:318|379:369,1,135.000005149842,8|2,0:0|3:2,0:0:0:0:
449,367,49540,2,0,P|437:313|408:292,1,67.5000025749208,0|2,0:0|3:2,0:0:0:0:
386,244,49978,1,8,0:0:0:0:
225,158,50197,6,0,P|239:92|252:11,1,135.000005149842,2|0,3:2|0:0,0:0:0:0:
116,183,50854,2,0,P|165:228|229:279,1,135.000005149842,0|8,3:2|0:0,0:0:0:0:
148,76,51511,2,0,P|84:95|7:126,1,135.000005149842,2|0,3:2|0:0,0:0:0:0:
20,120,52387,5,8,0:0:0:0:
98,235,52606,1,8,0:0:0:0:
335,113,52825,6,0,P|316:49|202:30,1,180,6|0,3:2|3:2,0:0:0:0:
432,239,53482,2,0,P|464:271|517:277,1,90,10|0,0:0|3:2,0:0:0:0:
420,139,53920,1,0,3:2:0:0:
345,348,54139,6,0,P|296:345|343:270,1,180,2|0,3:2|3:2,0:0:0:0:
189,326,54796,2,0,P|145:317|114:285,1,90,10|0,0:0|3:2,0:0:0:0:
26,169,55234,1,0,3:2:0:0:
114,285,55453,6,0,B|95:240|129:202|129:202|203:170,1,135,2|0,3:2|0:0,0:0:0:0:
257,114,55890,2,0,L|247:203,1,90,0|10,3:2|0:0,0:0:0:0:
262,312,56328,2,0,L|189:259,1,90,0|2,3:2|3:2,0:0:0:0:
28,142,56766,5,2,3:2:0:0:
178,249,56985,1,0,0:0:0:0:
7,229,57204,1,2,3:2:0:0:
199,162,57423,1,8,0:0:0:0:
48,37,57642,2,0,B|15:30|-1:7|-1:7|-9:48|34:67,1,135,10|0,3:3|0:0,0:0:0:0:
97,110,58080,6,0,L|282:66,1,180,6|0,3:2|3:2,0:0:0:0:
383,189,58737,1,10,0:0:0:0:
274,55,58956,2,0,L|175:28,1,90,0|0,3:2|3:2,0:0:0:0:
375,280,59394,6,0,P|435:265|468:148,1,180,2|0,3:2|3:2,0:0:0:0:
423,22,60051,1,10,0:0:0:0:
278,258,60270,5,0,3:2:0:0:
424,306,60489,1,0,3:2:0:0:
474,161,60708,2,0,P|413:99|328:112,1,180,2|0,3:2|3:2,0:0:0:0:
196,200,61365,1,10,0:0:0:0:
205,213,61474,1,2,0:0:0:0:
203,215,61584,2,0,P|142:277|62:264,1,135,0|0,3:0|0:0,0:0:0:0:
98,279,62022,6,0,P|143:305|162:368,1,90,2|0,3:2|0:0,0:0:0:0:
114,189,62460,1,2,3:2:0:0:
78,364,62679,1,8,0:0:0:0:
248,308,62898,1,10,3:3:0:0:
0,251,63117,1,4,3:3:0:0:
251,313,63336,6,0,P|313:291|314:193,1,135,6|0,3:2|0:0,0:0:0:0:
359,156,63774,2,0,P|371:107|426:66,1,90,2|8,3:2|0:0,0:0:0:0:
495,219,64212,2,0,P|446:233|383:205,1,90,2|0,3:2|0:0,0:0:0:0:
287,73,64650,6,0,B|314:44|354:38|388:56|388:56|390:67|404:91,1,135,2|0,3:2|0:0,0:0:0:0:
468,112,65088,2,0,P|510:92|526:40,1,90,2|8,3:2|0:0,0:0:0:0:
320,297,65526,6,0,P|278:277|262:225,1,90,2|0,3:2|0:0,0:0:0:0:
33,109,65963,2,0,B|-14:133|-13:179|-13:179|30:203|73:172,1,180,2|2,3:2|3:2,0:0:0:0:
171,64,66620,1,8,0:0:0:0:
72,173,66839,2,0,P|88:219|97:279,1,90,2|0,3:2|0:0,0:0:0:0:
208,359,67277,2,0,P|192:313|183:253,1,90,2|0,3:2|0:0,0:0:0:0:
88,158,67715,5,2,3:2:0:0:
199,282,67934,1,8,0:0:0:0:
36,246,68153,1,10,3:3:0:0:
188,180,68372,1,4,3:3:0:0:
104,323,68591,6,0,B|93:361|59:386|18:383|18:383|4:347|23:320,1,180,6|2,3:2|3:2,0:0:0:0:
221,143,69248,2,0,P|232:201|141:166,1,180,8|8,0:0|0:0,0:0:0:0:
7,51,69905,2,0,B|44:41|67:66|64:84|88:105|124:99,1,135,2|0,3:2|0:0,0:0:0:0:
194,33,70343,6,0,P|130:61|118:97,1,90,2|8,3:2|0:0,0:0:0:0:
294,159,70781,2,0,P|301:89|276:61,1,90,2|8,3:2|0:0,0:0:0:0:
134,182,71219,6,0,B|112:219|145:263|145:263|203:253|213:204,1,180,6|0,3:2|0:0,0:0:0:0:
286,78,71876,5,8,0:3:0:0:
376,69,72095,6,0,P|431:97|446:136,1,90,4|0,0:3|0:0,0:0:0:0:
456,195,72423,5,0,0:0:0:0:
441,217,72533,6,0,L|377:204,1,53.9999983520508,6|0,3:2|0:0,0:0:0:0:
297,345,72971,6,0,L|231:377,1,67.5000025749208,8|8,3:3|3:3,0:0:0:0:
195,128,73409,6,0,L|144:51,1,80.9999975280763,4|4,3:3|3:3,0:0:0:0:
36,349,73847,6,0,B|12:360|-2:378|-2:378|-44:345|-30:264|37:249,1,198.000006042481,6|2,3:2|3:2,0:0:0:0:
67,131,74504,1,8,0:0:0:0:
176,225,74723,2,0,B|196:237|196:237|226:210|255:205,1,90,2|8,3:2|0:0,0:0:0:0:
400,291,75161,2,0,P|414:356|319:336,1,180,2|0,3:2|3:2,0:0:0:0:
267,288,75817,1,10,0:0:0:0:
371,158,76036,2,0,P|387:75|358:44,1,90,0|8,3:2|0:0,0:0:0:0:
265,4,76474,5,6,3:2:0:0:
303,102,76693,1,0,0:0:0:0:
369,21,76912,1,2,3:2:0:0:
222,112,77131,5,8,0:0:0:0:
381,192,77350,1,2,3:2:0:0:
369,21,77569,1,2,3:2:0:0:
284,190,77788,2,0,P|305:256|413:285,1,180,2|6,3:2|3:2,0:0:0:0:
471,205,78445,1,2,3:2:0:0:
407,304,78664,2,0,P|377:309|307:283,1,90,8|6,0:0|3:3,0:0:0:0:
218,212,79102,5,6,3:2:0:0:
195,349,79321,1,0,0:0:0:0:
235,205,79540,2,0,L|252:107,1,90,2|8,3:2|0:0,0:0:0:0:
111,278,79978,1,2,3:2:0:0:
111,278,80197,1,0,0:0:0:0:
276,313,80416,5,2,3:2:0:0:
111,278,80635,1,0,0:0:0:0:
291,294,80854,2,0,L|392:317,1,90,0|10,3:2|0:0,0:0:0:0:
100,294,81292,2,0,L|12:274,1,90,0|8,3:2|0:0,0:0:0:0:
0,116,81730,6,0,P|26:61|149:79,1,180,4|2,3:2|3:2,0:0:0:0:
208,119,82387,1,14,0:0:0:0:
133,60,82606,2,0,L|115:155,1,90,0|2,3:2|0:0,0:0:0:0:
271,372,83044,2,0,L|254:283,1,90,14|8,3:2|0:3,0:0:0:0:
208,119,83482,5,6,3:3:0:0:
154,305,83701,1,14,3:2:0:0:
288,243,83920,5,8,3:3:0:0:
73,180,84139,1,6,0:3:0:0:
299,233,84358,1,12,3:2:0:0:
256,192,84467,12,2,86930,0:0:0:0:
