osu file format v14

[General]
AudioFilename: audio.mp3
AudioLeadIn: 0
PreviewTime: 122127
Countdown: 0
SampleSet: Soft
StackLeniency: 0.4
Mode: 0
LetterboxInBreaks: 0
WidescreenStoryboard: 0

[Editor]
Bookmarks: 22391,43413,53924,74946,101223,122245,143267,159033,174800,195822,206333,211588,216843,222099,227354,237865,248376,258887
DistanceSpacing: 0.6
BeatDivisor: 4
GridSize: 32
TimelineZoom: 2.1

[Metadata]
Title:Tabibito no Uta
TitleUnicode:旅人の唄
Artist:Ohara Yuiko
ArtistUnicode:大原ゆい子
Creator:Cami
Version:Adventure
Source:無職転生 ~異世界行ったら本気だす~
Tags:himekawa roxy migurdia ロキシー・ミグルディア Jobless Reincarnation: I Will Seriously Try If I Go To Another World Mushoku Tensei: Isekai Ittara Honki Dasu anime op opening full ver version jpop j-pop japanese pop folk
BeatmapID:2944356
BeatmapSetID:1430270

[Difficulty]
HPDrainRate:5
CircleSize:4.2
OverallDifficulty:8
ApproachRate:8.5
SliderMultiplier:1.52
SliderTickRate:1

[Events]
//Background and Video events
0,0,"roxy propaganda.jpg",0,0
//Break Periods
//Storyboard Layer 0 (Background)
//Storyboard Layer 1 (Fail)
//Storyboard Layer 2 (Pass)
//Storyboard Layer 3 (Foreground)
//Storyboard Layer 4 (Overlay)
//Storyboard Sound Samples

[TimingPoints]
1402,437.158469945355,3,2,1,30,1,0
1402,-333.333333333333,4,2,1,30,0,0
2713,-200,4,2,1,30,0,0
4024,-166.666666666667,4,2,1,30,0,0
4680,-142.857142857143,4,2,1,30,0,0
6617,437.956204379562,3,2,1,60,1,0
6617,-58.8235294117647,6,2,1,60,0,0
7492,-100,6,2,1,60,0,0
9244,-66.6666666666667,6,2,1,60,0,0
10120,-100,6,2,1,60,0,0
11872,-71.4285714285714,6,2,1,60,0,0
13186,-100,6,2,1,60,0,0
14500,-83.3333333333333,6,2,1,60,0,0
15376,-100,6,2,1,60,0,0
15814,-90.9090909090909,6,2,1,60,0,0
16689,-100,6,2,1,60,0,0
17127,-160,6,2,1,50,0,0
18441,-133.333333333333,6,2,1,40,0,0
19098,-200,6,2,1,40,0,0
20850,-133.333333333333,6,2,1,40,0,0
22383,-166.666666666667,6,2,1,40,0,0
23697,-200,6,2,1,40,0,0
25011,-100,6,2,1,40,0,0
27638,-142.857142857143,6,2,1,40,0,0
30266,-111.111111111111,6,2,1,40,0,0
31580,-166.666666666667,6,2,1,40,0,0
32894,-133.333333333333,6,2,1,40,0,0
33551,-111.111111111111,6,2,1,40,0,0
34208,-133.333333333333,6,2,1,40,0,0
34865,-111.111111111111,6,2,1,40,0,0
35522,-133.333333333333,6,2,1,40,0,0
36179,-111.111111111111,6,2,1,40,0,0
37711,-142.857142857143,6,2,1,40,0,0
38149,-133.333333333333,6,2,1,40,0,0
38806,-111.111111111111,6,2,1,40,0,0
39463,-133.333333333333,6,2,1,40,0,0
40120,-111.111111111111,6,2,1,40,0,0
40777,-133.333333333333,6,2,1,40,0,0
41434,-111.111111111111,6,2,1,40,0,0
42091,-100,6,2,1,40,0,0
42529,-83.3333333333333,6,2,1,40,0,0
43405,-125,6,2,1,50,0,0
44719,-142.857142857143,6,2,1,50,0,0
52602,-111.111111111111,6,2,1,50,0,0
53916,-66.6666666666667,6,2,1,70,0,0
54354,-100,6,2,1,70,0,0
55230,-66.6666666666667,6,2,1,70,0,0
55668,-100,6,2,1,70,0,0
56544,-83.3333333333333,6,2,1,70,0,0
56981,-66.6666666666667,6,2,1,70,0,0
58295,-83.3333333333333,6,2,1,70,0,0
58733,-71.4285714285714,6,2,1,70,0,0
59171,-58.8235294117647,6,2,1,70,0,0
59609,-74.0740740740741,6,2,1,70,0,0
60485,-52.6315789473684,6,2,1,70,0,0
61361,-100,6,2,1,70,0,0
61799,-45.4545454545455,6,2,1,70,0,0
63113,-66.6666666666667,6,2,1,70,0,0
64865,-100,6,2,1,70,0,0
65741,-66.6666666666667,6,2,1,70,0,0
66179,-100,6,2,1,70,0,0
67054,-66.6666666666667,6,2,1,70,0,0
67492,-100,6,2,1,70,0,0
68806,-66.6666666666667,6,2,1,70,0,0
69025,-100,6,2,1,70,0,0
69244,-125,6,2,1,70,0,0
69463,-166.666666666667,6,2,1,70,0,0
69682,-58.8235294117647,6,2,1,70,0,0
70339,-66.6666666666667,6,2,1,70,0,0
70996,-76.9230769230769,6,2,1,70,0,0
71434,-66.6666666666667,6,2,1,70,0,0
71653,-76.9230769230769,6,2,1,70,0,0
71872,-90.9090909090909,6,2,1,70,0,0
72091,-111.111111111111,6,2,1,70,0,0
72310,-100,6,2,1,60,0,0
73624,-90.9090909090909,6,2,1,60,0,0
74938,-142.857142857143,6,2,1,60,0,0
75157,-200,6,2,1,35,0,0
80193,-125,6,2,1,45,0,0
81507,-250,6,2,1,45,0,0
82821,-125,6,2,1,45,0,0
85887,-166.666666666667,6,2,1,45,0,0
86762,-125,6,2,1,45,0,0
88076,-142.857142857143,6,2,1,45,0,0
89828,-111.111111111111,6,2,1,45,0,0
90704,-111.111111111111,6,2,1,50,0,0
92018,-142.857142857143,6,2,1,50,0,0
92894,-125,6,2,1,50,0,0
93332,-100,6,2,1,50,0,0
94208,-111.111111111111,6,2,1,50,0,0
94427,-111.111111111111,6,2,1,30,0,0
94646,-111.111111111111,6,2,1,50,0,0
95084,-142.857142857143,6,2,1,50,0,0
95960,-100,6,2,1,50,0,0
97273,-142.857142857143,6,2,1,50,0,0
98149,-222.222222222222,6,2,1,50,0,0
98587,-111.111111111111,6,2,1,50,0,0
99901,-142.857142857143,6,2,1,50,0,0
101215,-117.647058823529,6,2,1,50,0,0
106471,-100,6,2,1,50,0,0
106908,-117.647058823529,6,2,1,50,0,0
110412,-100,6,2,1,50,0,0
111726,-142.857142857143,6,2,1,50,0,0
112602,-117.647058823529,6,2,1,50,0,0
113040,-90.9090909090909,6,2,1,50,0,0
113916,-117.647058823529,6,2,1,50,0,0
114354,-142.857142857143,6,2,1,50,0,0
115230,-117.647058823529,6,2,1,50,0,0
115668,-90.9090909090909,6,2,1,50,0,0
116981,-142.857142857143,6,2,1,50,0,0
119609,-76.9230769230769,6,2,1,50,0,0
120923,-50,6,2,1,50,0,0
121361,-100,6,2,1,50,0,0
121799,-142.857142857143,6,2,1,50,0,0
122237,-58.8235294117647,6,2,1,75,0,0
123113,-100,6,2,1,75,0,0
123551,-50,6,2,1,75,0,0
124427,-100,6,2,1,75,0,0
124865,-76.9230769230769,6,2,1,75,0,0
125303,-58.8235294117647,6,2,1,75,0,0
126179,-100,6,2,1,75,0,0
126616,-76.9230769230769,6,2,1,75,0,0
127383,-66.6666666666667,6,2,1,75,0,0
128368,-90.9090909090909,6,2,1,75,0,0
128806,-58.8235294117647,6,2,1,75,0,0
130120,-55.5555555555556,6,2,1,75,0,0
131434,-100,6,2,1,75,0,0
131872,-71.4285714285714,6,2,1,75,0,0
132310,-83.3333333333333,6,2,1,75,0,0
132748,-55.5555555555556,6,2,1,75,0,0
133624,-100,6,2,1,75,0,0
134062,-66.6666666666667,6,2,1,75,0,0
134938,-100,6,2,1,75,0,0
135376,-50,6,2,1,75,0,0
136252,-100,6,2,1,75,0,0
136689,-100,6,2,1,75,0,0
137565,-111.111111111111,6,2,1,75,0,0
138003,-66.6666666666667,6,2,1,65,0,0
138660,-111.111111111111,6,2,1,65,0,0
139317,-83.3333333333333,6,2,1,65,0,0
139755,-100,6,2,1,65,0,0
140631,-100,6,2,1,50,0,0
141945,-90.9090909090909,6,2,1,50,0,0
142821,-222.222222222221,6,2,1,50,0,0
143259,-125,6,2,1,50,0,0
145887,-100,6,2,1,50,0,0
146325,-125,6,2,1,50,0,0
148514,-100,6,2,1,50,0,0
153332,-71.4285714285714,6,2,1,50,0,0
153770,-83.3333333333333,6,2,1,60,0,0
164281,-76.9230769230769,6,2,1,65,0,0
166252,-83.3333333333333,6,2,1,65,0,0
166908,-66.6666666666667,6,2,1,65,0,0
167565,-83.3333333333333,6,2,1,65,0,0
169536,-90.9090909090909,6,2,1,65,0,0
172164,-100,6,2,1,60,0,0
172602,-76.9230769230769,6,2,1,60,0,0
173040,-100,6,2,1,60,0,0
174792,-200,6,2,1,50,0,0
176106,-166.666666666667,6,2,1,50,0,0
177419,-142.857142857143,6,2,1,50,0,0
179828,-142.857142857143,6,2,1,50,0,0
180047,-125,6,2,1,50,0,0
181361,-100,6,2,1,50,0,0
184427,-83.3333333333333,6,2,1,50,0,0
185303,-83.3333333333333,6,2,1,60,0,0
189901,-100,6,2,1,60,0,0
190120,-125,6,2,1,60,0,0
190339,-166.666666666667,6,2,1,60,0,0
190558,-83.3333333333333,6,2,1,60,0,0
193186,-66.6666666666667,6,2,1,60,0,0
195814,-66.6666666666667,6,2,1,60,0,0
196471,-100,6,2,1,60,0,0
197127,-100,6,2,1,60,0,0
197784,-83.3333333333333,6,2,1,60,0,0
200631,-133.333333333333,6,2,1,60,0,0
201069,-71.4285714285714,6,2,1,60,0,0
201507,-83.3333333333333,6,2,1,60,0,0
202383,-74.0740740740741,6,2,1,60,0,0
203697,-117.647058823529,6,2,1,60,0,0
206325,-58.8235294117647,6,2,1,80,0,0
206762,-83.3333333333333,6,2,1,80,0,0
207638,-58.8235294117647,6,2,1,80,0,0
208076,-83.3333333333333,6,2,1,80,0,0
208952,-71.4285714285714,6,2,1,80,0,0
209390,-58.8235294117647,6,2,1,80,0,0
210266,-83.3333333333333,6,2,1,80,0,0
211142,-100,6,2,1,80,0,0
211361,-125,6,2,1,80,0,0
211580,-40,6,2,1,80,0,0
212237,-100,6,2,1,80,0,0
212894,-50,6,2,1,80,0,0
213770,-66.6666666666667,6,2,1,80,0,0
214208,-50,6,2,1,80,0,0
215522,-66.6666666666667,6,2,1,80,0,0
216835,-40,6,2,1,80,0,0
217273,-71.4285714285714,6,2,1,80,0,0
218149,-58.8235294117647,6,2,1,80,0,0
218587,-83.3333333333333,6,2,1,80,0,0
219463,-58.8235294117647,6,2,1,80,0,0
219901,-83.3333333333333,6,2,1,80,0,0
221653,-66.6666666666667,6,2,1,80,0,0
222091,-52.6315789473684,6,2,1,80,0,0
222748,-76.9230769230769,6,2,1,80,0,0
223405,-66.6666666666667,6,2,1,80,0,0
224062,-58.8235294117647,6,2,1,80,0,0
224719,-83.3333333333333,6,2,1,65,0,0
226033,-100,6,2,1,65,0,0
226908,-76.9230769230769,6,2,1,65,0,0
227346,-50,6,2,1,80,0,0
227784,-66.6666666666667,6,2,1,80,0,0
229536,-76.9230769230769,6,2,1,80,0,0
229974,-50,6,2,1,80,0,0
230412,-66.6666666666667,6,2,1,80,0,0
231945,-83.3333333333333,6,2,1,80,0,0
232602,-100,6,2,1,80,0,0
233040,-58.8235294117647,6,2,1,80,0,0
233916,-83.3333333333333,6,2,1,80,0,0
235230,-50,6,2,1,80,0,0
235668,-71.4285714285714,6,2,1,80,0,0
237857,-50,6,2,1,80,0,0
238295,-66.6666666666667,6,2,1,80,0,0
240485,-41.6666666666667,6,2,1,80,0,0
240923,-83.3333333333333,6,2,1,80,0,0
242237,-58.8235294117647,6,2,1,80,0,0
243113,-50,6,2,1,80,0,0
243551,-71.4285714285714,6,2,1,80,0,0
243770,-58.8235294117647,6,2,1,80,0,0
244208,-66.6666666666667,6,2,1,80,0,0
245741,-41.6666666666667,6,2,1,80,0,0
246179,-66.6666666666667,6,2,1,80,0,0
247054,-50,6,2,1,80,0,0
247492,-58.8235294117647,6,2,1,80,0,0
247930,-52.6315789473684,6,2,1,80,0,0
248368,-105.263157894737,6,2,1,50,0,0
254062,-105.263157894737,6,2,1,40,0,0
254500,-105.263157894737,6,2,1,30,0,0
255376,-105.263157894737,6,2,1,25,0,0
256252,-105.263157894737,6,2,1,20,0,0
257127,-105.263157894737,6,2,1,15,0,0
258003,-105.263157894737,6,2,1,10,0,0
258879,-105.263157894737,6,2,1,5,0,0

[Colours]
Combo1 : 102,137,240
Combo2 : 254,203,135
Combo3 : 200,242,249
Combo4 : 221,235,199

[HitObjects]
412,321,1402,6,0,P|440:318|477:340,1,68.3999979125977,2|2,0:0|0:0,0:0:0:0:
340,246,2713,6,0,P|371:217|443:207,1,114,2|0,0:0|0:0,0:0:0:0:
231,271,4024,6,0,P|217:213|257:138,1,136.799995825195,2|2,0:0|0:0,0:0:0:0:
256,192,4789,12,0,6210,0:0:0:0:
195,306,6617,6,0,B|160:316|131:290|131:290|116:324|64:325|64:325|33:294|43:242|80:234,1,258.400004928589,6|0,3:2|3:0,0:0:0:0:
182,155,7273,1,0,1:0:0:0:
245,216,7492,2,0,P|282:219|316:202,1,76,2|0,3:2|0:0,0:0:0:0:
388,3,7930,2,0,P|409:33|412:71,1,76,2|0,3:2|0:0,0:0:0:0:
332,112,8368,1,0,3:0:0:0:
336,119,8806,5,2,3:2:0:0:
276,346,9025,1,0,1:0:0:0:
420,295,9244,6,0,B|441:316|500:312|493:245|451:196|356:202|329:251,1,228.00000869751,6|0,3:2|3:0,0:0:0:0:
176,309,9901,1,0,1:0:0:0:
166,217,10120,2,0,P|203:216|234:236,1,76,2|0,3:2|0:0,0:0:0:0:
87,353,10558,2,0,L|11:369,1,76,2|0,3:2|0:0,0:0:0:0:
87,353,10996,1,0,3:0:0:0:
20,265,11215,5,0,1:0:0:0:
176,309,11434,2,0,P|231:314|272:275,1,114,2|0,1:2|0:0,0:0:0:0:
337,208,11872,6,0,B|273:252|311:336|311:336|355:326|364:286,1,212.79999350586,6|0,3:2|3:0,0:0:0:0:
254,135,12529,1,0,1:0:0:0:
76,264,12748,5,2,3:2:0:0:
137,197,12967,1,2,0:0:0:0:
76,136,13186,2,0,P|34:136|1:153,1,76,2|0,3:2|0:0,0:0:0:0:
254,135,13624,2,0,P|279:99|274:29,1,114,2|0,3:2|0:0,0:0:0:0:
196,69,14062,1,2,3:2:0:0:
330,201,14281,1,0,1:0:0:0:
497,18,14500,6,0,P|430:35|406:144,1,182.399994433594,2|0,1:2|3:0,0:0:0:0:
333,307,15157,1,0,1:0:0:0:
452,352,15376,2,0,P|450:314|428:284,1,76,2|0,3:2|0:0,0:0:0:0:
225,182,15814,2,0,B|255:214|255:214|321:228|365:174,1,167.200005102539,2|0,1:2|3:0,0:0:0:0:
170,262,16471,1,0,1:0:0:0:
170,262,16689,2,0,P|153:302|162:343,1,76,2|4,3:2|0:3,0:0:0:0:
165,74,17127,6,0,B|119:85|91:37|91:37|33:15|1:61,1,190,6|0,3:2|0:0,0:0:0:0:
57,141,18441,5,2,0:0:0:0:
57,141,18660,1,2,0:0:0:0:
21,221,18879,6,0,P|33:228|47:227,1,28.5000010871888,2|2,0:0|0:0,0:0:0:0:
167,202,19098,2,0,P|139:245|130:317,1,114,2|0,0:0|0:0,0:0:0:0:
207,368,19974,1,2,0:0:0:0:
207,368,20193,2,0,P|231:337|220:291,1,76
289,237,20850,6,0,L|324:246,2,28.5000010871888,2|2|2,0:0|0:0|0:0,0:0:0:0:
52,49,22383,6,0,B|16:52|6:-7|65:-15|96:36|75:41|102:80|147:69,1,182.399994433594,2|0,0:0|0:0,0:0:0:0:
216,22,23478,1,0,0:0:0:0:
216,22,23587,1,0,0:0:0:0:
216,22,23697,2,0,P|163:98|179:157,1,152,2|0,0:0|0:0,0:0:0:0:
93,347,25011,6,0,B|67:377|24:388|-16:362|-31:297|47:257|90:312|90:312|135:364|202:339|224:267|158:228|100:249|93:294,1,456,2|2,0:0|0:0,0:0:0:0:
115,263,27638,6,0,L|83:380,1,106.39999675293,2|0,0:0|0:0,0:0:0:0:
180,336,28514,1,2,0:0:0:0:
180,336,28952,2,0,P|232:337|273:369,1,106.39999675293,2|0,0:0|0:0,0:0:0:0:
260,260,29828,1,2,0:0:0:0:
260,260,30266,6,0,B|297:269|327:245|317:238|347:214|390:207|425:223|441:254|441:254|413:228|376:234,1,273.599991650391,2|0,2:0|2:0,2:0:0:0:
376,233,31361,1,2,0:0:0:0:
325,150,31580,2,0,B|292:118|308:65|350:55|350:55|377:77|362:112,1,182.399994433594,2|0,0:0|0:0,0:0:0:0:
215,23,32894,6,0,L|269:5,2,57.0000021743775,2|2|2,0:0|0:0|0:0,0:0:0:0:
138,43,33551,2,0,L|268:-1,1,136.799995825195,2|0,0:0|0:0,0:0:0:0:
64,171,34208,6,0,L|10:153,2,57.0000021743775,2|2|2,0:0|0:0|0:0,0:0:0:0:
140,191,34865,2,0,L|11:147,1,136.799995825195,2|0,0:0|0:0,0:0:0:0:
215,319,35522,6,0,L|269:301,2,57.0000021743775,2|2|2,0:0|0:0|0:0,0:0:0:0:
138,339,36179,2,0,L|268:295,1,136.799995825195,2|0,0:0|0:0,0:0:0:0:
64,378,36835,6,0,P|111:382|138:340,1,102.599996868897,2|0,0:0|0:0,0:0:0:0:
135,331,37273,2,0,P|118:302|83:295,1,68.3999979125977,2|0,0:0|0:0,0:0:0:0:
5,286,37602,1,0,0:0:0:0:
4,291,37711,2,0,L|12:316,2,26.5999991882324,2|2|2,0:0|0:0|0:0,0:0:0:0:
52,219,38149,6,0,P|79:213|107:216,2,57.0000021743775,2|2|2,0:0|0:0|0:0,0:0:0:0:
124,141,38806,2,0,P|175:182|177:248,1,136.799995825195,2|0,0:0|0:0,0:0:0:0:
300,357,39463,6,0,P|280:336|268:310,2,57.0000021743775,2|2|2,0:0|0:0|0:0,0:0:0:0:
196,334,40120,2,0,P|206:267|269:233,1,136.799995825195,2|0,0:0|0:0,0:0:0:0:
295,73,40777,6,0,P|286:100|270:123,2,57.0000021743775,2|2|2,0:0|0:0|0:0,0:0:0:0:
327,179,41434,2,0,P|264:203|203:165,1,136.799995825195,2|0,0:0|0:0,0:0:0:0:
317,0,42091,6,0,P|361:33|374:88,1,114,2|0,0:0|0:0,0:0:0:0:
426,152,42529,2,0,B|456:124|455:85|455:85|465:116|494:130,1,136.799995825195,2|0,0:0|0:0,0:0:0:0:
494,130,42967,1,2,0:0:0:0:
285,81,43186,5,0,1:0:0:0:
282,78,43295,1,0,1:0:0:0:
279,75,43405,2,0,B|187:58|141:138|141:138|111:94|55:109,1,243.2,6|0,3:2|0:0,0:0:0:0:
29,287,44500,5,0,3:0:0:0:
113,332,44719,2,0,B|143:294|116:241|116:241|188:225|218:290,1,212.79999350586,2|0,1:2|0:0,0:0:0:0:
334,342,45814,5,0,1:0:0:0:
334,342,45923,1,0,1:0:0:0:
334,342,46033,2,0,B|300:257|374:288|343:184,1,159.599995129395,2|0,3:2|0:0,0:0:0:0:
344,190,46908,1,2,0:0:0:0:
219,103,47127,5,0,3:0:0:0:
154,169,47346,2,0,B|164:193|194:203|194:203|224:207|243:193,2,106.39999675293,2|0|0,1:2|0:0|3:0,0:0:0:0:
227,111,48441,5,2,1:2:0:0:
227,111,48551,1,2,1:2:0:0:
227,111,48660,2,0,B|352:128|352:128|292:120|267:67,1,212.79999350586,2|0,3:2|0:0,0:0:0:0:
353,38,49755,1,0,3:0:0:0:
433,75,49974,2,0,P|451:129|431:180,1,106.39999675293,2|2,1:2|0:0,0:0:0:0:
324,238,50631,1,0,0:0:0:0:
324,238,50850,2,0,L|338:185,1,53.1999983764649,2|0,0:2|1:0,0:0:0:0:
502,361,51288,6,0,B|409:406|407:286|295:346,1,212.79999350586,2|0,3:2|0:0,0:0:0:0:
133,252,52383,1,0,1:0:0:0:
185,379,52602,2,0,B|232:333|252:257|196:187|91:268|182:340,1,273.599991650391,2|0,3:2|1:0,0:0:0:0:
428,221,53697,1,0,1:0:0:0:
322,23,53916,6,0,B|273:54|267:132|310:167|310:167|339:158|348:122,1,228.00000869751,4|0,1:2|1:0,0:0:0:0:
185,0,54573,1,2,1:2:0:0:
75,51,54792,2,0,L|-27:28,1,76,0|0,1:0|3:0,0:0:0:0:
17,181,55230,6,0,B|12:159|12:159|30:123|97:116|133:172|133:172|116:146|122:115,1,228.00000869751,6|0,1:2|1:0,0:0:0:0:
42,285,55887,1,2,1:2:0:0:
168,379,56106,2,0,L|185:305,1,76,0|0,1:0|3:0,0:0:0:0:
275,236,56434,1,0,3:0:0:0:
281,233,56544,6,0,P|346:239|375:298,1,136.799995825195,2|0,1:2|0:0,0:0:0:0:
321,358,56981,2,0,B|311:377|311:377|290:320|339:259|398:269|398:269|449:289|503:244|505:183|463:156|463:156|428:184|440:226,1,456.00001739502,6|0,1:2|1:0,0:0:0:0:
510,26,58295,6,0,P|459:67|392:59,1,136.799995825195,2|0,1:2|0:0,0:0:0:0:
356,132,58733,2,0,B|321:109|281:125|281:125|313:98|312:56,1,159.599995129395,2|0,1:2|0:0,0:0:0:0:
153,46,59171,6,0,B|185:69|229:57|229:57|198:19|118:5|66:44,1,258.400004928589,4|0,1:2|1:0,0:0:0:0:
0,114,59828,1,0,1:0:0:0:
82,163,60047,2,0,P|115:201|130:249,1,102.600000391388,2|0,1:2|3:0,0:0:0:0:
66,340,60376,1,0,3:0:0:0:
59,342,60485,6,0,B|13:342|5:297|5:297|50:240|137:254|172:319|135:328|177:390|252:388|268:339|268:339|261:323|261:306,1,433.199988432312,6|0,1:2|1:0,0:0:0:0:
475,266,61361,6,0,L|512:257,1,38,2|0,1:2|0:0,0:0:0:0:
387,283,61580,2,0,L|350:292,1,38,2|0,1:2|0:0,0:0:0:0:
232,82,61799,2,0,B|199:104|153:90|141:35|154:-8|207:-39|275:-43|335:0|355:54|356:128|300:190|258:121|197:197|204:291|281:333|281:333|246:259|296:199|346:199|381:227|378:269|350:292,1,836.000025512696,6|0,1:2|1:0,0:0:0:0:
500,116,63113,6,0,P|446:135|390:142,1,114.000004348755,2|0,1:2|0:0,0:0:0:0:
217,301,63551,2,0,P|188:303|161:312,1,57.0000021743775,2|0,1:2|0:0,0:0:0:0:
86,360,63770,2,0,P|83:331|74:304,1,57.0000021743775,0|0,1:2|0:0,0:0:0:0:
27,229,63989,2,0,P|55:226|82:217,1,57.0000021743775,2|0,1:2|0:0,0:0:0:0:
158,170,64208,2,0,P|160:198|169:225,1,57.0000021743775,0|0,1:2|0:0,0:0:0:0:
37,142,64427,6,0,B|66:104|52:39|9:16|9:16|-4:60|25:95,1,228.00000869751,6|2,1:2|1:2,0:0:0:0:
125,0,65084,1,0,1:0:0:0:
252,41,65303,2,0,L|326:24,1,76,2|0,1:2|3:0,0:0:0:0:
512,118,65741,6,0,B|482:90|436:97|416:131|416:131|452:153|460:200|439:233,1,228.00000869751,6|2,1:2|1:2,0:0:0:0:
329,114,66398,1,0,1:0:0:0:
282,286,66617,2,0,L|265:360,1,76,2|0,1:2|3:0,0:0:0:0:
382,301,66945,1,0,3:0:0:0:
376,291,67054,6,0,B|277:232|184:277|188:333,1,228.00000869751,6|2,1:2|1:2,0:0:0:0:
0,384,67711,1,0,1:0:0:0:
110,312,67930,2,0,P|115:274|103:238,1,76,2|0,1:2|3:0,0:0:0:0:
0,118,68368,2,0,P|29:141|66:149,1,76,2|0,1:2|3:0,0:0:0:0:
162,171,68697,1,0,3:0:0:0:
162,161,68806,6,0,P|179:139|203:124,1,57.0000021743775,2|0,1:2|0:0,0:0:0:0:
218,41,69025,2,0,P|236:47|253:57,1,38,2|0,1:2|0:0,0:0:0:0:
328,39,69244,2,0,P|330:54|330:70,1,30.4,2|0,1:2|0:0,0:0:0:0:
375,123,69463,2,0,P|367:130|357:134,1,22.7999993041992,2|0,1:2|0:0,0:0:0:0:
512,0,69682,6,0,B|478:-5|458:27|458:27|513:42|543:108|510:153|510:153|494:146|488:130,1,258.400004928589,6|2,1:2|1:2,0:0:0:0:
316,274,70339,2,0,B|363:245|412:276|412:276|439:343|511:335,1,228.00000869751,2|0,1:2|1:0,0:0:0:0:
256,384,70996,2,0,B|241:320|241:320|243:317|243:317|225:240,1,148.199993215943,2|0,1:2|0:0,0:0:0:0:
224,229,71434,6,0,L|241:155,1,57.0000021743775,2|0,1:2|0:0,0:0:0:0:
137,263,71653,2,0,L|148:311,1,49.3999977386476,2|0,1:2|0:0,0:0:0:0:
76,203,71872,2,0,L|85:162,1,41.8000012756348,2|0,1:2|0:0,0:0:0:0:
30,264,72091,2,0,L|41:312,1,34.1999989562989,2|0,1:2|0:0,0:0:0:0:
8,16,72310,6,0,B|60:8|90:56|90:56|120:105|182:116|220:80|210:28|183:10|150:15,1,304,4|4,1:0|0:3,0:0:0:0:
463,88,73624,6,0,B|507:65|496:18|496:18|445:-8|378:32|383:95,1,250.800007653809,4|0,1:0|3:0,0:0:0:0:
385,101,74354,5,0,3:0:0:0:
388,107,74427,1,0,3:0:0:0:
391,113,74500,1,0,3:0:0:0:
330,174,74646,1,8,0:3:0:0:
391,235,74792,1,4,0:3:0:0:
452,174,74938,6,0,B|401:131|345:159|345:159|306:207|252:186,1,212.79999350586,6|0,1:2|0:0,0:0:0:0:
206,135,76033,1,0,0:0:0:0:
205,128,76252,2,0,L|222:87,1,38,2|0,0:0|0:0,0:0:0:0:
104,195,76689,5,0,0:0:0:0:
98,199,76908,2,0,L|53:204,2,38,2|0|0,0:0|0:0|0:0,0:0:0:0:
215,255,77565,6,0,P|234:302|233:333,1,76,2|0,0:0|0:0,0:0:0:0:
154,381,78222,2,0,P|135:334|136:303,1,76,0|2,0:0|0:0,0:0:0:0:
143,317,78770,1,2,0:0:0:0:
143,317,78879,2,0,P|98:321|64:326,2,76,2|0|0,0:0|0:0|0:0,0:0:0:0:
453,165,80193,6,0,P|408:177|340:139,1,121.6,2|0,0:0|0:0,0:0:0:0:
259,189,80850,1,0,0:0:0:0:
259,189,81069,2,0,P|245:161|241:131,1,60.8
167,62,81507,6,0,P|122:50|54:88,1,121.6,2|0,0:0|0:0,0:0:0:0:
57,82,82821,6,0,L|40:206,1,121.6,2|0,0:0|0:0,0:0:0:0:
80,290,83478,1,0,0:0:0:0:
80,290,83697,2,0,P|39:304|21:303,1,60.8
156,216,84135,2,0,P|201:210|266:247,2,121.6,2|0|0,0:0|0:0|0:0,0:0:0:0:
184,374,85449,6,0,L|191:308,1,60.8,2|0,0:0|0:0,0:0:0:0:
272,251,85887,2,0,P|300:280|289:337,1,91.199997216797,2|0,0:0|0:0,0:0:0:0:
295,327,86544,1,0,0:0:0:0:
265,246,86762,6,0,L|241:106,1,121.6,2|0,0:0|0:0,0:0:0:0:
437,303,87857,5,0,0:0:0:0:
361,356,88076,2,0,P|443:341|521:374,1,159.599995129395,2|0,0:0|0:0,0:0:0:0:
512,239,88952,2,0,L|439:254,2,53.1999983764649,2|0|0,0:0|0:0|0:0,0:0:0:0:
398,43,89828,6,0,L|379:163,1,102.599996868897,2|0,0:0|0:0,0:0:0:0:
373,185,90266,1,0,1:0:0:0:
125,209,90704,6,0,B|68:226|68:226|18:213|21:165,1,136.799995825195,4|2,3:2|0:0,0:0:0:0:
182,271,91361,1,0,1:0:0:0:
125,209,91580,2,0,P|123:175|140:145,1,68.3999979125977,2|8,0:0|0:3,0:0:0:0:
252,327,92018,6,0,P|304:331|341:367,1,106.39999675293,8|4,0:3|0:3,0:0:0:0:
341,367,92675,1,4,0:3:0:0:
471,291,92894,2,0,L|394:305,1,60.8,2|4,0:0|0:3,0:0:0:0:
257,162,93332,6,0,B|172:179|185:118|100:142,1,152,4|2,3:2|0:0,0:0:0:0:
301,88,93989,1,0,1:0:0:0:
301,88,94208,2,0,L|371:105,1,68.3999979125977,2|0,0:0|1:3,0:0:0:0:
512,162,94646,5,8,0:3:0:0:
300,242,94865,1,0,1:0:0:0:
406,293,95084,6,0,L|416:236,1,53.1999983764649,2|8,0:0|0:3,0:0:0:0:
193,178,95522,2,0,L|202:230,1,53.1999983764649,8|4,0:3|0:3,0:0:0:0:
21,346,95960,6,0,B|0:299|45:243|45:243|77:268,1,152,6|0,3:2|0:0,0:0:0:0:
143,321,96616,1,0,1:0:0:0:
139,328,97054,1,4,0:3:0:0:
223,287,97273,6,0,P|238:257|241:231,1,53.1999983764649,8|0,0:3|0:0,0:0:0:0:
104,111,97711,2,0,P|117:133|137:151,1,53.1999983764649,4|4,0:3|0:3,0:0:0:0:
326,85,98149,2,0,P|299:85|274:94,1,51.2999984344483,2|0,0:0|0:3,0:0:0:0:
220,160,98587,6,0,L|249:310,1,136.799995825195,6|0,3:2|0:0,0:0:0:0:
398,374,99463,5,2,0:0:0:0:
470,267,99682,1,2,0:0:0:0:
348,236,99901,6,0,B|306:304|417:331|469:279|475:196|439:118|400:122|393:149|433:168,1,292.599991070557,6|0,3:2|0:0,0:0:0:0:
417,164,101215,6,0,P|443:182|474:187,1,64.6000012321472,4|0,3:2|0:0,0:0:0:0:
511,0,101653,2,0,P|476:51|414:60,1,129.200002464294,2|0,0:0|0:0,0:0:0:0:
344,111,102310,1,0,3:0:0:0:
344,111,102419,1,0,3:0:0:0:
344,111,102529,2,0,L|323:27,1,64.6000012321472,2|0,1:2|0:0,0:0:0:0:
256,11,102967,1,2,0:0:0:0:
132,133,103186,1,0,3:0:0:0:
300,179,103405,1,4,0:3:0:0:
229,108,103624,1,8,0:3:0:0:
113,232,103843,6,0,B|76:227|51:254|62:259|36:285|0:281,2,129.200002464294,2|2|0,3:2|0:0|0:0,0:0:0:0:
115,236,105157,6,0,L|164:248,1,32.3000006160736,2|0,1:2|0:0,0:0:0:0:
225,263,105376,1,0,0:0:0:0:
178,355,105595,6,0,L|166:306,1,32.3000006160736,2|0,0:2|0:0,0:0:0:0:
151,246,105814,1,4,0:3:0:0:
299,280,106033,1,4,0:3:0:0:
184,354,106252,1,4,0:3:0:0:
306,277,106471,6,0,B|349:281|380:324|371:359|371:359|352:356|345:341,1,152,4|0,3:2|0:0,0:0:0:0:
435,274,107127,1,0,0:0:0:0:
435,274,107346,2,0,L|497:289,1,64.6000012321472,2|0,0:2|3:0,0:0:0:0:
512,209,107675,1,0,3:0:0:0:
508,205,107784,2,0,P|499:174|505:142,1,64.6000012321472,0|0,1:0|0:0,0:0:0:0:
365,163,108222,2,0,P|396:171|421:193,1,64.6000012321472,2|0,0:0|0:0,0:0:0:0:
472,61,108660,2,0,P|449:83|419:94,1,64.6000012321472,2|0,0:0|0:0,0:0:0:0:
254,0,109098,6,0,B|283:34|283:34|280:37|280:37|300:115,1,129.200002464294,2|0,3:2|0:0,0:0:0:0:
299,114,109755,2,0,L|317:110,2,16.1500003080368,2|0|2,0:0|0:0|0:0,0:0:0:0:
278,195,109974,2,0,L|216:210,1,64.6000012321472,2|0,0:2|0:0,0:0:0:0:
8,302,110412,6,0,B|31:270|31:270|59:279|78:336|63:367,1,152,2|2,1:2|0:0,0:0:0:0:
62,368,111069,1,8,0:3:0:0:
147,268,111288,1,4,0:3:0:0:
215,332,111507,1,4,0:3:0:0:
350,226,111726,6,0,P|313:304|305:383,1,159.599995129395,6|0,3:2|0:0,0:0:0:0:
309,382,112602,2,0,P|332:360|339:329,1,64.6000012321472,2|0,0:0|0:0,0:0:0:0:
512,225,113040,6,0,B|528:191|516:151|485:114|445:101|407:120|391:153|403:189|440:201,1,250.800007653809,4|0,1:2|0:0,0:0:0:0:
444,205,113916,2,0,L|459:143,1,64.6000012321472,2|0,0:2|3:0,0:0:0:0:
405,0,114354,6,0,B|360:-10|326:20|339:27|304:56|260:48,1,159.599995129395,6|0,3:2|0:0,0:0:0:0:
263,52,115230,2,0,P|284:23|317:14,1,64.6000012321472,2|0,0:0|0:0,0:0:0:0:
151,150,115668,6,0,B|88:143|60:71|94:25|94:25|142:22|157:69,1,250.800007653809,6|0,1:2|3:0,0:0:0:0:
157,69,116544,1,0,0:0:0:0:
61,94,116762,1,0,3:0:0:0:
52,96,116835,1,0,3:0:0:0:
43,98,116908,1,0,3:0:0:0:
34,100,116981,6,0,B|1:131|-5:193|31:231|31:231|32:194|58:170,1,212.79999350586,6|0,3:2|0:0,0:0:0:0:
145,287,118076,2,0,L|149:269,2,17.733332792155,2|2|2,0:2|0:0|0:0,0:0:0:0:
145,287,118295,2,0,P|92:289|50:319,1,106.39999675293,2|0,1:2|0:0,0:0:0:0:
50,319,118952,1,0,3:0:0:0:
157,380,119171,1,0,3:0:0:0:
222,247,119390,1,0,1:0:0:0:
349,348,119609,6,0,B|398:363|440:332|405:297|459:261|518:279|545:328|526:381|466:390|435:362,1,296.399986431885,6|2,3:2|1:2,0:0:0:0:
495,111,120704,5,0,1:2:0:0:
411,232,120923,2,0,L|428:159,1,76,6|0,3:2|0:0,0:0:0:0:
432,162,121361,2,0,P|377:156|333:120,1,114,6|0,3:2|0:0,0:0:0:0:
244,146,121799,6,0,L|233:102,1,26.5999991882324,2|0,1:2|0:0,0:0:0:0:
217,42,122018,2,0,L|206:-2,1,26.5999991882324,2|0,1:2|0:0,0:0:0:0:
84,85,122237,6,0,B|57:150|-11:161|-11:161|60:148|103:203,1,258.400004928589,6|0,1:2|3:0,0:0:0:0:
223,343,122894,1,0,1:0:0:0:
118,377,123113,2,0,L|135:292,1,76,0|0,1:2|0:0,0:0:0:0:
335,160,123551,6,0,B|372:134|416:135|445:169|445:169|476:205|528:188|544:116|470:72|402:112|440:155,1,304,6|0,1:2|1:0,0:0:0:0:
385,243,124208,1,0,1:0:0:0:
488,355,124427,2,0,P|448:332|408:339,1,76,0|2,1:0|0:0,0:0:0:0:
311,331,124755,5,2,0:0:0:0:
305,341,124865,2,0,P|240:354|175:309,1,148.199993215943,2|0,3:2|0:0,0:0:0:0:
89,276,125303,6,0,B|53:270|58:236|97:231|114:256|149:285|133:326|133:326|112:298|114:257|125:212|203:162|259:227|250:244,1,387.600007392883,2|0,1:2|3:0,0:0:0:0:
250,239,126179,6,0,L|260:159,1,76,2|0,3:2|0:0,0:0:0:0:
107,28,126616,2,0,B|43:26|8:54|8:54|20:30|48:25,1,148.199993215943,2|0,3:2|0:0,0:0:0:0:
47,33,127054,2,0,L|57:90,1,49.3999977386476,8|0,3:0|0:0,0:0:0:0:
9,175,127273,1,2,0:0:0:0:
9,175,127383,1,2,0:0:0:0:
9,175,127492,6,0,B|68:216|123:179|93:168|172:127|220:181,1,228.00000869751,6|0,1:2|3:0,0:0:0:0:
367,44,128149,1,0,1:0:0:0:
209,26,128368,6,0,P|235:74|307:96,1,125.400003826904,2|0,3:2|0:0,0:0:0:0:
349,183,128806,2,0,B|408:163|418:85|368:44|368:44|258:106|323:246,1,387.600007392883,6|0,1:2|1:0,0:0:0:0:
396,268,129682,1,0,3:0:0:0:
226,369,129901,1,2,0:0:0:0:
78,262,130120,6,0,B|52:287|7:262|-23:225|1:178|46:153|90:186|90:186|137:215|211:203|230:133|215:45|87:-44|9:122|48:185|111:168|122:159,1,547.199983300782,6|0,1:2|3:0,0:0:0:0:
76,147,131434,6,0,P|114:168|152:160,1,76,2|0,3:2|0:0,0:0:0:0:
295,4,131872,6,0,P|273:37|272:55,1,53.1999983764649,2|0,3:2|0:0,0:0:0:0:
316,151,132091,1,0,1:0:0:0:
439,176,132310,6,0,P|424:149|409:140,1,45.5999986083985,2|0,1:2|0:0,0:0:0:0:
316,151,132529,1,4,0:3:0:0:
278,296,132748,6,0,B|224:319|239:393|324:419|397:334|359:248,1,273.599991650391,6|0,1:2|3:0,0:0:0:0:
316,151,133405,1,0,1:0:0:0:
361,253,133624,2,0,P|393:272|430:269,1,76,2|0,3:2|0:0,0:0:0:0:
380,25,134062,6,0,B|294:-24|240:39|240:39|252:83|209:124,1,228.00000869751,2|2,1:2|3:2,0:0:0:0:
224,107,134719,1,0,1:0:0:0:
309,177,134938,6,0,P|322:163|328:145,1,38,2|0,3:2|0:0,0:0:0:0:
184,232,135157,2,0,P|197:245|215:251,1,38,0|0,1:2|0:0,0:0:0:0:
93,138,135376,6,0,B|67:84|28:76|65:138|-17:115|-71:14|19:-9|98:-17|117:25|122:72|96:132,1,304,6|0,3:2|1:0,0:0:0:0:
15,212,136033,1,0,1:0:0:0:
100,355,136252,2,0,P|107:318|97:281,1,76,2|2,3:2|0:0,0:0:0:0:
92,279,136580,1,2,0:0:0:0:
86,275,136689,6,0,B|174:240|148:313|240:309,1,152,2|2,3:2|3:2,0:0:0:0:
224,308,137346,1,0,1:0:0:0:
423,213,137565,2,0,P|383:173|327:183,1,102.599996868897,4|0,0:3|0:0,0:0:0:0:
260,227,138003,6,0,B|271:188|310:161|310:161|298:83|255:53|204:81|225:109,1,228.00000869751,6|0,3:2|3:0,0:0:0:0:
175,178,138660,1,0,1:0:0:0:
174,178,138879,2,0,P|145:195|111:195,1,68.3999979125977,2|0,3:2|0:0,0:0:0:0:
260,227,139317,2,0,P|325:221|380:272,1,136.799995825195,2|0,3:2|0:0,0:0:0:0:
382,269,139755,6,0,P|405:250|415:236,1,38,2|0,3:2|0:0,0:0:0:0:
512,168,139974,2,0,P|507:138|499:122,1,38,0|0,1:2|0:0,0:0:0:0:
372,127,140193,6,0,P|390:130|407:138,1,38,2|0,3:2|0:0,0:0:0:0:
390,306,140412,2,0,P|387:287|382:269,1,38,0|0,1:2|0:0,0:0:0:0:
260,227,140631,6,0,B|177:233|176:337|176:337|131:247|48:280,1,304,6|4,3:2|3:0,0:0:0:0:
339,104,141945,6,0,B|393:180|522:156|484:14|396:66,1,250.800007653809,6|0,3:2|1:0,0:0:0:0:
403,56,142711,1,0,1:0:0:0:
399,50,142821,2,0,L|405:25,2,17.0999994781494,0|8|4,1:2|0:3|0:3,0:0:0:0:
391,157,143149,5,4,0:3:0:0:
399,161,143259,2,0,L|426:281,1,121.6,6|0,1:2|0:3,0:0:0:0:
330,384,143916,2,0,L|343:324,1,60.8,2|2,0:0|0:0,0:0:0:0:
344,314,144244,1,2,0:0:0:0:
344,304,144354,2,0,L|335:265,2,20.2666666666667,2|2|2,0:0|0:0|0:0,0:0:0:0:
251,369,144573,6,0,P|192:357|155:302,1,121.6,2|0,0:0|0:0,0:0:0:0:
34,229,145230,2,0,P|40:199|57:174,1,60.8,8|0,0:3|0:0,0:0:0:0:
134,147,145668,1,8,0:3:0:0:
1,90,145887,6,0,B|44:84|73:115|60:121|91:152|133:147,1,152,6|2,3:2|0:0,0:0:0:0:
243,60,146544,2,0,L|256:0,1,60.8,2|0,0:0|0:0,0:0:0:0:
324,52,146981,1,8,0:3:0:0:
332,51,147091,1,8,0:3:0:0:
340,50,147200,1,0,1:0:0:0:
242,68,147419,2,0,L|182:80,1,60.8,8|0,0:3|0:0,0:0:0:0:
299,139,147857,1,4,0:3:0:0:
429,37,148076,1,4,0:3:0:0:
487,93,148295,2,0,L|481:122,1,30.4,2|0,0:0|0:0,0:0:0:0:
512,251,148514,6,0,B|505:219|460:189|421:197|421:197|439:201|454:211,1,152,6|2,3:2|0:0,0:0:0:0:
360,249,149171,2,0,P|336:261|307:308,1,76,2|0,1:2|0:0,0:0:0:0:
331,384,149609,1,8,0:3:0:0:
331,384,149828,1,8,0:3:0:0:
101,342,150485,1,4,0:3:0:0:
99,334,150595,1,4,0:3:0:0:
97,326,150704,2,0,L|81:251,1,76,2|0,3:2|0:0,0:0:0:0:
75,153,151142,6,0,B|34:154|8:123|8:123|24:162|2:196,1,152,6|0,3:2|3:0,0:0:0:0:
77,63,151799,1,8,0:3:0:0:
82,57,152018,1,4,0:3:0:0:
87,51,152237,1,2,0:0:0:0:
92,45,152456,6,0,L|133:36,1,38,6|0,1:2|0:0,0:0:0:0:
278,85,152675,1,0,1:0:0:0:
260,89,152784,1,0,1:0:0:0:
242,93,152894,1,2,3:2:0:0:
336,178,153113,1,4,0:3:0:0:
326,193,153222,1,4,0:3:0:0:
316,209,153332,2,0,L|325:250,6,26.5999991882324,2|2|2|2|2|2|2,1:2|0:0|0:0|0:0|0:0|0:0|0:0,0:0:0:0:
390,289,153770,6,0,B|335:277|335:277|306:290|306:290|258:279,1,136.799995825195,6|0,3:2|0:0,0:0:0:0:
258,279,154208,1,2,3:2:0:0:
185,384,154427,2,0,P|180:339|154:302,1,91.199997216797,2|0,1:2|0:0,0:0:0:0:
0,256,154865,1,2,3:2:0:0:
137,207,155084,2,0,P|96:188|51:192,1,91.199997216797,2|0,1:2|0:0,0:0:0:0:
51,192,155522,1,0,3:2:0:0:
166,81,155741,1,2,1:2:0:0:
171,75,155960,2,0,L|181:25,1,45.5999986083985,0|0,1:0|0:0,0:0:0:0:
82,0,156179,2,0,L|90:44,1,45.5999986083985,0|0,1:0|0:0,0:0:0:0:
225,161,156398,6,0,B|255:113|313:131|313:131|320:179|362:188,1,182.399994433594,2|0,3:2|3:2,0:0:0:0:
448,254,157054,2,0,L|465:164,1,91.199997216797,0|0,1:0|0:0,0:0:0:0:
356,286,157492,1,0,3:2:0:0:
418,361,157711,2,0,L|507:378,1,91.199997216797,0|0,1:0|1:0,0:0:0:0:
507,378,158149,1,0,1:0:0:0:
340,384,158368,2,0,L|287:373,1,45.5999986083985,2|0,1:2|0:0,0:0:0:0:
215,374,158587,2,0,L|222:342,5,30.3999990722657,2|2|2|2|2|2,1:2|0:2|0:2|0:2|0:2|0:2,0:0:0:0:
159,293,159025,6,0,P|103:275|33:313,1,136.799995825195,6|0,1:2|0:0,0:0:0:0:
36,308,159463,1,0,3:2:0:0:
147,192,159682,2,0,P|161:154|152:101,1,91.199997216797,0|0,1:0|0:0,0:0:0:0:
81,64,160120,1,2,1:2:0:0:
251,162,160339,6,0,P|291:176|306:175,1,45.5999986083985,2|0,1:2|0:0,0:0:0:0:
361,121,160558,1,0,1:0:0:0:
305,21,160777,1,0,1:0:0:0:
293,175,160996,6,0,L|281:269,1,91.199997216797,2|0,0:0|3:0,0:0:0:0:
281,265,161434,1,2,3:2:0:0:
381,368,161653,6,0,B|415:349|450:349|450:349|476:377|515:372,1,136.799995825195,2|0,3:2|1:0,0:0:0:0:
507,372,162091,1,0,3:0:0:0:
281,361,162310,2,0,B|261:374|261:374|229:376|199:348,1,91.199997216797,0|2,1:2|0:0,0:0:0:0:
126,274,162748,1,0,1:0:0:0:
243,170,162967,6,0,P|266:212|258:258,1,91.199997216797,2|0,3:2|1:0,0:0:0:0:
14,192,163405,2,0,P|38:150|82:134,1,91.199997216797,2|0,1:2|0:0,0:0:0:0:
126,274,163843,2,0,L|118:310,3,30.3999990722657,2|0|0|0,1:2|3:0|3:0|3:0,0:0:0:0:
316,149,164281,6,0,B|240:164|253:105|161:141,1,148.199993215943,6|0,1:2|0:0,0:0:0:0:
172,136,164719,1,0,3:0:0:0:
11,34,164938,2,0,P|36:23|66:20,1,49.3999977386476,2|0,1:2|0:0,0:0:0:0:
131,63,165157,1,0,3:0:0:0:
5,183,165376,6,0,P|8:159|17:136,1,49.3999977386476,2|0,1:2|0:0,0:0:0:0:
175,142,165595,2,0,B|136:135|103:164|103:164|112:160|125:160,2,98.7999954772951,2|0|0,3:2|1:0|1:0,0:0:0:0:
375,272,166252,2,0,L|479:291,1,91.199997216797,2|8,1:2|0:3,0:0:0:0:
464,288,166689,1,4,0:3:0:0:
274,368,166908,6,0,B|237:328|267:253|267:253|273:288|285:301,1,171.000006523133,2|0,1:2|1:0,0:0:0:0:
284,298,167346,1,0,3:0:0:0:
176,245,167565,2,0,P|131:237|91:256,1,91.199997216797,2|0,1:2|0:0,0:0:0:0:
149,332,168003,5,2,1:2:0:0:
247,178,168222,2,0,L|271:78,1,91.199997216797,2|0,3:2|1:0,0:0:0:0:
176,111,168660,5,2,0:0:0:0:
377,227,168879,1,0,1:0:0:0:
168,114,169098,1,0,1:0:0:0:
362,45,169317,5,2,0:0:0:0:
362,45,169427,1,2,0:0:0:0:
362,45,169536,2,0,B|400:6|450:28|450:28|469:70|518:65,1,167.200005102539,2|0,1:2|0:0,0:0:0:0:
422,212,170193,2,0,B|392:179|407:135,1,83.6000025512696,0|0,1:0|0:0,0:0:0:0:
255,44,170631,5,2,1:2:0:0:
255,44,170741,1,2,0:0:0:0:
255,44,170850,2,0,L|265:92,1,41.8000012756348,2|0,3:2|0:0,0:0:0:0:
212,165,171069,1,0,1:0:0:0:
118,125,171288,6,0,P|80:111|35:116,1,83.6000025512696,2|0,1:2|3:0,0:0:0:0:
111,273,171726,2,0,B|175:286|166:242|250:279,1,125.400003826904,2|0,1:2|0:2,0:2:0:0:
322,321,172164,1,2,1:2:0:0:
471,104,172492,5,0,1:0:0:0:
466,107,172602,2,0,P|450:128|446:161,1,49.3999977386476,2|0,3:2|0:0,0:0:0:0:
509,228,172821,1,0,1:0:0:0:
322,321,173040,6,0,P|299:287|302:244,1,76,2|0,3:2|1:0,0:0:0:0:
341,159,173478,1,2,3:2:0:0:
67,278,173916,5,2,1:2:0:0:
0,211,174135,1,0,1:0:0:0:
157,253,174354,1,2,1:2:0:0:
43,369,174573,1,4,0:3:0:0:
67,278,174792,6,0,P|150:263|150:347,1,190,6|0,1:2|0:0,0:0:0:0:
239,384,176106,6,0,B|282:402|322:371|303:368|346:333|396:359|396:359|369:385|341:373,1,227.999993041992,2|0,0:0|0:0,0:0:0:0:
512,224,177419,6,0,B|528:255|520:297|485:314|485:314|443:303|422:260|437:226|437:226|438:249|453:269,1,265.999991882324,2|0,0:0|0:0,0:0:0:0:
453,269,178733,2,0,L|400:276,1,53.1999983764649,2|0,0:0|0:0,0:0:0:0:
321,289,179171,1,2,0:0:0:0:
460,53,179828,2,0,L|457:31,2,17.733332792155,2|2|2,0:0|0:0|0:0,0:0:0:0:
463,56,180047,6,0,B|474:99|452:145|407:182|357:189|315:159|303:116|325:75|372:69,1,304,4|0,1:2|0:0,0:0:0:0:
377,72,181361,2,0,L|387:149,1,76,2|2,1:2|0:0,0:0:0:0:
512,305,181799,1,0,0:0:0:0:
402,239,182018,1,8,0:3:0:0:
427,384,182237,1,4,0:3:0:0:
427,384,182675,6,0,B|379:390|339:351|339:351|267:283|344:209|428:290|339:351|339:351|316:366|286:363,1,380,4|0,1:0|3:0,0:0:0:0:
238,306,183879,1,0,3:0:0:0:
229,300,183989,2,0,P|175:308|160:360,1,114,0|0,1:0|0:0,0:0:0:0:
166,367,184427,6,0,B|181:316|150:275|140:289|110:246|125:198,1,182.399994433594,6|4,3:2|0:3,0:0:0:0:
180,132,185084,1,4,0:3:0:0:
92,28,185303,6,0,L|1:39,1,91.199997216797,6|0,3:2|0:0,0:0:0:0:
187,137,185741,2,0,L|232:131,1,45.5999986083985,2|0,3:2|0:0,0:0:0:0:
351,73,185960,1,0,1:2:0:0:
246,6,186179,1,2,3:2:0:0:
241,130,186398,1,0,0:3:0:0:
414,0,186616,2,0,P|447:81|401:156,1,182.399994433594,2|0,3:2|3:0,0:0:0:0:
344,251,187273,2,0,P|300:239|272:205,1,91.199997216797,0|0,1:0|3:0,0:0:0:0:
512,332,187711,5,2,0:0:0:0:
512,332,187821,1,2,0:0:0:0:
512,332,187930,2,0,L|421:321,1,91.199997216797,2|0,3:2|0:0,0:0:0:0:
272,206,188368,2,0,L|266:251,1,45.5999986083985,2|0,3:2|0:0,0:0:0:0:
205,350,188587,1,0,1:2:0:0:
266,260,188806,1,2,3:2:0:0:
313,358,189025,1,0,3:0:0:0:
142,277,189244,2,0,P|115:313|109:358,1,91.199997216797,2|2,3:2|0:0,0:0:0:0:
116,365,189573,1,2,0:0:0:0:
116,365,189682,6,0,P|133:350|143:329,1,45.5999986083985,2|0,3:2|0:0,0:0:0:0:
220,272,189901,2,0,P|216:253|208:236,1,38,2|0,1:2|0:0,0:0:0:0:
238,164,190120,2,0,P|224:158|208:155,1,30.4,4|0,3:0|0:0,0:0:0:0:
169,95,190339,2,0,P|159:102|151:110,1,22.7999993041992,8|0,0:3|0:0,0:0:0:0:
47,199,190558,6,0,L|138:188,1,91.199997216797,6|0,3:2|0:0,0:0:0:0:
256,76,190996,2,0,L|319:68,1,45.5999986083985,2|0,3:2|0:0,0:0:0:0:
429,130,191215,1,0,1:0:0:0:
425,0,191434,1,2,3:2:0:0:
314,69,191653,1,0,3:0:0:0:
437,227,191872,2,0,P|512:180|517:93,1,182.399994433594,2|0,3:2|3:0,0:0:0:0:
346,187,192529,2,0,P|336:230|349:273,1,91.199997216797,2|0,3:2|3:0,0:0:0:0:
228,369,192967,5,2,0:0:0:0:
228,369,193076,1,2,0:0:0:0:
228,369,193186,2,0,P|242:313|243:257,1,114.000004348755,6|0,3:2|0:0,0:0:0:0:
51,331,193624,2,0,P|53:303|60:276,1,57.0000021743775,2|0,3:2|0:0,0:0:0:0:
189,171,193843,1,0,1:0:0:0:
133,384,194062,1,2,3:2:0:0:
1,200,194281,1,0,1:0:0:0:
187,73,194500,2,0,P|236:85|282:148,1,114.000004348755,6|0,3:2|3:0,0:0:0:0:
284,138,194828,1,0,3:0:0:0:
284,138,194938,6,0,L|347:130,1,57.0000021743775,2|0,3:2|0:0,0:0:0:0:
512,177,195157,2,0,L|449:185,1,57.0000021743775,2|0,1:2|0:0,0:0:0:0:
326,266,195376,2,0,L|389:258,1,57.0000021743775,4|0,3:0|0:0,0:0:0:0:
512,304,195595,2,0,L|449:312,1,57.0000021743775,8|0,3:0|0:0,0:0:0:0:
249,354,195814,6,0,B|192:315|210:230|210:230|195:284|153:296,1,228.00000869751,6|2,3:2|3:2,0:0:0:0:
84,360,196471,1,0,1:0:0:0:
79,364,196689,2,0,P|42:362|14:338,1,76,2|0,3:2|0:0,0:0:0:0:
61,203,197127,6,0,L|218:230,1,152,2|0,3:2|3:0,0:0:0:0:
323,46,197784,2,0,L|275:57,1,45.5999986083985,0|0,1:0|0:0,0:0:0:0:
199,121,198003,1,0,3:0:0:0:
294,160,198222,1,0,1:0:0:0:
191,125,198441,6,0,P|163:170|164:214,1,91.199997216797,2|0,3:2|0:0,0:0:0:0:
305,355,198879,1,2,3:2:0:0:
266,259,199098,1,0,1:0:0:0:
117,356,199317,2,0,P|161:359|202:339,1,91.199997216797,2|0,3:2|0:0,0:0:0:0:
327,177,199755,6,0,B|344:59|344:59|318:39|308:8,1,182.399994433594,2|0,3:2|3:0,0:0:0:0:
308,8,200412,1,0,1:0:0:0:
431,136,200631,2,0,P|448:185|434:232,1,85.5000032615663,8|0,0:3|0:0,0:0:0:0:
457,310,201069,6,0,B|413:330|375:297|396:293|345:255|303:286,1,159.599995129395,6|0,3:2|0:0,0:0:0:0:
254,357,201507,1,2,3:2:0:0:
318,179,201726,1,0,1:0:0:0:
184,284,201945,6,0,L|139:289,1,45.5999986083985,8|0,0:3|0:0,0:0:0:0:
16,199,202164,2,0,L|61:204,1,45.5999986083985,4|0,0:3|0:0,0:0:0:0:
166,97,202383,6,0,B|211:73|216:26|216:26|297:9|316:97,1,205.200000782776,2|0,3:2|3:0,0:0:0:0:
332,325,203040,5,0,1:0:0:0:
229,173,203259,1,0,1:0:0:0:
411,158,203478,2,0,P|429:199|427:218,1,51.300000195694,2|2,1:2|0:0,0:0:0:0:
332,325,203697,6,0,B|293:296|307:233|307:233|295:287|245:325|161:280,1,258.400004928589,6|8,1:2|0:3,0:0:0:0:
26,32,204901,5,2,1:2:0:0:
23,26,205011,2,0,B|-2:6|-44:37|-39:118|63:164|121:98,1,226.100004312515,6|0,1:2|1:0,0:0:0:0:
106,104,205887,5,0,1:0:0:0:
48,161,206033,5,8,0:3:0:0:
143,239,206179,5,4,0:3:0:0:
0,331,206325,6,0,B|1:286|49:252|104:274|124:326|111:368|111:368|113:336|96:315,1,258.400004928589,6|0,1:2|1:0,0:0:0:0:
189,172,206981,1,0,1:0:0:0:
230,243,207200,2,0,P|186:253|143:239,1,91.199997216797,0|0,1:0|3:0,0:0:0:0:
228,24,207638,6,0,B|280:52|298:112|274:166|274:166|293:124|341:107,1,258.400004928589,2|0,1:2|1:0,0:0:0:0:
351,10,208295,1,0,1:0:0:0:
466,113,208514,1,0,1:0:0:0:
358,247,208733,2,0,L|365:202,1,45.5999986083985,0|0,1:0|0:0,0:0:0:0:
365,202,208952,6,0,P|411:233|417:337,1,159.599995129395,6|0,1:2|0:0,0:0:0:0:
507,323,209390,6,0,B|456:309|410:342|444:368|404:411|341:428|282:395|264:325|302:270|361:267|361:267|410:235|410:168|362:148|339:185|367:203,1,516.800009857178,2|0,1:2|1:2,0:0:0:0:
215,384,210704,5,0,1:0:0:0:
215,384,210923,2,0,L|222:339,1,45.5999986083985,0|0,1:0|0:0,0:0:0:0:
148,288,211142,2,0,L|140:243,1,38,8|0,1:3|0:0,0:0:0:0:
189,193,211361,2,0,L|196:148,1,30.4,4|0,1:3|0:0,0:0:0:0:
124,32,211580,6,0,B|102:4|35:-8|-58:23|-60:161|18:256|120:181|108:119|75:98,1,380,6|0,1:2|3:0,0:0:0:0:
81,103,212237,1,0,1:0:0:0:
11,262,212456,2,0,P|4:308|23:339,1,76,2|0,3:2|0:0,0:0:0:0:
279,194,212894,6,0,B|311:176|338:54|237:5|237:5|252:55|226:102,1,304,6|0,1:2|3:0,0:0:0:0:
279,194,213551,1,0,1:0:0:0:
409,94,213770,6,0,P|429:73|456:66,1,57.0000021743775,2|0,3:2|0:0,0:0:0:0:
460,195,213989,2,0,P|486:202|506:222,1,57.0000021743775,2|0,1:2|0:0,0:0:0:0:
301,313,214208,6,0,B|283:332|242:331|157:295|219:280|222:259|187:224|108:211|95:263|113:295|113:295|139:342|79:394|21:371|-17:347|-61:267|-8:162|127:236|131:300,1,608,6|0,1:2|3:0,0:0:0:0:
487,51,215522,6,0,P|459:47|422:26,1,57.0000021743775,6|0,1:2|0:0,0:0:0:0:
357,59,215741,1,8,0:3:0:0:
464,222,215960,6,0,P|454:196|452:168,1,57.0000021743775,6|0,1:2|0:0,0:0:0:0:
487,51,216179,1,8,1:3:0:0:
241,293,216398,6,0,P|258:270|295:249,1,57.0000021743775,6|0,1:2|0:0,0:0:0:0:
512,308,216616,1,4,1:3:0:0:
111,27,216835,6,0,B|227:43|280:157|247:225|131:245|100:170|123:83|201:104,1,380,6|2,1:2|1:2,0:0:0:0:
316,329,217492,1,0,1:0:0:0:
157,273,217711,2,0,L|-2:297,1,159.599995129395,0|0,1:0|0:0,0:0:0:0:
76,267,218149,6,0,B|78:240|99:216|99:216|36:224|6:319|41:380,1,258.400004928589,6|2,1:2|1:2,0:0:0:0:
239,307,218806,1,0,0:0:0:0:
157,273,219025,2,0,L|150:318,1,45.5999986083985,0|0,1:0|0:0,0:0:0:0:
321,345,219244,2,0,L|327:299,1,45.5999986083985,0|0,1:0|0:0,0:0:0:0:
349,132,219463,6,0,B|344:189|406:226|452:202|452:202|460:179|442:166,1,193.800003696442,6|0,1:2|0:0,0:0:0:0:
444,168,219901,2,0,P|423:177|407:194,1,45.5999986083985,2|0,3:2|0:0,0:0:0:0:
498,105,220120,2,0,P|479:92|457:86,1,45.5999986083985,0|0,1:2|0:0,0:0:0:0:
329,7,220339,2,0,P|297:37|252:43,1,91.199997216797,2|0,1:2|0:0,0:0:0:0:
127,131,220777,6,0,B|104:110|104:110|0:96,1,136.799995825195,2|0,1:2|0:0,0:0:0:0:
2,100,221215,2,0,P|-2:144|35:181,1,91.199997216797,6|0,3:2|1:0,0:0:0:0:
168,235,221653,6,0,P|194:227|215:207,1,57.0000021743775,2|0,1:2|0:0,0:0:0:0:
58,329,221872,2,0,P|52:356|59:384,1,57.0000021743775,0|0,1:0|0:0,0:0:0:0:
326,206,222091,6,0,B|321:163|284:128|284:128|349:116|438:181|393:258,1,288.799992288208,6|0,1:2|3:0,0:0:0:0:
298,350,222748,6,0,L|314:289,1,49.3999977386476,2|0,1:2|0:0,0:0:0:0:
399,245,222967,1,0,3:0:0:0:
463,327,223186,1,0,3:0:0:0:
187,285,223405,6,0,B|117:298|146:317|76:332,1,114.000004348755,2|2,3:2|0:0,0:0:0:0:
23,275,223733,1,2,0:0:0:0:
21,279,223843,2,0,P|75:295|85:294,1,57.0000021743775,2|0,1:2|0:0,0:0:0:0:
233,369,224062,2,0,P|259:350|276:323,1,64.6000012321472,0|0,1:2|0:0,0:0:0:0:
266,226,224281,1,2,3:2:0:0:
125,63,224500,5,0,1:0:0:0:
277,232,224719,2,0,B|313:220|346:246|346:246|358:280|411:315|466:272|469:239|404:206|379:222,1,273.599991650391,6|8,3:2|0:3,0:0:0:0:
380,221,225595,1,4,0:3:0:0:
153,354,226033,6,0,B|111:381|72:358|85:356|45:327|1:363,1,152,6|8,1:2|0:3,0:0:0:0:
117,279,226689,1,8,0:3:0:0:
58,164,226908,6,0,L|52:213,1,49.3999977386476,4|0,1:3|0:0,0:0:0:0:
246,364,227127,2,0,L|252:315,1,49.3999977386476,4|0,1:3|0:0,0:0:0:0:
444,177,227346,6,0,B|425:208|424:261|465:311|540:322|563:249|508:248,1,228,6|0,1:2|0:0,0:0:0:0:
436,172,227784,6,0,P|383:190|354:238,1,114.000004348755,2|0,1:2|0:0,0:0:0:0:
246,364,228222,2,0,P|256:309|229:260,1,114.000004348755,2|0,1:2|0:0,0:0:0:0:
174,103,228660,2,0,P|216:139|272:140,1,114.000004348755,2|0,1:2|0:0,0:0:0:0:
352,85,229098,5,0,3:2:0:0:
149,8,229317,1,0,1:2:0:0:
0,143,229536,2,0,L|49:149,1,49.3999977386476,4|0,0:3|0:0,0:0:0:0:
229,260,229755,2,0,L|180:254,1,49.3999977386476,0|0,1:2|0:0,0:0:0:0:
0,314,229974,6,0,B|53:305|83:354|83:354|65:301|95:248|146:242|175:275|175:313|151:335,1,304,6|2,1:2|1:2,0:0:0:0:
31,226,230631,1,0,1:0:0:0:
157,337,230850,2,0,L|270:350,1,114.000004348755,0|0,3:0|3:0,0:0:0:0:
512,136,231288,5,2,3:2:0:0:
375,334,231507,1,0,1:0:0:0:
272,116,231726,1,4,1:2:0:0:
454,242,231945,6,0,L|492:266,1,45.5999986083985,4|0,1:3|0:0,0:0:0:0:
311,230,232164,2,0,L|272:254,1,45.5999986083985,4|0,1:3|0:0,0:0:0:0:
393,113,232383,2,0,L|396:67,1,45.5999986083985,4|0,1:3|0:0,0:0:0:0:
219,0,232602,6,0,P|182:41|127:44,1,114,4|0,1:2|0:0,0:0:0:0:
20,62,233040,6,0,B|42:40|41:8|41:8|68:25|56:76|10:102|3:75|-29:107|-43:156|-19:203|17:197|-6:250|-6:250|17:197|65:228|105:185|109:140|92:108,1,516.800009857178,2|2,1:2|1:2,0:0:0:0:
96,119,234135,2,0,P|76:129|63:148,1,45.5999986083985,2|0,3:2|0:0,0:0:0:0:
43,334,234354,5,0,3:0:0:0:
224,384,234573,1,0,1:0:0:0:
111,225,234792,2,0,L|118:292,1,45.5999986083985,4|0,3:0|0:0,0:0:0:0:
296,320,235011,2,0,L|292:275,1,45.5999986083985,0|0,1:0|0:0,0:0:0:0:
353,27,235230,6,0,B|333:68|348:116|385:161|434:177|480:154|499:114|485:70|440:56,1,304,4|2,1:2|1:2,0:0:0:0:
241,178,235887,2,0,L|177:184,1,53.1999983764649,0|0,1:0|0:0,0:0:0:0:
429,232,236106,2,0,L|492:225,1,53.1999983764649,4|0,1:3|0:0,0:0:0:0:
348,282,236325,1,0,1:0:0:0:
480,369,236544,5,4,1:2:0:0:
257,324,236872,1,0,1:2:0:0:
257,324,236981,1,4,1:3:0:0:
309,383,237200,5,4,0:3:0:0:
343,373,237310,1,4,0:3:0:0:
373,356,237419,1,4,0:3:0:0:
399,331,237529,1,8,0:3:0:0:
417,301,237638,1,8,0:3:0:0:
427,267,237748,1,8,0:3:0:0:
428,231,237857,6,0,B|390:153|451:92|451:92|491:114|499:150,1,228,6|0,3:2|0:0,0:0:0:0:
498,148,238295,1,2,3:2:0:0:
323,242,238514,2,0,P|289:238|255:214,1,57.0000021743775,4|0,1:2|0:0,0:0:0:0:
141,64,238733,6,0,P|80:43|11:114,1,171.000006523133,2|0,1:2|0:0,0:0:0:0:
83,228,239171,2,0,L|93:165,1,57.0000021743775,6|0,1:2|0:0,0:0:0:0:
238,25,239390,2,0,P|253:51|255:79,1,57.0000021743775,0|0,1:2|0:0,0:0:0:0:
196,163,239609,5,0,3:0:0:0:
323,242,239828,2,0,B|362:278|415:258|415:258|424:246,1,114.000004348755,4|2,1:2|3:2,0:0:0:0:
81,340,240266,5,0,1:0:0:0:
79,344,240376,1,0,1:0:0:0:
77,349,240485,2,0,B|43:352|12:366|12:366|11:329|22:255|129:249|168:310,1,273.599991650391,6|0,1:2|0:0,0:0:0:0:
231,367,240923,2,0,P|259:332|259:287,1,91.199997216797,2|0,3:2|1:3,0:3:0:0:
121,161,241361,6,0,L|62:177,1,45.5999986083985,2|0,3:2|0:0,0:0:0:0:
7,67,241580,2,0,L|51:78,1,45.5999986083985,2|0,0:2|0:0,0:0:0:0:
324,188,241799,5,2,3:2:0:0:
394,38,242018,1,0,1:0:0:0:
319,190,242237,2,0,B|363:154|413:184|413:184|438:234|499:219,1,193.800003696442,6|0,3:2|0:0,0:0:0:0:
489,220,242675,2,0,B|504:252|504:252|483:220,1,64.6000012321472,4|0,1:2|0:0,0:0:0:0:
158,61,243003,5,0,1:0:0:0:
152,64,243113,2,0,B|173:19|205:10|205:10|272:76|217:150,1,228,6|0,1:2|0:0,0:0:0:0:
142,183,243551,6,0,P|119:178|133:159,1,53.1999983764649,2|0,3:2|0:0,0:0:0:0:
343,23,243770,2,0,B|395:32|395:32|414:45|414:45|466:55,1,129.200002464294,2|0,1:2|3:0,0:0:0:0:
473,50,244098,1,2,0:0:0:0:
479,47,244208,2,0,P|440:40|421:50,1,57.0000021743775,2|0,3:2|0:0,0:0:0:0:
248,203,244427,5,6,3:2:0:0:
393,335,244646,1,0,1:0:0:0:
435,143,244865,1,2,3:2:0:0:
230,283,245084,6,0,P|185:295|170:302,1,57.0000021743775,6|0,1:2|0:0,0:0:0:0:
471,310,245303,2,0,P|504:342|517:351,1,57.0000021743775,0|0,1:0|0:0,0:0:0:0:
374,87,245522,2,0,P|385:42|387:26,1,57.0000021743775,2|0,3:2|0:0,0:0:0:0:
355,222,245741,6,0,B|346:152|261:123|208:192|208:192|249:219|282:205,1,273.599991650391,6|0,1:2|0:0,0:0:0:0:
285,206,246179,2,0,P|300:179|303:153,1,57.0000021743775,2|0,3:2|0:0,0:0:0:0:
374,87,246398,1,4,3:2:0:0:
133,5,246616,6,0,P|150:50|150:72,1,57.0000021743775,2|0,1:2|0:0,0:0:0:0:
54,283,246835,2,0,P|84:245|103:234,1,57.0000021743775,2|0,3:2|0:0,0:0:0:0:
362,352,247054,6,0,B|314:363|286:330|286:330|223:363|165:317|227:287|261:340,1,228,6|0,1:2|0:0,0:0:0:0:
255,332,247492,2,0,P|250:304|245:265,1,64.6000012321472,0|0,1:0|0:0,0:0:0:0:
87,14,247711,2,0,P|82:42|77:81,1,64.6000012321472,0|0,1:0|0:0,0:0:0:0:
414,247,247930,6,0,B|464:261|464:261|435:244,1,72.1999980720521,0|0,1:0|0:0,0:0:0:0:
98,247,248149,2,0,B|48:261|48:261|77:244,1,72.1999980720521,0|0,1:0|0:0,0:0:0:0:
256,156,248368,6,0,B|253:107|298:90|298:90|298:184|342:255|463:265|436:163|542:183|542:183|510:105|426:74|343:100|307:182|347:170|352:303|272:220|256:271|256:333|256:333|256:271|238:220|160:303|163:170|203:182|167:100|84:74|0:105|-30:183|-30:183|74:163|47:265|168:255|212:184|212:90|212:90|257:107|256:156,1,1732.79995372925,4|2,1:0|0:0,0:0:0:0:
256,192,253733,12,0,258879,0:0:0:0:
