osu file format v14

[General]
AudioFilename: audio.mp3
AudioLeadIn: 0
PreviewTime: 50774
Countdown: 0
SampleSet: Soft
StackLeniency: 0.2
Mode: 0
LetterboxInBreaks: 0
WidescreenStoryboard: 1

[Editor]
Bookmarks: 12673,25673,38473
DistanceSpacing: 1
BeatDivisor: 4
GridSize: 4
TimelineZoom: 1.9

[Metadata]
Title:Only (TV Size)
TitleUnicode:オンリー (TV Size)
Artist:Ohara Yuiko
ArtistUnicode:大原ゆい子
Creator:Puvn
Version:Gust's Insane
Source:無職転生 ~異世界行ったら本気だす~
Tags:Gust ruchuers IWEJ H-Scene Hakusui3820 anime end ending ed Japanese 理不尽な孫の手 Mushoku Tensei: Isekai Ittara Honki Dasu jpop j-pop pop
BeatmapID:2880688
BeatmapSetID:1353578

[Difficulty]
HPDrainRate:6
CircleSize:5.5
OverallDifficulty:6
ApproachRate:7
SliderMultiplier:1.4
SliderTickRate:1

[Events]
//Background and Video events
0,0,"56066091_p0.png",0,0
//Break Periods
//Storyboard Layer 0 (Background)
//Storyboard Layer 1 (Fail)
//Storyboard Layer 2 (Pass)
//Storyboard Layer 3 (Foreground)
//Storyboard Layer 4 (Overlay)
//Storyboard Sound Samples

[TimingPoints]
72,400,4,2,10,50,1,0
3272,-100,4,2,10,50,0,0
12672,-100,4,2,10,60,0,0
14572,-100,4,2,10,5,0,0
14672,-100,4,2,10,60,0,0
17772,-100,4,2,10,5,0,0
17872,-100,4,2,10,60,0,0
20972,-100,4,2,10,5,0,0
21072,-100,4,2,10,60,0,0
24172,-100,4,2,10,5,0,0
24272,-100,4,2,10,60,0,0
25672,-100,4,2,10,60,0,0
25772,-100,4,2,10,5,0,0
25872,-100,4,2,10,50,0,0
27372,-100,4,2,10,5,0,0
27472,-100,4,2,10,50,0,0
28372,-100,4,2,10,5,0,0
28472,-100,4,2,10,50,0,0
30572,-100,4,2,10,5,0,0
30672,-100,4,2,10,50,0,0
33772,-100,4,2,10,5,0,0
33872,-100,4,2,10,50,0,0
35272,-100,4,2,10,55,0,0
35572,-100,4,2,10,5,0,0
35672,-100,4,2,10,55,0,0
35772,-100,4,2,10,5,0,0
35872,-100,4,2,10,55,0,0
36172,-100,4,2,10,5,0,0
36272,-100,4,2,10,55,0,0
36672,-100,4,2,10,55,0,0
37272,-100,4,2,10,45,0,0
37372,-100,4,2,10,5,0,0
37472,-100,4,2,10,45,0,0
37772,-100,4,2,10,5,0,0
37872,-100,4,2,10,45,0,0
38472,-100,4,2,10,45,0,0
39172,-100,4,2,10,5,0,0
39272,-100,4,2,10,45,0,0
39572,-100,4,2,10,5,0,0
39672,-100,4,2,10,45,0,0
39772,-100,4,2,10,5,0,0
39872,-100,4,2,10,45,0,0
40172,-100,4,2,10,5,0,0
40272,-100,4,2,10,45,0,0
41372,-100,4,2,10,5,0,0
41472,-100,4,2,10,55,0,0
45572,-100,4,2,10,5,0,0
45672,-100,4,2,10,45,0,0
45972,-100,4,2,10,5,0,0
46072,-100,4,2,10,45,0,0
46172,-100,4,2,10,5,0,0
46272,-100,4,2,10,45,0,0
46572,-100,4,2,10,5,0,0
46672,-100,4,2,10,45,0,0
47272,-100,4,2,10,55,0,0
47372,-100,4,2,10,5,0,0
47472,-100,4,2,10,55,0,0
47572,-100,4,2,10,5,0,0
47672,-100,4,2,10,55,0,0
48172,-100,4,2,10,5,0,0
48272,-100,4,2,10,55,0,0
48572,-100,4,2,10,5,0,0
48672,-100,4,2,10,55,0,0
49172,-100,4,2,10,5,0,0
49272,-100,4,2,10,55,0,0
49372,-100,4,2,10,5,0,0
49472,-100,4,2,10,55,0,0
49972,-100,4,2,10,5,0,0
50072,-100,4,2,10,55,0,0
50572,-100,4,2,10,5,0,0
50672,-100,4,2,10,55,0,0
50972,-100,4,2,10,5,0,0
51072,-100,4,2,10,55,0,0
51272,-100,4,2,10,35,0,0
52572,-100,4,2,10,5,0,0
52672,-100,4,2,10,55,0,0
52972,-100,4,2,10,5,0,0
53072,-100,4,2,10,55,0,0
54472,-76.9230769230769,4,2,10,75,0,1
54772,-76.9230769230769,4,2,10,5,0,1
54872,-76.9230769230769,4,2,10,75,0,1
55572,-76.9230769230769,4,2,10,5,0,1
55672,-76.9230769230769,4,2,10,75,0,1
55772,-76.9230769230769,4,2,10,5,0,1
55872,-76.9230769230769,4,2,10,75,0,1
56172,-76.9230769230769,4,2,10,5,0,1
56272,-76.9230769230769,4,2,10,75,0,1
57972,-76.9230769230769,4,2,10,5,0,1
58072,-76.9230769230769,4,2,10,75,0,1
58572,-76.9230769230769,4,2,10,5,0,1
58672,-76.9230769230769,4,2,10,75,0,1
58972,-76.9230769230769,4,2,10,5,0,1
59072,-76.9230769230769,4,2,10,75,0,1
59372,-76.9230769230769,4,2,10,5,0,1
59472,-76.9230769230769,4,2,10,75,0,1
59572,-76.9230769230769,4,2,10,5,0,1
59672,-76.9230769230769,4,2,10,75,0,1
60172,-76.9230769230769,4,2,10,5,0,1
60272,-76.9230769230769,4,2,10,75,0,1
60372,-76.9230769230769,4,2,10,5,0,1
60472,-76.9230769230769,4,2,10,75,0,1
60972,-76.9230769230769,4,2,10,5,0,1
61072,-76.9230769230769,4,2,10,75,0,1
61172,-76.9230769230769,4,2,10,5,0,1
61272,-76.9230769230769,4,2,10,75,0,1
61972,-76.9230769230769,4,2,10,5,0,1
62072,-76.9230769230769,4,2,10,75,0,1
62572,-76.9230769230769,4,2,10,5,0,1
62672,-76.9230769230769,4,2,10,75,0,1
62972,-76.9230769230769,4,2,10,5,0,1
63072,-76.9230769230769,4,2,10,75,0,1
63372,-76.9230769230769,4,2,10,5,0,1
63472,-76.9230769230769,4,2,10,75,0,1
63772,-76.9230769230769,4,2,10,5,0,1
63872,-76.9230769230769,4,2,10,75,0,1
64372,-76.9230769230769,4,2,10,5,0,1
64472,-76.9230769230769,4,2,10,75,0,1
65172,-76.9230769230769,4,2,10,5,0,1
65272,-76.9230769230769,4,2,10,75,0,1
65772,-76.9230769230769,4,2,10,5,0,1
65872,-76.9230769230769,4,2,10,75,0,1
65972,-76.9230769230769,4,2,10,5,0,1
66072,-76.9230769230769,4,2,10,75,0,1
66572,-76.9230769230769,4,2,10,5,0,1
66672,-76.9230769230769,4,2,10,75,0,1
66772,-76.9230769230769,4,2,10,5,0,1
66872,-76.9230769230769,4,2,10,75,0,1
67372,-76.9230769230769,4,2,10,5,0,1
67472,-76.9230769230769,4,2,10,75,0,1
67572,-76.9230769230769,4,2,10,5,0,1
67672,-76.9230769230769,4,2,10,75,0,1
68172,-76.9230769230769,4,2,10,5,0,1
68272,-76.9230769230769,4,2,10,75,0,1
68372,-76.9230769230769,4,2,10,5,0,1
68472,-76.9230769230769,4,2,10,75,0,1
69372,-76.9230769230769,4,2,10,5,0,1
69472,-76.9230769230769,4,2,10,75,0,1
69772,-76.9230769230769,4,2,10,5,0,1
69872,-76.9230769230769,4,2,10,75,0,1
69972,-76.9230769230769,4,2,10,5,0,1
70072,-76.9230769230769,4,2,10,75,0,1
70772,-76.9230769230769,4,2,10,5,0,1
70872,-76.9230769230769,4,2,10,75,0,1
71372,-76.9230769230769,4,2,10,5,0,1
71472,-76.9230769230769,4,2,10,75,0,1
71572,-76.9230769230769,4,2,10,5,0,1
71672,-76.9230769230769,4,2,10,75,0,1
72172,-76.9230769230769,4,2,10,5,0,1
72272,-76.9230769230769,4,2,10,75,0,1
72372,-76.9230769230769,4,2,10,5,0,1
72472,-76.9230769230769,4,2,10,75,0,1
72572,-76.9230769230769,4,2,10,5,0,1
72672,-76.9230769230769,4,2,10,75,0,1
72772,-76.9230769230769,4,2,10,5,0,1
72872,-76.9230769230769,4,2,10,75,0,1
73172,-76.9230769230769,4,2,10,5,0,1
73272,-76.9230769230769,4,2,10,75,0,1
73972,-76.9230769230769,4,2,10,5,0,1
74072,-76.9230769230769,4,2,10,75,0,1
74972,-76.9230769230769,4,2,10,5,0,1
75072,-76.9230769230769,4,2,10,75,0,1
75172,-76.9230769230769,4,2,10,5,0,1
75272,-200,4,2,10,25,0,0
75872,-227.272727272727,4,2,10,25,0,0
76472,-227.272727272727,4,2,10,5,0,0
76672,-227.272727272727,4,2,10,55,0,0
76972,-227.272727272727,4,2,10,5,0,0
77072,-227.272727272727,4,2,10,55,0,0
77372,-227.272727272727,4,2,10,5,0,0
77472,-227.272727272727,4,2,10,55,0,0
78572,-227.272727272727,4,2,10,5,0,0
78672,-227.272727272727,4,2,10,55,0,0
81772,-227.272727272727,4,2,10,5,0,0
81872,-227.272727272727,4,2,10,55,0,0
84972,-227.272727272727,4,2,10,5,0,0
85072,-227.272727272727,4,2,10,55,0,0
88172,-227.272727272727,4,2,10,5,0,0
88272,-227.272727272727,4,2,10,55,0,0
88372,-227.272727272727,4,2,10,5,0,0
88472,-227.272727272727,4,2,10,55,0,0
88572,-227.272727272727,4,2,10,5,0,0
88672,-227.272727272727,4,2,10,55,0,0

[Colours]
Combo1 : 237,209,18
Combo2 : 54,117,245
Combo3 : 28,181,51
Combo4 : 232,0,0

[HitObjects]
64,176,72,5,2,0:0:0:0:
60,163,272,1,0,0:0:0:0:
56,150,472,1,0,0:0:0:0:
111,86,672,1,2,0:0:0:0:
107,73,872,1,0,0:0:0:0:
103,60,1072,1,0,0:0:0:0:
20,45,1272,5,2,0:0:0:0:
115,99,1472,1,2,0:0:0:0:
176,4,1672,1,2,0:0:0:0:
188,8,2072,5,0,0:0:0:0:
256,56,2272,1,2,0:0:0:0:
269,54,2672,5,0,0:0:0:0:
367,1,2872,1,2,0:0:0:0:
433,90,3072,1,2,0:0:0:0:
349,76,3272,5,2,0:0:0:0:
345,89,3472,1,0,0:0:0:0:
341,102,3672,1,0,0:0:0:0:
396,166,3872,1,2,0:0:0:0:
392,179,4072,1,0,0:0:0:0:
388,192,4272,1,0,0:0:0:0:
300,216,4472,5,2,0:0:0:0:
212,148,4672,1,2,0:0:0:0:
300,80,4872,1,2,0:0:0:0:
212,12,5072,5,2,3:2:0:0:
228,80,5272,1,0,3:2:0:0:
160,61,5472,2,0,L|75:67,1,70,2|0,3:2|0:0,0:0:0:0:
4,140,5872,2,0,L|143:128,1,140,2|2,3:2|0:0,0:0:0:0:
340,192,6472,6,0,L|479:180,1,140,2|0,3:2|0:0,0:0:0:0:
512,260,7072,2,0,L|372:271,1,140,2|0,0:0|0:0,0:0:0:0:
272,220,7672,1,2,0:0:0:0:
312,335,7872,1,2,0:0:0:0:
212,284,8072,6,0,P|236:208|209:122,1,140,2|0,0:0|0:0,0:0:0:0:
118,114,8672,2,0,P|94:190|121:276,1,140,2|0,0:0|0:0,0:0:0:0:
73,355,9272,1,2,0:0:0:0:
153,330,9472,1,2,0:0:0:0:
179,332,9572,1,2,0:0:0:0:
205,334,9672,1,2,0:0:0:0:
218,338,10072,5,0,0:0:0:0:
295,306,10272,1,2,0:0:0:0:
308,310,10672,5,2,3:2:0:0:
409,357,10872,1,2,3:2:0:0:
483,273,11072,1,2,3:2:0:0:
395,247,11272,5,2,0:0:0:0:
397,260,11472,1,2,3:2:0:0:
399,273,11672,1,0,0:0:0:0:
438,168,11872,1,2,0:0:0:0:
440,181,12072,1,0,0:0:0:0:
442,194,12272,1,0,0:0:0:0:
481,89,12472,5,2,0:0:0:0:
483,102,12672,5,2,1:2:0:0:
416,95,12772,1,0,1:2:0:0:
349,88,12872,2,0,L|355:10,2,70,14|0|8,0:0|0:0|0:0,0:0:0:0:
184,196,13472,6,0,L|189:265,2,70,10|0|10,1:2|0:0|0:0,0:0:0:0:
50,210,14072,1,8,1:2:0:0:
183,195,14272,1,2,1:2:0:0:
148,199,14372,1,0,1:2:0:0:
114,203,14472,5,8,0:0:0:0:
32,148,14672,1,8,0:0:0:0:
87,66,14872,1,0,0:0:0:0:
169,121,15072,1,10,1:2:0:0:
469,281,15472,5,8,0:0:0:0:
414,363,15672,1,10,1:2:0:0:
332,308,15872,1,2,0:0:0:0:
387,226,16072,2,0,L|375:139,2,70,10|0|8,0:0|0:0|0:0,0:0:0:0:
187,152,16672,2,0,L|199:65,2,70,10|0|10,1:2|0:0|0:0,0:0:0:0:
310,27,17272,5,8,1:2:0:0:
443,12,17472,1,2,1:2:0:0:
408,16,17572,1,0,1:2:0:0:
374,20,17672,2,0,L|392:105,1,70,8|8,0:0|0:0,0:0:0:0:
265,150,18072,1,0,0:0:0:0:
334,158,18272,2,0,L|316:243,1,70,10|0,1:2|0:0,0:0:0:0:
447,283,18672,1,10,0:0:0:0:
378,291,18872,2,0,L|392:359,1,70,8|2,1:2|1:2,0:0:0:0:
392,359,19172,1,0,1:2:0:0:
392,359,19272,1,14,0:0:0:0:
0,172,19672,5,8,0:0:0:0:
69,180,19872,2,0,L|55:248,2,70,10|0|10,1:2|0:0|0:0,0:0:0:0:
185,30,20472,1,8,1:2:0:0:
116,38,20672,1,2,1:2:0:0:
123,72,20772,1,0,1:2:0:0:
130,106,20872,5,10,0:0:0:0:
214,190,21072,1,8,0:0:0:0:
216,176,21272,1,0,0:0:0:0:
204,256,21472,5,10,1:2:0:0:
304,128,21672,1,0,0:0:0:0:
302,114,21872,1,8,0:0:0:0:
314,194,22072,5,10,1:2:0:0:
292,48,22272,1,2,0:0:0:0:
429,101,22472,1,10,0:0:0:0:
429,101,22872,5,8,0:0:0:0:
494,77,23072,2,0,L|478:1,2,70,10|0|10,1:2|0:0|0:0,0:0:0:0:
464,192,23672,1,8,1:2:0:0:
395,177,23872,1,2,1:2:0:0:
429,184,23972,1,0,1:2:0:0:
464,192,24072,5,10,0:0:0:0:
399,246,24272,1,8,0:0:0:0:
361,170,24472,1,0,0:0:0:0:
433,85,24672,5,10,1:2:0:0:
429,71,24872,5,0,0:0:0:0:
306,3,25072,1,10,0:0:0:0:
225,117,25272,2,0,L|235:193,1,70,10|2,1:2|0:0,0:0:0:0:
84,328,25672,5,12,0:0:0:0:
82,341,25872,5,2,0:0:0:0:
149,382,26072,1,2,0:0:0:0:
187,306,26272,1,10,1:2:0:0:
254,347,26472,2,0,L|347:340,2,70,2|10|10,0:0|0:0|1:2,0:0:0:0:
268,224,27072,1,2,1:2:0:0:
265,250,27172,1,0,1:2:0:0:
262,276,27272,1,8,0:0:0:0:
327,369,27472,5,10,0:0:0:0:
325,355,27672,1,2,0:0:0:0:
323,341,27872,1,10,1:2:0:0:
400,238,28072,2,0,L|469:243,1,70,2|8,0:0|0:0,0:0:0:0:
450,309,28472,2,0,L|380:303,1,70,10|0,1:2|1:2,0:0:0:0:
365,177,28872,5,8,0:0:0:0:
479,230,29072,5,2,0:0:0:0:
450,150,29272,1,2,0:0:0:0:
375,188,29472,1,10,1:2:0:0:
404,268,29672,1,2,0:0:0:0:
414,257,29872,5,10,0:0:0:0:
314,204,30072,1,10,1:2:0:0:
325,92,30272,1,2,1:2:0:0:
325,92,30372,1,2,1:2:0:0:
325,92,30472,1,10,0:0:0:0:
429,51,30672,6,0,L|522:60,1,70,10|0,0:0|0:0,0:0:0:0:
362,152,31072,2,0,L|455:161,1,70,10|0,1:2|0:0,0:0:0:0:
295,253,31472,2,0,L|388:262,2,70,10|8|0,0:0|1:2|1:2,0:0:0:0:
256,204,31972,1,0,1:2:0:0:
217,253,32072,1,8,0:0:0:0:
167,162,32272,5,2,0:0:0:0:
114,227,32472,1,10,0:0:0:0:
138,307,32672,2,0,L|231:316,1,70,10|2,1:2|0:0,0:0:0:0:
254,383,33072,5,10,0:0:0:0:
257,369,33272,1,10,1:2:0:0:
260,355,33472,1,2,1:2:0:0:
224,251,33672,5,10,0:0:0:0:
160,343,33872,2,0,L|90:336,2,70,10|2|10,0:0|0:0|1:2,0:0:0:0:
124,239,34472,2,0,L|54:232,1,70,2|10,0:0|0:0,0:0:0:0:
88,135,34872,2,0,L|18:128,1,70,8|2,1:2|0:0,0:0:0:0:
18,128,35172,1,2,0:0:0:0:
18,128,35272,5,10,0:0:0:0:
246,18,35672,1,10,0:0:0:0:
246,18,35872,1,10,1:2:0:0:
467,140,36272,1,10,1:2:0:0:
388,171,36472,1,0,0:0:0:0:
388,171,36572,1,0,0:0:0:0:
388,171,36672,2,0,P|322:164|276:90,1,140,14|8,0:0|0:0,0:0:0:0:
307,0,37272,5,8,1:2:0:0:
275,93,37472,1,8,0:0:0:0:
182,127,37672,1,8,1:2:0:0:
278,108,37872,1,8,0:0:0:0:
355,173,38072,1,10,1:2:0:0:
290,98,38272,1,2,0:0:0:0:
256,201,38472,5,10,0:0:0:0:
133,192,38672,1,10,0:0:0:0:
11,184,38872,2,0,L|99:161,1,70,14|0,1:2|0:0,0:0:0:0:
0,287,39272,2,0,L|135:252,1,140,10|8,1:2|0:0,0:0:0:0:
324,112,39872,6,0,L|188:77,1,140,14|8,1:2|1:2,0:0:0:0:
103,3,40472,1,0,0:0:0:0:
105,16,40672,1,8,0:0:0:0:
107,29,40872,1,8,0:0:0:0:
253,117,41172,5,2,1:2:0:0:
253,117,41272,1,10,1:2:0:0:
277,36,41472,2,0,P|307:52|331:91,1,70,10|12,0:0|0:0,0:0:0:0:
170,136,41872,2,0,P|168:102|190:60,1,70,2|8,0:0|1:2,0:0:0:0:
253,117,42272,5,10,0:0:0:0:
311,179,42472,2,0,P|282:196|235:199,1,70,2|8,0:0|0:0,0:0:0:0:
74,111,42872,6,0,L|159:100,1,70,10|2,0:0|0:0,0:0:0:0:
211,43,43272,1,10,1:2:0:0:
179,164,43472,1,10,0:0:0:0:
276,219,43672,1,10,1:2:0:0:
352,183,43872,2,0,L|213:167,1,140,10|8,0:0|0:0,0:0:0:0:
156,262,44472,5,8,1:2:0:0:
151,247,44672,1,2,0:0:0:0:
209,152,44872,5,10,0:0:0:0:
348,162,45072,1,10,0:0:0:0:
487,172,45272,2,0,L|395:184,1,70,14|0,1:2|0:0,0:0:0:0:
507,77,45672,2,0,L|368:94,1,140,10|8,1:2|0:0,0:0:0:0:
188,258,46272,2,0,L|326:275,1,140,14|8,1:2|1:2,0:0:0:0:
355,383,46872,5,0,0:0:0:0:
323,290,47072,1,8,0:0:0:0:
230,256,47272,1,8,1:2:0:0:
326,275,47472,1,8,1:2:0:0:
403,210,47672,1,10,0:0:0:0:
338,285,47872,1,14,1:2:0:0:
403,210,48472,21,10,0:0:0:0:
338,285,48672,1,10,1:2:0:0:
256,224,48872,2,0,L|270:363,1,140,10|8,1:2|0:0,0:0:0:0:
184,240,49472,5,10,0:0:0:0:
272,140,49672,2,0,L|264:209,2,70,14|0|8,1:2|0:0|0:0,0:0:0:0:
252,48,50272,6,0,L|259:117,1,70,10|0,1:2|0:0,0:0:0:0:
340,148,50672,1,8,0:0:0:0:
464,80,50872,5,10,1:2:0:0:
448,140,51072,1,2,0:0:0:0:
448,140,51172,1,0,0:0:0:0:
448,140,51272,1,2,0:0:0:0:
464,80,52672,5,14,1:2:0:0:
464,80,53072,1,8,0:0:0:0:
443,143,53272,1,8,0:0:0:0:
374,178,53472,1,8,0:0:0:0:
287,149,53672,1,8,0:0:0:0:
245,52,53872,1,8,0:0:0:0:
130,18,54072,1,8,0:0:0:0:
13,82,54272,1,10,0:0:0:0:
5,227,54472,6,0,P|92:222|141:149,1,181.999991668702,14|10,0:0|1:2,0:0:0:0:
84,20,55072,2,0,L|76:110,1,90.9999958343508,10|0,0:0|0:0,0:0:0:0:
261,285,55472,2,0,L|268:194,1,90.9999958343508,10|10,0:0|1:2,0:0:0:0:
255,362,55872,5,10,0:0:0:0:
255,362,56272,1,8,0:0:0:0:
261,285,56472,1,8,1:2:0:0:
261,285,56772,1,2,1:2:0:0:
256,258,56872,1,10,0:0:0:0:
301,158,57072,1,8,0:0:0:0:
211,42,57272,5,10,1:2:0:0:
284,88,57472,1,0,0:0:0:0:
284,88,57572,1,0,0:0:0:0:
284,88,57672,2,0,P|331:79|369:40,2,90.9999958343508,14|0|10,0:0|0:0|1:2,0:0:0:0:
83,161,58272,2,0,P|128:162|166:187,1,90.9999958343508,10|0,0:0|0:0,0:0:0:0:
180,275,58672,5,10,0:0:0:0:
20,231,58872,1,10,1:2:0:0:
97,326,59072,2,0,L|110:218,1,90.9999958343508,14|0,0:0|0:0,0:0:0:0:
346,73,59472,2,0,L|335:163,1,90.9999958343508,10|8,0:0|1:2,0:0:0:0:
408,189,59872,1,10,0:0:0:0:
64,11,60272,6,0,P|22:27|0:65,2,90.9999958343508,10|8|2,0:0|1:2|0:0,0:0:0:0:
116,52,60772,1,0,1:2:0:0:
116,52,60872,2,0,L|235:42,1,90.9999958343508,14|8,0:0|0:0,0:0:0:0:
326,105,61272,1,10,1:2:0:0:
418,7,61472,2,0,L|327:0,1,90.9999958343508,12|0,0:0|0:0,0:0:0:0:
276,48,61872,5,8,0:0:0:0:
316,116,62072,1,10,1:2:0:0:
256,192,62272,1,14,0:0:0:0:
358,250,62472,5,0,0:0:0:0:
352,236,62672,1,8,0:0:0:0:
372,152,62872,5,8,1:2:0:0:
261,179,63072,1,8,0:0:0:0:
182,84,63272,5,8,1:2:0:0:
302,105,63472,1,8,0:0:0:0:
395,0,63672,5,10,1:2:0:0:
248,39,63872,1,2,1:2:0:0:
248,39,63972,1,2,1:2:0:0:
248,39,64072,2,0,P|173:75|163:173,1,181.999991668702,14|10,0:0|1:2,0:0:0:0:
127,251,64672,2,0,L|242:235,1,90.9999958343508,10|0,0:0|0:0,0:0:0:0:
333,93,65072,5,10,0:0:0:0:
377,229,65272,1,10,1:2:0:0:
485,145,65472,2,0,L|373:153,1,90.9999958343508,14|0,0:0|0:0,0:0:0:0:
164,311,65872,2,0,L|268:296,1,90.9999958343508,10|8,0:0|1:2,0:0:0:0:
512,80,66272,6,0,L|400:88,1,90.9999958343508,14|0,0:0|0:0,0:0:0:0:
360,28,66672,1,10,0:0:0:0:
404,164,66872,1,8,1:2:0:0:
256,272,67072,5,2,1:2:0:0:
259,246,67172,1,2,1:2:0:0:
262,220,67272,1,14,0:0:0:0:
240,132,67472,5,8,0:0:0:0:
327,157,67672,1,10,1:2:0:0:
256,24,67872,5,14,0:0:0:0:
256,24,68272,1,10,0:0:0:0:
108,57,68472,1,8,1:2:0:0:
212,169,68672,5,2,0:0:0:0:
212,169,68772,1,8,1:2:0:0:
212,169,68872,2,0,P|128:143|65:203,1,181.999991668702,12|10,0:0|1:2,0:0:0:0:
176,324,69472,2,0,L|147:202,2,90.9999958343508,10|0|10,0:0|0:0|0:0,0:0:0:0:
448,272,70072,5,10,1:2:0:0:
376,192,70272,1,2,1:2:0:0:
376,192,70372,1,2,1:2:0:0:
376,192,70472,2,0,P|356:279|344:393,1,181.999991668702,12|8,0:0|1:2,0:0:0:0:
178,110,71072,2,0,P|198:197|210:311,1,181.999991668702,10|8,0:0|1:2,0:0:0:0:
102,188,71672,1,10,1:2:0:0:
102,188,71972,5,0,1:2:0:0:
128,173,72072,1,12,0:0:0:0:
209,191,72272,1,8,0:0:0:0:
302,136,72472,1,8,1:2:0:0:
388,242,72672,1,8,0:0:0:0:
388,242,72972,5,2,2:0:0:0:
362,227,73072,1,10,2:0:0:0:
235,275,73272,1,8,1:2:0:0:
324,338,73472,1,0,0:0:0:0:
256,384,73672,1,12,0:0:0:0:
256,384,74072,5,8,0:0:0:0:
209,280,74272,2,0,P|163:287|114:314,2,90.9999958343508,8|0|8,1:2|0:0|0:0,0:0:0:0:
348,192,74872,5,8,2:3:0:0:
288,320,75072,1,8,2:3:0:0:
181,221,75272,2,0,P|146:227|103:249,1,70,6|0,0:0|0:0,0:0:0:0:
124,306,75872,2,0,P|165:286|210:280,1,92.4000028198243
294,317,76672,6,0,P|344:318|279:276,1,215.60000657959,6|8,0:0|1:2,0:0:0:0:
