osu file format v14

[General]
AudioFilename: audio.mp3
AudioLeadIn: 0
PreviewTime: 51071
Countdown: 0
SampleSet: Soft
StackLeniency: 0.7
Mode: 0
LetterboxInBreaks: 0
WidescreenStoryboard: 1

[Editor]
DistanceSpacing: 0.8
BeatDivisor: 4
GridSize: 32
TimelineZoom: 1.8

[Metadata]
Title:Only (TV Size)
TitleUnicode:オンリー (TV Size)
Artist:Ohara Yuiko
ArtistUnicode:大原ゆい子
Creator:NcFix
Version:MajK00's Insane
Source:無職転生 ~異世界行ったら本気だす~
Tags:Anime Enuhq MajK00 tv size mushoku tensei isekai ittara honki dasu jobless reincarnation Roxy Migurdia ロキシー・ミグルディア I Will Seriously Try If I Go To Another World pop jpop j-pop ed ending japanese Honki Dasu Jobless Reincarnation Kuki1537
BeatmapID:3999707
BeatmapSetID:1935338

[Difficulty]
HPDrainRate:4.6
CircleSize:3.8
OverallDifficulty:7.5
ApproachRate:8.7
SliderMultiplier:1.5
SliderTickRate:1

[Events]
//Background and Video events
0,0,"Roxy BG.jpg",0,0
//Break Periods
//Storyboard Layer 0 (Background)
//Storyboard Layer 1 (Fail)
//Storyboard Layer 2 (Pass)
//Storyboard Layer 3 (Foreground)
//Storyboard Layer 4 (Overlay)
//Storyboard Sound Samples

[TimingPoints]
356,400,4,2,27,45,1,0
356,-133.333333333333,4,2,27,45,0,0
9656,-133.333333333333,4,2,27,5,0,0
9756,-133.333333333333,4,2,27,45,0,0
9956,-117.647058823529,4,2,27,45,0,0
13156,-105.263157894737,4,2,27,60,0,0
25956,-100,4,2,27,50,0,0
36956,-100,4,2,27,60,0,0
38756,-100,4,2,27,50,0,0
45156,-100,4,2,27,65,0,0
51156,-100,4,2,27,40,0,0
51556,-133.333333333333,4,2,27,40,0,0
52156,-133.333333333333,4,2,27,50,0,0
52556,-133.333333333333,4,2,27,60,0,0
53356,-133.333333333333,4,2,27,70,0,0
53756,-117.647058823529,4,2,27,70,0,0
53956,-117.647058823529,4,2,27,75,0,0
54356,-117.647058823529,4,2,27,80,0,0
54756,-90.9090909090909,4,2,27,85,0,0
76956,-133.333333333333,4,2,27,50,0,0

[Colours]
Combo1 : 179,217,255
Combo2 : 70,163,255
Combo3 : 255,255,210

[HitObjects]
2,118,356,6,0,P|57:106|117:99,1,112.500004291535,2|0,3:2|0:0,0:0:0:0:
189,29,956,2,0,P|244:36|299:48,1,112.500004291535,2|0,3:2|0:0,0:0:0:0:
255,131,1556,2,0,P|227:124|194:119,1,56.2500021457673,2|2,3:2|0:0,0:0:0:0:
218,239,1956,6,0,P|272:225|328:219,1,112.500004291535,2|0,3:2|0:0,0:0:0:0:
402,288,2556,2,0,P|455:296|518:312,1,112.500004291535,2|0,3:2|0:0,0:0:0:0:
466,384,3156,2,0,P|434:375|401:370,1,56.2500021457673,2|2,3:2|0:0,0:0:0:0:
279,314,3556,6,0,P|313:279|326:203,1,112.500004291535,2|0,3:2|0:0,0:0:0:0:
408,164,4156,2,0,P|377:119|373:63,1,112.500004291535,2|0,3:2|0:0,0:0:0:0:
476,33,4756,2,0,P|462:57|459:85,1,56.2500021457673,2|2,3:2|0:0,0:0:0:0:
420,175,5156,1,2,3:2:0:0:
293,139,5356,6,0,P|257:155|223:161,1,56.2500021457673,2|0,0:1|0:0,0:0:0:0:
131,106,5756,2,0,P|102:99|77:87,1,56.2500021457673,2|0,3:1|0:0,0:0:0:0:
234,28,6156,1,2,0:1:0:0:
233,28,6356,2,0,P|221:53|213:80,1,56.2500021457673,2|2,3:2|0:0,0:0:0:0:
274,252,6756,5,4,1:2:0:0:
256,192,6856,12,0,9556,0:0:0:0:
142,268,9756,5,0,3:0:0:0:
137,264,9856,1,0,3:0:0:0:
132,261,9956,2,0,P|67:282|7:305,1,127.50000243187,2|0,3:2|0:0,0:0:0:0:
40,196,10556,2,0,P|99:178|172:163,1,127.50000243187,2|0,3:2|3:0,0:0:0:0:
244,163,11156,1,2,3:1:0:0:
226,254,11356,1,2,0:1:0:0:
315,327,11556,6,0,P|358:282|421:278,1,127.50000243187,0|0,3:0|0:0,0:0:0:0:
485,362,12156,2,0,P|497:304|516:224,1,127.50000243187,2|0,3:2|3:0,0:0:0:0:
440,192,12756,1,2,3:2:0:0:
296,95,12956,5,8,0:0:0:0:
303,75,13056,1,8,0:0:0:0:
309,60,13156,2,0,L|448:22,1,142.49999619484,4|0,1:2|1:0,0:0:0:0:
450,178,13756,2,0,L|363:151,1,71.2499980974198,10|0,0:1|0:0,0:0:0:0:
282,191,14156,1,2,1:0:0:0:
177,101,14356,1,8,0:0:0:0:
92,199,14556,5,10,0:1:0:0:
102,204,14656,1,8,0:0:0:0:
112,209,14756,2,0,L|182:195,2,71.2499980974198,2|0|0,1:2|1:0|3:0,0:0:0:0:
60,345,15356,2,0,B|63:267|8:282|17:194,1,142.49999619484,8|0,0:0|1:0,0:0:0:0:
150,295,15956,1,8,0:0:0:0:
135,384,16156,1,0,3:0:0:0:
220,354,16356,6,0,P|263:344|386:339,1,142.49999619484,2|0,1:2|1:0,0:0:0:0:
425,245,16956,2,0,P|390:227|356:225,1,71.2499980974198,10|0,0:1|0:0,0:0:0:0:
275,260,17356,1,2,1:0:0:0:
342,136,17556,1,8,0:0:0:0:
490,136,17756,5,10,0:1:0:0:
483,145,17856,1,8,0:0:0:0:
476,154,17956,2,0,L|457:80,2,71.2499980974198,2|2|0,1:2|1:0|3:0,0:0:0:0:
358,225,18556,2,0,P|293:207|187:186,1,142.49999619484,10|0,0:1|1:0,0:0:0:0:
113,126,19156,1,8,0:0:0:0:
10,136,19356,5,8,0:0:0:0:
17,145,19456,1,8,0:0:0:0:
24,154,19556,2,0,P|79:111|95:43,1,142.49999619484,6|0,1:2|1:0,0:0:0:0:
207,102,20156,2,0,P|268:84|301:80,1,71.2499980974198,10|0,0:1|0:0,0:0:0:0:
219,191,20556,1,2,1:0:0:0:
113,126,20756,1,8,0:0:0:0:
57,237,20956,5,10,0:1:0:0:
48,230,21056,1,8,0:0:0:0:
39,223,21156,2,0,L|22:148,2,71.2499980974198,2|0|0,1:2|1:0|3:0,0:0:0:0:
136,283,21756,2,0,P|188:294|287:324,1,142.49999619484,10|0,0:1|1:0,0:0:0:0:
370,274,22356,1,8,0:0:0:0:
441,242,22556,1,0,3:0:0:0:
472,338,22756,6,0,P|484:267|512:202,1,142.49999619484,2|0,1:2|1:0,0:0:0:0:
443,106,23356,2,0,P|407:110|365:129,1,71.2499980974198,10|0,0:1|0:0,0:0:0:0:
296,193,23756,1,2,1:0:0:0:
161,125,23956,1,8,0:0:0:0:
261,27,24156,5,10,0:1:0:0:
253,35,24256,1,8,0:0:0:0:
245,43,24356,2,0,L|261:127,2,71.2499980974198,2|0|0,1:2|1:0|3:0,0:0:0:0:
108,55,24956,2,0,P|78:91|97:183,1,142.49999619484,8|0,0:0|1:0,0:0:0:0:
217,248,25556,1,8,0:0:0:0:
267,323,25756,1,0,3:0:0:0:
74,384,25956,5,4,1:2:0:0:
143,335,26156,2,0,P|139:297|128:261,2,75,2|2|10,0:0|0:0|0:0,0:0:0:0:
216,248,26756,2,0,P|254:235|292:235,1,75,2|2,0:0|1:2,0:0:0:0:
421,326,27156,2,0,P|458:329|492:344,1,75,10|10,0:0|0:0,0:0:0:0:
499,354,27456,1,8,0:0:0:0:
504,365,27556,1,0,1:0:0:0:
318,384,27756,6,0,L|338:301,2,75,2|2|10,1:2|0:0|0:0,0:0:0:0:
389,222,28356,2,0,P|381:185|369:149,1,75,2|0,0:0|1:0,0:0:0:0:
503,103,28756,2,0,P|495:139|483:175,1,75,10|0,0:0|0:0,0:0:0:0:
382,234,29156,1,0,1:0:0:0:
251,179,29356,6,0,P|216:168|171:157,2,75,2|2|10,0:0|0:0|0:0,0:0:0:0:
361,135,29956,2,0,P|378:75|367:50,1,75,2|2,0:0|1:2,0:0:0:0:
280,102,30356,1,10,0:0:0:0:
176,29,30556,5,8,0:0:0:0:
167,21,30656,1,8,0:0:0:0:
158,13,30756,2,0,L|69:25,2,75,2|2|0,1:2|1:2|0:0,0:0:0:0:
109,118,31356,2,0,P|90:162|66:203,1,75,10|0,0:0|0:0,0:0:0:0:
13,97,31756,1,2,1:2:0:0:
69,202,31956,2,0,P|86:235|101:269,1,75,8|8,0:0|0:0,0:0:0:0:
97,281,32256,1,8,0:0:0:0:
92,292,32356,1,0,1:0:0:0:
206,176,32556,6,0,P|241:165|278:169,2,75,2|2|10,0:0|1:2|0:0,0:0:0:0:
306,90,33156,2,0,P|345:114|359:148,1,75,2|0,3:2|1:0,0:0:0:0:
224,83,33556,2,0,P|200:45|202:12,1,75,10|8,0:0|0:0,0:0:0:0:
209,8,33856,1,8,0:0:0:0:
217,0,33956,1,0,1:0:0:0:
400,50,34156,6,0,P|432:36|494:21,2,75,2|2|10,1:2|0:0|0:0,0:0:0:0:
349,194,34756,2,0,P|314:179|278:168,1,75,2|2,0:0|1:2,0:0:0:0:
418,134,35156,1,10,0:0:0:0:
495,206,35356,1,2,3:2:0:0:
349,316,35556,6,0,B|319:312|292:302|292:302|252:337|184:330,1,150,2|2,1:2|1:2,0:0:0:0:
85,247,36156,2,0,P|106:279|119:314,1,75,10|0,0:0|0:0,0:0:0:0:
244,173,36556,2,0,P|222:218|215:249,1,75,10|2,0:0|3:2,0:0:0:0:
46,144,36956,2,0,P|121:125|199:82,1,150,6|0,1:2|1:0,0:0:0:0:
465,35,37556,5,8,0:0:0:0:
437,117,37756,1,2,3:2:0:0:
324,169,37956,1,8,0:0:0:0:
261,29,38156,1,0,1:0:0:0:
443,132,38356,1,8,0:0:0:0:
441,144,38456,1,2,3:2:0:0:
439,156,38556,1,2,3:2:0:0:
385,329,38756,5,2,1:2:0:0:
432,267,38956,1,0,1:0:0:0:
268,321,39155,2,0,P|213:334|163:360,1,112.5,12|0,0:0|0:0,0:0:0:0:
278,311,39556,2,0,L|323:168,1,150,12|0,0:0|1:0,0:0:0:0:
60,79,40156,6,0,B|52:105|52:105|71:140|71:140|62:186|97:234,2,150,12|8|0,1:2|0:0|1:0,0:0:0:0:
0,0,41156,1,0,1:0:0:0:
153,52,41356,1,8,0:3:0:0:
151,63,41456,1,8,0:0:0:0:
149,75,41556,1,10,0:0:0:0:
237,18,41756,6,0,P|281:8|325:2,1,75,2|4,1:2|1:2,0:0:0:0:
234,148,42156,2,0,P|180:157|155:165,1,75,2|8,0:0|0:0,0:0:0:0:
301,95,42556,1,2,1:2:0:0:
369,138,42756,2,0,P|386:175|377:225,1,75,2|2,0:0|1:2,0:0:0:0:
324,312,43156,1,10,0:0:0:0:
422,384,43356,5,10,0:0:0:0:
425,372,43456,1,8,0:0:0:0:
429,360,43556,1,0,1:0:0:0:
491,288,43756,1,2,1:2:0:0:
373,226,43956,1,10,0:0:0:0:
324,312,44156,2,0,P|233:329|173:351,1,150,0|0,1:0|1:0,0:0:0:0:
4,268,44756,2,0,P|37:283|68:306,1,75,8|0,0:0|0:0,0:0:0:0:
220,205,45156,5,2,1:2:0:0:
166,257,45356,1,0,1:0:0:0:
316,194,45556,2,0,P|362:163|377:110,1,112.5,12|0,0:0|0:0,0:0:0:0:
306,200,45956,2,0,L|162:128,1,150,12|0,0:0|0:0,0:0:0:0:
470,61,46556,6,0,B|486:112|486:112|482:142|482:142|502:170|506:202,2,150,12|8|0,1:2|0:0|1:0,0:0:0:0:
399,8,47556,1,8,0:0:0:0:
254,108,47756,1,8,0:0:0:0:
332,166,47956,1,0,1:0:0:0:
164,17,48156,6,0,P|91:24|44:80,1,150,14|0,0:0|1:0,0:0:0:0:
70,154,48756,1,0,1:0:0:0:
0,301,48956,1,14,0:0:0:0:
195,384,49156,2,0,P|217:332|263:237,1,150,14|0,0:0|1:0,0:0:0:0:
192,176,49756,1,2,1:2:0:0:
376,326,49956,6,0,P|450:309|479:308,1,75,14|0,0:0|0:0,0:0:0:0:
512,358,50356,1,0,1:0:0:0:
330,187,50556,2,0,P|364:116|452:96,1,150,14|0,0:0|1:0,0:0:0:0:
512,161,51156,5,10,0:0:0:0:
447,199,51356,1,2,0:0:0:0:
447,308,51556,2,0,P|421:301|393:296,1,56.2500021457673,2|0,0:0|0:0,0:0:0:0:
334,350,51956,1,2,0:0:0:0:
334,350,52156,2,0,P|306:353|278:357,1,56.2500021457673,2|0,3:2|3:0,0:0:0:0:
206,304,52556,2,0,P|193:256|200:224,1,56.2500021457673,2|0,3:2|3:0,0:0:0:0:
347,53,52956,1,6,1:2:0:0:
353,42,53356,5,10,0:0:0:0:
428,133,53556,1,8,0:0:0:0:
337,241,53756,2,0,P|309:225|279:214,1,63.7500012159348,10|8,0:0|0:0,0:0:0:0:
157,119,54156,1,10,0:0:0:0:
262,52,54356,1,8,0:0:0:0:
153,221,54556,1,10,0:0:0:0:
0,32,54756,6,0,P|30:108|60:207,1,165.000005035401,6|10,1:2|0:0,0:0:0:0:
210,291,55356,2,0,P|161:240|137:232,1,82.5000025177003,2|0,1:2|0:0,0:0:0:0:
0,298,55756,1,2,1:2:0:0:
124,346,55956,1,10,0:0:0:0:
262,195,56156,6,0,B|353:196|330:237|432:237,1,165.000005035401,2|0,1:2|1:0,0:0:0:0:
322,111,56756,2,0,P|288:54|270:35,1,82.5000025177003,8|0,0:0|3:0,0:0:0:0:
264,37,57056,1,0,3:0:0:0:
250,33,57156,1,0,1:0:0:0:
190,106,57356,1,0,1:0:0:0:
418,73,57556,2,0,P|479:33|490:15,1,82.5000025177003,10|0,0:0|0:0,0:0:0:0:
510,285,57956,6,0,P|484:243|371:228,1,165.000005035401,6|8,1:2|0:0,0:0:0:0:
286,135,58556,2,0,P|255:161|245:201,1,82.5000025177003,2|0,1:2|0:0,0:0:0:0:
322,376,58956,1,2,1:2:0:0:
419,316,59156,1,8,0:0:0:0:
169,348,59356,6,0,P|141:278|92:201,1,165.000005035401,6|2,1:2|1:2,0:0:0:0:
191,77,59956,1,8,0:0:0:0:
13,29,60156,2,0,P|48:62|85:68,1,82.5000025177003,2|0,1:2|0:0,0:0:0:0:
203,185,60556,2,0,P|242:173|270:144,1,82.5000025177003,2|8,1:2|0:0,0:0:0:0:
477,8,60956,5,10,0:0:0:0:
466,15,61056,1,8,0:0:0:0:
456,24,61156,2,0,P|440:62|428:101,1,82.5000025177003,6|0,1:2|1:0,0:0:0:0:
502,191,61556,1,10,0:0:0:0:
304,41,61756,2,0,B|271:49|245:40|245:40|204:75|139:82,1,165.000005035401,4|0,1:2|1:0,0:0:0:0:
13,29,62356,1,10,0:0:0:0:
150,238,62556,6,0,P|184:190|292:172,1,165.000005035401,6|0,1:2|1:0,0:0:0:0:
165,342,63156,2,0,P|105:313|69:310,1,82.5000025177003,8|0,0:0|1:0,0:0:0:0:
275,269,63556,1,8,0:0:0:0:
389,380,63756,1,0,1:0:0:0:
512,242,63956,1,10,0:0:0:0:
357,135,64156,5,8,0:0:0:0:
369,141,64256,1,8,0:0:0:0:
381,147,64356,2,0,P|402:192|444:308,1,165.000005035401,6|10,1:2|0:0,0:0:0:0:
286,185,64956,2,0,P|238:167|186:159,1,82.5000025177003,2|0,1:2|0:0,0:0:0:0:
286,87,65356,1,2,1:2:0:0:
341,254,65556,1,8,0:0:0:0:
164,368,65756,6,0,B|105:353|105:353|71:373|71:373|46:358|8:358,1,165.000005035401,6|2,1:2|1:2,0:0:0:0:
202,290,66356,1,8,0:0:0:0:
28,139,66556,2,0,P|15:228|70:269,1,165.000005035401,6|2,1:2|1:2,0:0:0:0:
152,157,67156,1,8,0:0:0:0:
314,292,67356,5,10,0:0:0:0:
322,303,67456,1,8,0:0:0:0:
330,314,67556,2,0,P|372:319|413:332,1,82.5000025177003,6|0,1:2|1:0,0:0:0:0:
271,384,67956,1,10,0:0:0:0:
452,249,68156,2,0,P|425:171|409:90,1,165.000005035401,6|2,1:2|1:2,0:0:0:0:
512,173,68756,1,8,0:0:0:0:
330,314,68956,5,10,0:0:0:0:
318,308,69056,1,8,0:0:0:0:
306,302,69156,2,0,P|326:261|341:200,1,82.5000025177003,4|0,1:2|0:0,0:0:0:0:
235,52,69556,1,10,0:0:0:0:
395,0,69756,2,0,P|370:77|281:103,1,165.000005035401,2|0,1:2|1:0,0:0:0:0:
127,24,70356,1,10,0:0:0:0:
30,203,70556,5,10,0:0:0:0:
39,193,70656,1,8,0:0:0:0:
49,184,70756,2,0,B|121:206|121:206|159:173|219:181,1,165.000005035401,4|8,1:2|0:0,0:0:0:0:
315,356,71356,2,0,P|254:273|194:268,1,165.000005035401,2|0,1:2|1:0,0:0:0:0:
321,197,71956,1,10,0:0:0:0:
199,345,72156,5,10,0:3:0:0:
188,352,72256,1,8,0:0:0:0:
177,360,72356,2,0,P|96:370|9:385,1,165.000005035401,4|8,1:2|0:0,0:0:0:0:
204,179,72956,2,0,P|236:115|232:66,1,82.5000025177003,0|2,1:0|3:2,0:0:0:0:
158,35,73356,1,0,1:0:0:0:
21,153,73556,1,8,0:0:0:0:
67,231,73756,1,0,1:0:0:0:
325,66,73956,6,0,B|416:65|390:111|501:110,1,165.000005035401,6|0,1:2|1:0,0:0:0:0:
332,287,74556,2,0,P|294:269|253:267,1,82.5000025177003,12|0,0:0|0:0,0:0:0:0:
371,199,74956,1,0,1:0:0:0:
143,170,75156,5,8,0:0:0:0:
296,372,75356,1,8,0:0:0:0:
424,275,75556,5,2,0:0:0:0:
424,275,76956,6,0,P|369:261|315:244,1,112.500004291535,6|0,1:2|1:0,0:0:0:0:
275,177,77556,1,0,3:0:0:0:
122,274,77756,2,0,P|121:328|173:371,1,112.500004291535,10|2,0:1|1:0,0:0:0:0:
196,227,78356,2,0,P|187:201|180:169,1,56.2500021457673,8|10,0:0|0:1,0:0:0:0:
186,162,78656,5,8,0:0:0:0:
191,151,78756,1,2,1:2:0:0:
63,202,78956,2,0,P|15:182|-9:176,1,56.2500021457673,0|0,1:0|3:0,0:0:0:0:
104,79,79356,2,0,P|157:64|210:45,1,112.500004291535,8|0,0:0|1:0,0:0:0:0:
280,124,79956,1,8,0:0:0:0:
406,45,80156,5,0,3:0:0:0:
403,37,80256,1,0,3:0:0:0:
400,29,80357,2,0,P|347:11|295:29,1,112.500004291535,2|0,1:2|1:0,0:0:0:0:
460,151,80956,2,0,P|474:92|493:35,1,112.500004291535,10|2,0:1|1:0,0:0:0:0:
376,132,81556,1,8,0:0:0:0:
484,235,81756,5,10,0:1:0:0:
492,239,81856,1,8,0:0:0:0:
500,243,81956,1,2,1:2:0:0:
442,317,82156,2,0,L|387:331,1,56.2500021457673,0|0,1:0|0:0,0:0:0:0:
266,220,82556,2,0,P|320:214|366:245,1,112.500004291535,8|0,0:0|1:0,0:0:0:0:
246,314,83156,1,8,0:0:0:0:
194,154,83356,5,4,0:3:0:0:
200,147,83456,1,8,0:0:0:0:
205,140,83556,2,0,B|169:154|143:149|143:149|120:165|80:172,1,112.500004291535,6|0,1:2|1:0,0:0:0:0:
9,37,84156,2,0,P|68:56|117:67,1,112.500004291535,10|2,0:1|1:0,0:0:0:0:
204,13,84756,1,8,0:0:0:0:
312,95,84956,5,10,0:1:0:0:
315,104,85056,1,8,0:0:0:0:
318,113,85156,1,2,1:2:0:0:
405,58,85356,2,0,L|416:2,1,56.2500021457673,0|0,1:0|3:0,0:0:0:0:
486,118,85756,2,0,L|515:239,1,112.500004291535,8|0,0:0|1:0,0:0:0:0:
398,152,86356,1,8,0:0:0:0:
273,260,86556,5,0,3:0:0:0:
274,250,86656,1,0,3:0:0:0:
278,242,86756,2,0,P|334:246|371:294,1,112.500004291535,2|0,1:2|1:0,0:0:0:0:
228,384,87356,2,0,P|222:353|210:315,1,56.2500021457673,10|0,0:1|0:0,0:0:0:0:
173,262,87756,1,2,1:0:0:0:
17,132,87956,1,8,0:0:0:0:
97,136,88156,2,0,P|82:175|75:210,1,56.2500021457673,2|0,1:0|1:0,0:0:0:0:
242,215,88556,5,12,1:2:0:0:
411,150,88756,1,12,1:2:0:0:
512,0,88956,1,12,1:2:0:0:
