osu file format v14

[General]
AudioFilename: audio.mp3
AudioLeadIn: 0
PreviewTime: 51171
Countdown: 0
SampleSet: Normal
StackLeniency: 0.7
Mode: 1
LetterboxInBreaks: 0
WidescreenStoryboard: 1

[Editor]
Bookmarks: 371,13171,25971,38771,51571,54771,75571,76971,88971
DistanceSpacing: 1.1
BeatDivisor: 2
GridSize: 32
TimelineZoom: 0.7999998

[Metadata]
Title:Only (TV Size)
TitleUnicode:オンリー (TV Size)
Artist:Ohara Yuiko
ArtistUnicode:大原ゆい子
Creator:Irone OSU
Version:ilv_Rem's Futsuu
Source:無職転生 ~異世界行ったら本気だす~
Tags:anime ending ed pop j-pop jpop japanese mushoku tensei Isekai Ittara Honki Dasu Jobless Reincarnation Oohara 吉田穰 Faputa ilv_rem Yoshida Minoru
BeatmapID:3133063
BeatmapSetID:1531611

[Difficulty]
HPDrainRate:7
CircleSize:2
OverallDifficulty:4
ApproachRate:2
SliderMultiplier:1.4
SliderTickRate:1

[Events]
//Background and Video events
0,0,"Eris.jpg",0,50
Video,200,"mushoku.mp4"
//Break Periods
//Storyboard Layer 0 (Background)
//Storyboard Layer 1 (Fail)
//Storyboard Layer 2 (Pass)
//Storyboard Layer 3 (Foreground)
//Storyboard Layer 4 (Overlay)
//Storyboard Sound Samples

[TimingPoints]
371,400,4,1,0,40,1,0
371,-100,4,1,0,40,0,0
13121,-100,4,1,0,50,0,0
25971,-100,4,1,0,50,0,0
36871,-100,4,1,0,55,0,0
38671,-100,4,1,0,60,0,0
42271,-100,4,1,0,65,0,0
45071,-100,4,1,0,60,0,0
48071,-100,4,1,0,65,0,0
53271,-100,4,1,0,55,0,0
53471,-100,4,1,0,60,0,0
53671,-100,4,1,0,65,0,0
54071,-100,4,1,0,71,0,0
54271,-100,4,1,0,74,0,0
54671,-100,4,1,0,80,0,0
54771,-100,4,1,0,80,0,1
55071,-100,4,1,0,80,0,1
75571,-100,4,1,0,80,0,0
76871,-100,4,1,0,60,0,0
88471,-100,4,1,0,70,0,0

[HitObjects]
256,192,371,5,8,0:0:0:0:
256,192,971,1,8,0:0:0:0:
256,192,1571,1,8,0:0:0:0:
256,192,1971,1,0,0:0:0:0:
256,192,2571,1,0,0:0:0:0:
256,192,3171,1,0,0:0:0:0:
256,192,3571,1,8,0:0:0:0:
256,192,4171,1,8,0:0:0:0:
256,192,4771,1,8,0:0:0:0:
256,192,5171,1,0,0:0:0:0:
256,192,5571,1,0,0:0:0:0:
256,192,5771,1,8,0:0:0:0:
256,192,6771,1,8,0:0:0:0:
256,192,7371,1,8,0:0:0:0:
256,192,7971,1,8,0:0:0:0:
256,192,8371,1,0,0:0:0:0:
256,192,8971,1,0,0:0:0:0:
256,192,9571,1,0,0:0:0:0:
256,192,9971,1,8,0:0:0:0:
256,192,10571,1,8,0:0:0:0:
256,192,11171,1,8,0:0:0:0:
256,192,11571,1,0,0:0:0:0:
256,192,12171,1,0,0:0:0:0:
256,192,13171,1,4,0:0:0:0:
256,192,13771,1,8,0:0:0:0:
256,192,14171,1,0,0:0:0:0:
256,192,14371,1,8,0:0:0:0:
256,192,14771,1,0,0:0:0:0:
256,192,14971,1,0,0:0:0:0:
256,192,15371,1,8,0:0:0:0:
256,192,15771,1,0,0:0:0:0:
256,192,15971,1,8,0:0:0:0:
256,192,16371,1,0,0:0:0:0:
256,192,16971,1,8,0:0:0:0:
256,192,17371,1,0,0:0:0:0:
256,192,17571,1,8,0:0:0:0:
256,192,17971,1,0,0:0:0:0:
256,192,18571,1,8,0:0:0:0:
256,192,18971,1,0,0:0:0:0:
256,192,19171,1,8,0:0:0:0:
256,192,19571,1,4,0:0:0:0:
256,192,20171,1,8,0:0:0:0:
256,192,20571,1,0,0:0:0:0:
256,192,20771,1,8,0:0:0:0:
256,192,21171,1,0,0:0:0:0:
256,192,21371,1,0,0:0:0:0:
256,192,21771,1,8,0:0:0:0:
256,192,22171,1,0,0:0:0:0:
256,192,22371,1,8,0:0:0:0:
256,192,22771,1,0,0:0:0:0:
256,192,23371,1,8,0:0:0:0:
256,192,23771,1,0,0:0:0:0:
256,192,23971,1,8,0:0:0:0:
256,192,24371,1,0,0:0:0:0:
256,192,24971,1,8,0:0:0:0:
256,192,25371,1,0,0:0:0:0:
256,192,25571,1,8,0:0:0:0:
256,192,25971,1,4,0:0:0:0:
256,192,26771,1,0,0:0:0:0:
256,192,27171,1,0,0:0:0:0:
256,192,27371,1,8,0:0:0:0:
256,192,27771,1,0,0:0:0:0:
256,192,27971,1,0,0:0:0:0:
256,192,28371,1,8,0:0:0:0:
256,192,28771,1,8,0:0:0:0:
256,192,29371,1,0,0:0:0:0:
256,192,29571,1,0,0:0:0:0:
256,192,29971,1,8,0:0:0:0:
256,192,30371,1,8,0:0:0:0:
256,192,30571,1,0,0:0:0:0:
256,192,30971,1,8,0:0:0:0:
256,192,31371,1,0,0:0:0:0:
256,192,31771,1,0,0:0:0:0:
256,192,32571,1,0,0:0:0:0:
256,192,32971,1,8,0:0:0:0:
256,192,33371,1,0,0:0:0:0:
256,192,33571,1,0,0:0:0:0:
256,192,33771,1,8,0:0:0:0:
256,192,34171,1,0,0:0:0:0:
256,192,34571,1,0,0:0:0:0:
256,192,34771,1,8,0:0:0:0:
256,192,35171,1,0,0:0:0:0:
256,192,35571,1,8,0:0:0:0:
256,192,35971,1,0,0:0:0:0:
256,192,36171,1,0,0:0:0:0:
256,192,36571,1,8,0:0:0:0:
256,192,36971,1,12,0:0:0:0:
256,192,37771,1,0,0:0:0:0:
256,192,37971,1,8,0:0:0:0:
256,192,38371,1,8,0:0:0:0:
256,192,38771,1,0,0:0:0:0:
256,192,39171,1,4,0:0:0:0:
256,192,39571,1,4,0:0:0:0:
256,192,40171,1,12,0:0:0:0:
256,192,40571,1,8,0:0:0:0:
256,192,40971,1,0,0:0:0:0:
256,192,41171,1,8,0:0:0:0:
256,192,41571,1,8,0:0:0:0:
256,192,41771,1,0,0:0:0:0:
256,192,41971,1,0,0:0:0:0:
256,192,42371,1,8,0:0:0:0:
256,192,42571,1,0,0:0:0:0:
256,192,42971,1,0,0:0:0:0:
256,192,43171,1,8,0:0:0:0:
256,192,43571,1,0,0:0:0:0:
256,192,43971,1,8,0:0:0:0:
256,192,44771,1,8,0:0:0:0:
256,192,45171,1,0,0:0:0:0:
256,192,45571,1,4,0:0:0:0:
256,192,45971,1,4,0:0:0:0:
256,192,46571,1,12,0:0:0:0:
256,192,46971,1,8,0:0:0:0:
256,192,47371,1,0,0:0:0:0:
256,192,47571,1,8,0:0:0:0:
256,192,47971,1,8,0:0:0:0:
256,192,48171,1,4,0:0:0:0:
256,192,48971,1,0,0:0:0:0:
256,192,49171,1,12,0:0:0:0:
256,192,49771,1,0,0:0:0:0:
256,192,49971,1,12,0:0:0:0:
256,192,50571,1,4,0:0:0:0:
256,192,51171,1,12,0:0:0:0:
256,192,52971,1,4,0:0:0:0:
256,192,53371,1,0,0:0:0:0:
256,192,53571,1,0,0:0:0:0:
256,192,53771,1,8,0:0:0:0:
256,192,54171,1,0,0:0:0:0:
256,192,54371,1,8,0:0:0:0:
256,192,54571,1,8,0:0:0:0:
256,192,54771,1,4,0:0:0:0:
256,192,55171,1,8,0:0:0:0:
256,192,55371,1,0,0:0:0:0:
256,192,55771,1,8,0:0:0:0:
256,192,55971,1,0,0:0:0:0:
256,192,56171,1,8,0:0:0:0:
256,192,57571,1,8,0:0:0:0:
256,192,57971,1,4,0:0:0:0:
256,192,58371,1,8,0:0:0:0:
256,192,58571,1,0,0:0:0:0:
256,192,58971,1,8,0:0:0:0:
256,192,59171,1,8,0:0:0:0:
256,192,59371,1,0,0:0:0:0:
256,192,59771,1,0,0:0:0:0:
256,192,59971,1,0,0:0:0:0:
256,192,60171,1,8,0:0:0:0:
256,192,60571,1,8,0:0:0:0:
256,192,60971,1,8,0:0:0:0:
256,192,61171,1,0,0:0:0:0:
256,192,61571,1,0,0:0:0:0:
256,192,61771,1,8,0:0:0:0:
256,192,62171,1,0,0:0:0:0:
256,192,62371,1,8,0:0:0:0:
256,192,62571,1,0,0:0:0:0:
256,192,63571,1,8,0:0:0:0:
256,192,63971,1,8,0:0:0:0:
256,192,64371,1,4,0:0:0:0:
256,192,64771,1,8,0:0:0:0:
256,192,64971,1,0,0:0:0:0:
256,192,65371,1,0,0:0:0:0:
256,192,65571,1,8,0:0:0:0:
256,192,65771,1,0,0:0:0:0:
256,192,66171,1,0,0:0:0:0:
256,192,66371,1,0,0:0:0:0:
256,192,66571,1,8,0:0:0:0:
256,192,66971,1,0,0:0:0:0:
224,64,67371,1,0,0:0:0:0:
224,128,67571,1,8,0:0:0:0:
256,192,67971,1,8,0:0:0:0:
256,192,68171,1,0,0:0:0:0:
256,192,68571,1,8,0:0:0:0:
256,192,68971,1,8,0:0:0:0:
256,192,69571,1,8,0:0:0:0:
256,192,69771,1,0,0:0:0:0:
256,192,70171,1,0,0:0:0:0:
256,192,70371,1,8,0:0:0:0:
256,192,70571,1,8,0:0:0:0:
256,192,70771,1,4,0:0:0:0:
256,192,71371,1,8,0:0:0:0:
256,192,71771,1,0,0:0:0:0:
256,192,71971,1,8,0:0:0:0:
256,192,72171,1,8,0:0:0:0:
256,192,72371,1,0,0:0:0:0:
256,192,72971,1,8,0:0:0:0:
256,192,73371,1,0,0:0:0:0:
256,192,73571,1,8,0:0:0:0:
256,192,73971,1,0,0:0:0:0:
256,192,74371,1,0,0:0:0:0:
256,192,74571,1,8,0:0:0:0:
256,192,74971,1,8,0:0:0:0:
256,192,75171,1,0,0:0:0:0:
256,192,75371,1,0,0:0:0:0:
256,192,76971,1,4,0:0:0:0:
256,192,77771,1,8,0:0:0:0:
256,192,78171,1,0,0:0:0:0:
256,192,78371,1,8,0:0:0:0:
256,192,78771,1,0,0:0:0:0:
256,192,78971,1,0,0:0:0:0:
256,192,79371,1,8,0:0:0:0:
256,192,79771,1,0,0:0:0:0:
256,192,79971,1,8,0:0:0:0:
256,192,80371,1,0,0:0:0:0:
256,192,80971,1,8,0:0:0:0:
256,192,81371,1,0,0:0:0:0:
256,192,81571,1,8,0:0:0:0:
256,192,81971,1,0,0:0:0:0:
256,192,82571,1,8,0:0:0:0:
256,192,82971,1,0,0:0:0:0:
256,192,83171,1,8,0:0:0:0:
256,192,83571,1,0,0:0:0:0:
256,192,84171,1,8,0:0:0:0:
256,192,84571,1,0,0:0:0:0:
256,192,84771,1,8,0:0:0:0:
256,192,85171,1,0,0:0:0:0:
256,192,85371,1,0,0:0:0:0:
256,192,85771,1,8,0:0:0:0:
256,192,86171,1,0,0:0:0:0:
256,192,86371,1,8,0:0:0:0:
256,192,86771,1,0,0:0:0:0:
256,192,87371,1,8,0:0:0:0:
256,192,87971,1,8,0:0:0:0:
256,192,88171,1,0,0:0:0:0:
256,192,88571,1,4,0:0:0:0:
256,192,88771,1,4,0:0:0:0:
256,192,88971,1,4,0:0:0:0:
