osu file format v14

[General]
AudioFilename: audio.mp3
AudioLeadIn: 0
PreviewTime: 51171
Countdown: 0
SampleSet: Normal
StackLeniency: 0.7
Mode: 1
LetterboxInBreaks: 0
WidescreenStoryboard: 1

[Editor]
Bookmarks: 371,13171,25971,38771,51571,54771,75571,76971,88971
DistanceSpacing: 1
BeatDivisor: 4
GridSize: 32
TimelineZoom: 1.4

[Metadata]
Title:Only (TV Size)
TitleUnicode:オンリー (TV Size)
Artist:Ohara Yuiko
ArtistUnicode:大原ゆい子
Creator:Irone OSU
Version:Oni
Source:無職転生 ~異世界行ったら本気だす~
Tags:anime ending ed pop j-pop jpop japanese mushoku tensei Isekai Ittara Honki Dasu Jobless Reincarnation Oohara 吉田穰 Faputa ilv_rem Yoshida Minoru
BeatmapID:3132464
BeatmapSetID:1531611

[Difficulty]
HPDrainRate:6
CircleSize:2
OverallDifficulty:6
ApproachRate:2
SliderMultiplier:1.4
SliderTickRate:1

[Events]
//Background and Video events
0,0,"Sylphiette.jpg",0,34
Video,200,"mushoku.mp4"
//Break Periods
//Storyboard Layer 0 (Background)
//Storyboard Layer 1 (Fail)
//Storyboard Layer 2 (Pass)
//Storyboard Layer 3 (Foreground)
//Storyboard Layer 4 (Overlay)
//Storyboard Sound Samples

[TimingPoints]
371,400,4,1,0,40,1,0
371,-111.111111111111,4,1,0,40,0,0
12871,-109.289617486339,4,1,0,45,0,0
13021,-107.52688172043,4,1,0,45,0,0
13121,-105.263157894737,4,1,0,50,0,0
25971,-100,4,1,0,50,0,0
36871,-100,4,1,0,55,0,0
38671,-100,4,1,0,60,0,0
42271,-100,4,1,0,65,0,0
45071,-100,4,1,0,60,0,0
48071,-100,4,1,0,65,0,0
53271,-105.263157894737,4,1,0,55,0,0
53471,-103.092783505155,4,1,0,60,0,0
53671,-101.010101010101,4,1,0,65,0,0
53871,-98.0392156862745,4,1,0,68,0,0
54071,-95.2380952380952,4,1,0,71,0,0
54271,-91.743119266055,4,1,0,74,0,0
54471,-89.2857142857143,4,1,0,77,0,0
54671,-86.9565217391304,4,1,0,80,0,0
54771,-86.9565217391304,4,1,0,80,0,1
55071,-90.9090909090909,4,1,0,80,0,1
75571,-90.9090909090909,4,1,0,80,0,0
76871,-105.263157894737,4,1,0,60,0,0
88471,-100,4,1,0,70,0,0

[HitObjects]
251,180,371,5,2,0:0:0:0:
251,180,771,1,0,0:0:0:0:
251,180,971,1,2,0:0:0:0:
251,180,1371,1,0,0:0:0:0:
251,180,1571,1,2,0:0:0:0:
251,180,1771,1,2,0:0:0:0:
251,180,1971,1,0,0:0:0:0:
251,180,2371,1,0,0:0:0:0:
251,180,2571,1,2,0:0:0:0:
251,180,2971,1,0,0:0:0:0:
251,180,3171,1,2,0:0:0:0:
251,180,3371,1,2,0:0:0:0:
251,180,3571,1,2,0:0:0:0:
251,180,3971,1,0,0:0:0:0:
251,180,4171,1,2,0:0:0:0:
251,180,4571,1,0,0:0:0:0:
251,180,4771,1,2,0:0:0:0:
251,180,4971,1,2,0:0:0:0:
251,180,5171,1,0,0:0:0:0:
251,180,5371,1,2,0:0:0:0:
251,180,5571,1,0,0:0:0:0:
251,180,5771,1,2,0:0:0:0:
251,180,6171,1,0,0:0:0:0:
251,180,6371,1,2,0:0:0:0:
251,180,6571,1,2,0:0:0:0:
251,180,6771,1,2,0:0:0:0:
251,180,7171,1,0,0:0:0:0:
251,180,7371,1,2,0:0:0:0:
251,180,7771,1,0,0:0:0:0:
251,180,7971,1,2,0:0:0:0:
251,180,8171,1,2,0:0:0:0:
251,180,8371,1,0,0:0:0:0:
251,180,8771,1,0,0:0:0:0:
251,180,8971,1,2,0:0:0:0:
251,180,9371,1,0,0:0:0:0:
251,180,9571,1,2,0:0:0:0:
251,180,9771,1,2,0:0:0:0:
251,180,9971,1,2,0:0:0:0:
251,180,10371,1,0,0:0:0:0:
251,180,10571,1,2,0:0:0:0:
251,180,10971,1,0,0:0:0:0:
251,180,11171,1,2,0:0:0:0:
251,180,11371,1,2,0:0:0:0:
251,180,11571,1,0,0:0:0:0:
251,180,11771,1,0,0:0:0:0:
251,180,12171,1,0,0:0:0:0:
251,180,12371,1,2,0:0:0:0:
251,180,12571,1,0,0:0:0:0:
251,180,12771,1,0,0:0:0:0:
251,180,12971,1,2,0:0:0:0:
251,180,13071,1,2,0:0:0:0:
251,180,13171,1,4,0:0:0:0:
251,180,13571,1,0,0:0:0:0:
251,180,13771,1,2,0:0:0:0:
251,180,14171,1,0,0:0:0:0:
251,180,14371,1,2,0:0:0:0:
251,180,14571,1,2,0:0:0:0:
251,180,14671,1,2,0:0:0:0:
251,180,14771,1,0,0:0:0:0:
251,180,14971,1,0,0:0:0:0:
251,180,15371,1,2,0:0:0:0:
251,180,15571,1,0,0:0:0:0:
251,180,15771,1,0,0:0:0:0:
251,180,15871,1,0,0:0:0:0:
251,180,15971,1,2,0:0:0:0:
251,180,16171,1,2,0:0:0:0:
251,180,16371,1,0,0:0:0:0:
251,180,16771,1,0,0:0:0:0:
251,180,16971,1,2,0:0:0:0:
251,180,17371,1,0,0:0:0:0:
251,180,17571,1,2,0:0:0:0:
251,180,17771,1,2,0:0:0:0:
251,180,17871,1,2,0:0:0:0:
251,180,17971,1,0,0:0:0:0:
251,180,18171,1,0,0:0:0:0:
251,180,18571,1,2,0:0:0:0:
251,180,18771,1,0,0:0:0:0:
251,180,18971,1,0,0:0:0:0:
251,180,19171,1,2,0:0:0:0:
251,180,19371,1,2,0:0:0:0:
251,180,19471,1,2,0:0:0:0:
251,180,19571,1,4,0:0:0:0:
251,180,19971,1,0,0:0:0:0:
251,180,20171,1,2,0:0:0:0:
251,180,20571,1,0,0:0:0:0:
251,180,20771,1,2,0:0:0:0:
251,180,20971,1,2,0:0:0:0:
251,180,21071,1,2,0:0:0:0:
251,180,21171,1,0,0:0:0:0:
251,180,21371,1,0,0:0:0:0:
251,180,21771,1,2,0:0:0:0:
251,180,21971,1,0,0:0:0:0:
251,180,22171,1,0,0:0:0:0:
251,180,22271,1,0,0:0:0:0:
251,180,22371,1,2,0:0:0:0:
251,180,22571,1,2,0:0:0:0:
251,180,22771,1,0,0:0:0:0:
251,180,23171,1,0,0:0:0:0:
251,180,23371,1,2,0:0:0:0:
251,180,23771,1,0,0:0:0:0:
251,180,23971,1,2,0:0:0:0:
251,180,24171,1,2,0:0:0:0:
251,180,24271,1,2,0:0:0:0:
251,180,24371,1,0,0:0:0:0:
251,180,24571,1,0,0:0:0:0:
251,180,24971,1,2,0:0:0:0:
251,180,25171,1,0,0:0:0:0:
251,180,25371,1,0,0:0:0:0:
251,180,25471,1,0,0:0:0:0:
251,180,25571,1,2,0:0:0:0:
251,180,25771,1,2,0:0:0:0:
251,180,25971,1,4,0:0:0:0:
251,180,26371,1,0,0:0:0:0:
251,180,26571,1,2,0:0:0:0:
251,180,26771,1,0,0:0:0:0:
251,180,26971,1,0,0:0:0:0:
251,180,27171,1,2,0:0:0:0:
251,180,27371,1,2,0:0:0:0:
251,180,27471,1,2,0:0:0:0:
251,180,27571,1,0,0:0:0:0:
251,180,27771,1,0,0:0:0:0:
251,180,27971,1,0,0:0:0:0:
251,180,28171,1,2,0:0:0:0:
251,180,28271,1,0,0:0:0:0:
251,180,28371,1,2,0:0:0:0:
251,180,28571,1,0,0:0:0:0:
251,180,28771,1,2,0:0:0:0:
251,180,29171,1,0,0:0:0:0:
251,180,29371,1,2,0:0:0:0:
251,180,29571,1,2,0:0:0:0:
251,180,29771,1,2,0:0:0:0:
251,180,29971,1,0,0:0:0:0:
251,180,30171,1,0,0:0:0:0:
251,180,30371,1,2,0:0:0:0:
251,180,30571,1,2,0:0:0:0:
251,180,30671,1,2,0:0:0:0:
251,180,30771,1,0,0:0:0:0:
251,180,30971,1,0,0:0:0:0:
251,180,31371,1,2,0:0:0:0:
251,180,31571,1,0,0:0:0:0:
251,180,31771,1,0,0:0:0:0:
251,180,31971,1,2,0:0:0:0:
251,180,32171,1,2,0:0:0:0:
251,180,32271,1,2,0:0:0:0:
251,180,32371,1,0,0:0:0:0:
251,180,32771,1,0,0:0:0:0:
251,180,32971,1,2,0:0:0:0:
251,180,33171,1,0,0:0:0:0:
251,180,33371,1,0,0:0:0:0:
251,180,33571,1,2,0:0:0:0:
251,180,33771,1,2,0:0:0:0:
251,180,33871,1,2,0:0:0:0:
251,180,33971,1,0,0:0:0:0:
251,180,34171,1,0,0:0:0:0:
251,180,34371,1,0,0:0:0:0:
251,180,34571,1,2,0:0:0:0:
251,180,34771,1,0,0:0:0:0:
251,180,34871,1,0,0:0:0:0:
251,180,34971,1,2,0:0:0:0:
251,180,35171,1,2,0:0:0:0:
251,180,35371,1,0,0:0:0:0:
251,180,35571,1,2,0:0:0:0:
251,180,35971,1,0,0:0:0:0:
251,180,36171,1,2,0:0:0:0:
251,180,36371,1,0,0:0:0:0:
251,180,36571,1,2,0:0:0:0:
251,180,36971,1,6,0:0:0:0:
251,180,37371,1,0,0:0:0:0:
251,180,37571,1,2,0:0:0:0:
251,180,37771,1,0,0:0:0:0:
251,180,37871,1,0,0:0:0:0:
251,180,37971,1,2,0:0:0:0:
251,180,38171,1,0,0:0:0:0:
251,180,38371,1,2,0:0:0:0:
251,180,38771,1,0,0:0:0:0:
251,180,38971,1,0,0:0:0:0:
251,180,39171,1,6,0:0:0:0:
251,180,39571,1,6,0:0:0:0:
251,180,39971,1,0,0:0:0:0:
251,180,40171,1,6,0:0:0:0:
251,180,40571,1,2,0:0:0:0:
251,180,40771,1,0,0:0:0:0:
251,180,40971,1,0,0:0:0:0:
251,180,41171,1,2,0:0:0:0:
251,180,41371,1,0,0:0:0:0:
251,180,41471,1,2,0:0:0:0:
251,180,41571,1,2,0:0:0:0:
251,180,41771,1,2,0:0:0:0:
251,180,41971,1,4,0:0:0:0:
251,180,42371,1,2,0:0:0:0:
251,180,42571,1,0,0:0:0:0:
251,180,42671,1,0,0:0:0:0:
251,180,42771,1,2,0:0:0:0:
251,180,42971,1,0,0:0:0:0:
251,180,43171,1,2,0:0:0:0:
251,180,43371,1,2,0:0:0:0:
251,180,43471,1,0,0:0:0:0:
251,180,43571,1,2,0:0:0:0:
251,180,43771,1,0,0:0:0:0:
251,180,43971,1,0,0:0:0:0:
251,180,44171,1,2,0:0:0:0:
251,180,44271,1,2,0:0:0:0:
251,180,44371,1,0,0:0:0:0:
251,180,44571,1,0,0:0:0:0:
251,180,44771,1,2,0:0:0:0:
251,180,44971,1,2,0:0:0:0:
251,180,45171,1,0,0:0:0:0:
251,180,45371,1,0,0:0:0:0:
251,180,45571,1,6,0:0:0:0:
251,180,45971,1,6,0:0:0:0:
251,180,46371,1,0,0:0:0:0:
251,180,46571,1,6,0:0:0:0:
251,180,46971,1,2,0:0:0:0:
251,180,47171,1,0,0:0:0:0:
251,180,47371,1,0,0:0:0:0:
251,180,47571,1,2,0:0:0:0:
251,180,47771,1,2,0:0:0:0:
251,180,47871,1,2,0:0:0:0:
251,180,47971,1,0,0:0:0:0:
251,180,48171,1,6,0:0:0:0:
251,180,48571,1,0,0:0:0:0:
251,180,48771,1,0,0:0:0:0:
251,180,48971,1,6,0:0:0:0:
251,180,49171,1,6,0:0:0:0:
251,180,49571,1,0,0:0:0:0:
251,180,49771,1,0,0:0:0:0:
251,180,49971,1,6,0:0:0:0:
251,180,50371,1,0,0:0:0:0:
251,180,50571,1,6,0:0:0:0:
251,180,50971,1,0,0:0:0:0:
251,180,51171,1,6,0:0:0:0:
251,180,51371,1,0,0:0:0:0:
251,180,51571,1,2,0:0:0:0:
249,174,52971,1,4,0:0:0:0:
249,174,53371,1,2,0:0:0:0:
249,174,53571,1,2,0:0:0:0:
249,174,53771,1,2,0:0:0:0:
249,174,53971,1,0,0:0:0:0:
249,174,54171,1,0,0:0:0:0:
249,174,54371,1,0,0:0:0:0:
249,174,54571,1,0,0:0:0:0:
249,174,54771,1,6,0:0:0:0:
249,174,55171,1,2,0:0:0:0:
249,174,55371,1,0,0:0:0:0:
249,174,55571,1,0,0:0:0:0:
249,174,55671,1,0,0:0:0:0:
249,174,55771,1,2,0:0:0:0:
249,174,55971,1,2,0:0:0:0:
249,174,56171,1,0,0:0:0:0:
249,174,56371,1,2,0:0:0:0:
249,174,56571,1,2,0:0:0:0:
249,174,56671,1,0,0:0:0:0:
249,174,56771,1,2,0:0:0:0:
249,174,56971,1,0,0:0:0:0:
249,174,57171,1,0,0:0:0:0:
249,174,57271,1,0,0:0:0:0:
249,174,57371,1,0,0:0:0:0:
249,174,57571,1,2,0:0:0:0:
249,174,57771,1,0,0:0:0:0:
249,174,57971,1,6,0:0:0:0:
249,174,58371,1,2,0:0:0:0:
249,174,58571,1,0,0:0:0:0:
249,174,58671,1,0,0:0:0:0:
249,174,58771,1,2,0:0:0:0:
249,174,58971,1,2,0:0:0:0:
249,174,59171,1,0,0:0:0:0:
249,174,59371,1,6,0:0:0:0:
249,174,59771,1,0,0:0:0:0:
249,174,59971,1,2,0:0:0:0:
249,174,60171,1,2,0:0:0:0:
249,174,60271,1,2,0:0:0:0:
249,174,60371,1,0,0:0:0:0:
249,174,60571,1,0,0:0:0:0:
249,174,60671,1,0,0:0:0:0:
249,174,60771,1,2,0:0:0:0:
249,174,60971,1,2,0:0:0:0:
249,174,61171,1,4,0:0:0:0:
249,174,61371,1,0,0:0:0:0:
249,174,61571,1,2,0:0:0:0:
249,174,61771,1,4,0:0:0:0:
249,174,62171,1,0,0:0:0:0:
249,174,62371,1,2,0:0:0:0:
249,174,62571,1,4,0:0:0:0:
249,174,62971,1,0,0:0:0:0:
249,174,63171,1,2,0:0:0:0:
249,174,63371,1,0,0:0:0:0:
249,174,63471,1,0,0:0:0:0:
249,174,63571,1,2,0:0:0:0:
249,174,63771,1,2,0:0:0:0:
249,174,63971,1,0,0:0:0:0:
249,174,64071,1,0,0:0:0:0:
249,174,64171,1,0,0:0:0:0:
249,174,64271,1,0,0:0:0:0:
249,174,64371,1,6,0:0:0:0:
249,174,64771,1,2,0:0:0:0:
249,174,64971,1,0,0:0:0:0:
249,174,65071,1,0,0:0:0:0:
249,174,65171,1,0,0:0:0:0:
249,174,65371,1,2,0:0:0:0:
249,174,65571,1,0,0:0:0:0:
249,174,65771,1,6,0:0:0:0:
249,174,66171,1,0,0:0:0:0:
249,174,66371,1,0,0:0:0:0:
249,174,66571,1,6,0:0:0:0:
249,174,66971,1,0,0:0:0:0:
249,174,67171,1,2,0:0:0:0:
249,174,67371,1,2,0:0:0:0:
249,174,67471,1,2,0:0:0:0:
249,174,67571,1,4,0:0:0:0:
249,174,67971,1,0,0:0:0:0:
249,174,68171,1,6,0:0:0:0:
249,174,68571,1,2,0:0:0:0:
249,174,68771,1,0,0:0:0:0:
249,174,68971,1,0,0:0:0:0:
249,174,69071,1,0,0:0:0:0:
249,174,69171,1,6,0:0:0:0:
249,174,69571,1,2,0:0:0:0:
249,174,69771,1,0,0:0:0:0:
249,174,69871,1,0,0:0:0:0:
249,174,69971,1,0,0:0:0:0:
249,174,70171,1,0,0:0:0:0:
249,174,70371,1,2,0:0:0:0:
249,174,70571,1,2,0:0:0:0:
249,174,70671,1,2,0:0:0:0:
249,174,70771,1,4,0:0:0:0:
249,174,71171,1,2,0:0:0:0:
249,174,71371,1,0,0:0:0:0:
249,174,71471,1,2,0:0:0:0:
249,174,71571,1,0,0:0:0:0:
249,174,71771,1,0,0:0:0:0:
249,174,71971,1,2,0:0:0:0:
249,174,72071,1,2,0:0:0:0:
249,174,72171,1,2,0:0:0:0:
249,174,72271,1,2,0:0:0:0:
249,174,72371,1,4,0:0:0:0:
249,174,72571,1,0,0:0:0:0:
249,174,72771,1,2,0:0:0:0:
249,174,72971,1,0,0:0:0:0:
249,174,73371,1,0,0:0:0:0:
249,174,73571,1,2,0:0:0:0:
249,174,73771,1,0,0:0:0:0:
249,174,73971,1,6,0:0:0:0:
249,174,74371,1,0,0:0:0:0:
249,174,74571,1,6,0:0:0:0:
249,174,74971,1,2,0:0:0:0:
249,174,75171,1,0,0:0:0:0:
249,174,75371,1,0,0:0:0:0:
249,174,75571,1,2,0:0:0:0:
257,190,76971,1,4,0:0:0:0:
257,190,77371,1,0,0:0:0:0:
251,180,77571,1,0,0:0:0:0:
251,180,77771,1,2,0:0:0:0:
251,180,78171,1,0,0:0:0:0:
251,180,78371,1,2,0:0:0:0:
251,180,78571,1,2,0:0:0:0:
251,180,78671,1,2,0:0:0:0:
251,180,78771,1,0,0:0:0:0:
251,180,78971,1,0,0:0:0:0:
251,180,79371,1,2,0:0:0:0:
251,180,79571,1,0,0:0:0:0:
251,180,79771,1,0,0:0:0:0:
251,180,79871,1,0,0:0:0:0:
251,180,79971,1,2,0:0:0:0:
251,180,80171,1,2,0:0:0:0:
251,180,80371,1,0,0:0:0:0:
251,180,80771,1,0,0:0:0:0:
251,180,80971,1,2,0:0:0:0:
251,180,81371,1,0,0:0:0:0:
251,180,81571,1,2,0:0:0:0:
251,180,81771,1,2,0:0:0:0:
251,180,81871,1,2,0:0:0:0:
251,180,81971,1,0,0:0:0:0:
251,180,82171,1,0,0:0:0:0:
251,180,82571,1,2,0:0:0:0:
251,180,82771,1,0,0:0:0:0:
251,180,82971,1,0,0:0:0:0:
251,180,83171,1,2,0:0:0:0:
251,180,83371,1,2,0:0:0:0:
251,180,83471,1,2,0:0:0:0:
251,180,83571,1,4,0:0:0:0:
251,180,83971,1,0,0:0:0:0:
251,180,84171,1,2,0:0:0:0:
251,180,84571,1,0,0:0:0:0:
251,180,84771,1,2,0:0:0:0:
251,180,84971,1,2,0:0:0:0:
251,180,85071,1,2,0:0:0:0:
251,180,85171,1,0,0:0:0:0:
251,180,85371,1,0,0:0:0:0:
251,180,85771,1,2,0:0:0:0:
251,180,85971,1,0,0:0:0:0:
251,180,86171,1,0,0:0:0:0:
251,180,86271,1,0,0:0:0:0:
251,180,86371,1,2,0:0:0:0:
251,180,86571,1,2,0:0:0:0:
251,180,86771,1,0,0:0:0:0:
251,180,87171,1,0,0:0:0:0:
251,180,87371,1,2,0:0:0:0:
251,180,87771,1,0,0:0:0:0:
251,180,87971,1,2,0:0:0:0:
251,180,88171,1,2,0:0:0:0:
251,180,88271,1,2,0:0:0:0:
251,180,88371,1,0,0:0:0:0:
251,180,88571,1,4,0:0:0:0:
251,180,88771,1,4,0:0:0:0:
251,180,88971,1,4,0:0:0:0:
