osu file format v14

[General]
AudioFilename: audio.mp3
AudioLeadIn: 0
PreviewTime: 47772
Countdown: 0
SampleSet: Soft
StackLeniency: 0.7
Mode: 0
LetterboxInBreaks: 0
WidescreenStoryboard: 1

[Editor]
DistanceSpacing: 1.1
BeatDivisor: 4
GridSize: 16
TimelineZoom: 1

[Metadata]
Title:Massugu (TV Size)
TitleUnicode:まっすぐ (TV Size)
Artist:Ohara Yuiko
ArtistUnicode:大原ゆい子
Creator:Nao Tomori
Version:Normal
Source:からかい上手の高木さん3
Tags:karakai jouzu takagi-san season three 3 opening japanese anime pop oohara imoutosan fushimi rio j-pop jpop
BeatmapID:3419250
BeatmapSetID:1673798

[Difficulty]
HPDrainRate:3
CircleSize:3
OverallDifficulty:4
ApproachRate:5
SliderMultiplier:0.9
SliderTickRate:1

[Events]
//Background and Video events
Video,0,"takagi_op3.mp4"
0,0,"usable takagi bg.jpg",0,0
//Break Periods
//Storyboard Layer 0 (Background)
//Storyboard Layer 1 (Fail)
//Storyboard Layer 2 (Pass)
//Storyboard Layer 3 (Foreground)
//Storyboard Layer 4 (Overlay)
//Storyboard Sound Samples

[TimingPoints]
649,545.454545454545,4,2,1,43,1,0
649,-120.918984280532,4,2,0,43,0,0
1194,759.493670886074,4,2,1,43,1,0
1573,740.740740740739,4,2,1,43,1,0
2198,370.37037037037,4,2,1,43,1,0
2198,-133.333333333333,4,2,1,43,0,0
3679,387.096774193548,4,2,1,43,1,0
3679,-133.333333333333,4,2,1,43,0,0
5227,382.165605095541,4,2,1,43,1,0
6974,387.096774193548,4,2,1,43,1,0
6974,-133.333333333333,4,2,1,43,0,0
7036,-100,4,2,0,40,0,0
7546,387.096774193548,4,2,1,63,1,0
7546,-100,4,2,1,63,0,0
8900,-133.333333333333,4,2,1,63,0,0
9868,-100,4,2,1,63,0,0
35029,-133.333333333333,4,2,1,43,0,0
40836,-100,4,2,1,63,0,0
49352,-86.9565217391304,4,2,1,73,0,1
74126,-100,4,2,1,63,0,0
80320,-86.9565217391304,4,2,1,73,0,1
83126,-86.9565217391304,4,2,1,63,0,0
83997,387.096774193548,4,2,1,43,1,0
83997,-273.972602739726,4,2,1,43,0,0
84093,-273.972602739726,4,2,0,33,0,0

[Colours]
Combo1 : 170,248,156
Combo2 : 244,157,136
Combo3 : 188,248,244
Combo4 : 186,170,242

[HitObjects]
53,35,649,6,0,P|34:90|62:154,1,126,2|0,0:0|0:0,0:0:0:0:
140,178,2198,2,0,L|280:164,1,135.000005149842,2|2,0:0|0:0,0:0:0:0:
379,48,3679,2,0,B|422:21|422:21|480:40,2,101.250003862381,2|2|2,0:0|0:0|0:0,0:0:0:0:
328,109,5227,5,2,0:0:0:0:
369,176,5609,1,0,0:0:0:0:
337,247,5991,2,2,P|300:268|177:212,1,180,2|0,0:0|0:0,0:0:0:0:
164,184,6974,2,0,L|152:106,1,67.5000025749208,8|4,0:0|0:3,0:0:0:0:
145,73,7546,5,14,2:0:0:0:
145,73,7739,1,10,0:0:0:0:
54,32,8126,2,0,P|31:66|39:132,1,90,10|8,0:0|0:0,0:0:0:0:
57,162,8707,1,0,2:2:0:0:
57,162,8900,2,0,B|80:201|80:201|63:268,1,101.250003862381,14|0,0:0|0:0,0:0:0:0:
3,320,9868,1,14,0:0:0:0:
3,320,10255,1,10,0:0:0:0:
93,359,10642,5,6,3:2:0:0:
93,359,10836,2,0,P|127:357|172:318,1,90,2|2,0:0|0:0,0:0:0:0:
145,226,11610,1,2,0:0:0:0:
179,133,11997,2,0,P|207:113|312:112,1,135,2|8,0:0|0:0,0:0:0:0:
338,144,12771,2,0,P|404:137|463:168,1,135,2|8,0:0|0:0,0:0:0:0:
500,260,13739,6,0,B|524:298|524:298|508:352,1,90,2|8,0:0|0:0,0:0:0:0:
474,374,14320,1,2,0:0:0:0:
387,326,14707,1,2,0:0:0:0:
296,365,15094,2,0,P|249:379|168:330,1,135,2|8,0:0|0:0,0:0:0:0:
155,296,15868,2,0,L|174:154,1,135,2|8,0:0|0:0,0:0:0:0:
133,70,16836,5,2,0:0:0:0:
204,1,17223,1,8,0:0:0:0:
204,1,17416,1,2,0:0:0:0:
274,70,17804,1,2,0:0:0:0:
354,11,18191,2,0,P|382:14|409:108,1,135,2|8,0:0|0:0,0:0:0:0:
381,140,18965,1,2,0:0:0:0:
435,222,19352,2,0,L|480:229,2,45,2|8|2,0:0|0:0|0:0,0:0:0:0:
396,253,19933,6,0,P|358:262|299:284,1,90,2|8,0:0|0:0,0:0:0:0:
269,307,20513,2,0,P|220:287|164:275,2,90,2|0|2,0:0|0:0|0:0,0:0:0:0:
354,354,21675,2,0,P|376:365|408:378,2,45,0|8|2,0:0|0:0|0:0,0:0:0:0:
410,276,22449,1,12,0:0:0:0:
410,276,22642,1,10,0:0:0:0:
365,192,23029,5,4,0:0:0:0:
365,192,23223,2,0,P|358:158|343:92,1,90,2|2,0:0|0:0,0:0:0:0:
384,12,23997,1,2,0:0:0:0:
285,2,24384,2,0,B|232:0|214:41|233:35|217:71|163:83,1,135,2|8,0:0|0:0,0:0:0:0:
136,57,25158,2,0,B|113:27|80:24|80:24|48:56|56:90,1,135,2|8,0:0|0:0,0:0:0:0:
21,178,26126,5,2,0:0:0:0:
98,239,26513,1,10,0:0:0:0:
60,330,26900,1,2,0:0:0:0:
148,374,27287,1,8,0:0:0:0:
148,374,27481,6,0,P|195:345|283:315,2,135,6|8|2,0:0|0:0|0:0,0:0:0:0:
105,348,28836,1,8,0:0:0:0:
40,273,29223,2,0,P|42:223|72:174,1,90,6|8,0:0|0:0,0:0:0:0:
101,161,29804,1,2,0:0:0:0:
101,161,29997,2,0,L|203:180,1,90,2|8,0:0|0:0,0:0:0:0:
264,113,30771,5,2,0:0:0:0:
336,180,31158,1,10,0:0:0:0:
434,167,31545,1,2,0:0:0:0:
477,77,31933,2,0,L|467:30,1,45,8|8,0:0|0:3,0:0:0:0:
423,9,32320,6,0,P|355:4|326:23,1,90,4|8,0:2|0:0,0:0:0:0:
278,92,33094,2,0,P|236:112|176:99,1,90,2|8,0:0|0:0,0:0:0:0:
118,44,33868,1,4,0:0:0:0:
41,106,34255,1,8,0:0:0:0:
41,106,35416,6,0,P|40:131|31:247,1,135.000005149842,2|0,0:0|0:0,0:0:0:0:
153,325,36965,2,0,P|154:300|163:184,1,135.000005149842,2|2,0:0|0:0,0:0:0:0:
162,190,38513,1,2,0:0:0:0:
249,120,39094,2,0,P|306:116|327:123,2,67.5000025749208,2|0|2,0:0|0:0|0:0,0:0:0:0:
223,93,40062,2,0,L|115:73,1,101.250003862381,2|8,0:0|0:3,0:0:0:0:
75,62,40836,1,4,0:3:0:0:
22,186,41610,6,0,P|65:200|115:185,1,90,6|8,0:0|0:0,0:0:0:0:
204,208,42384,2,0,P|247:194|297:209,1,90,2|8,0:0|0:0,0:0:0:0:
360,272,43158,1,6,0:0:0:0:
360,272,43545,1,8,0:0:0:0:
446,223,43933,2,0,L|436:129,1,90,2|8,0:0|0:0,0:0:0:0:
368,61,44707,6,0,B|331:98|331:98|351:181,2,135,4|2|8,0:3|0:0|0:0,0:0:0:0:
458,21,46255,2,0,P|483:72|511:201,1,180,6|8,0:0|0:0,0:0:0:0:
474,214,47223,1,8,0:0:0:0:
474,214,47416,2,0,L|430:238,1,45,8|4,0:3|0:3,0:0:0:0:
400,344,48771,5,4,0:0:0:0:
400,344,48965,1,6,0:0:0:0:
304,281,49352,6,0,P|260:283|195:304,1,103.500001974106,4|8,0:1|0:0,0:0:0:0:
153,272,49933,1,2,0:0:0:0:
45,307,50320,2,0,L|24:368,2,51.7500009870529,2|8|2,0:0|0:0|0:0,0:0:0:0:
25,253,50900,2,0,P|-2:218|15:147,1,103.500001974106,2|8,0:0|0:0,0:0:0:0:
43,120,51481,1,2,0:0:0:0:
43,120,51675,2,0,L|150:140,1,103.500001974106,2|8,0:0|0:0,0:0:0:0:
239,75,52449,6,0,L|237:13,2,51.7500009870529,2|2|8,0:0|0:0|0:0,0:0:0:0:
277,116,53029,2,0,P|315:111|379:149,1,103.500001974106,2|2,0:0|0:0,0:0:0:0:
428,139,53610,1,8,0:0:0:0:
394,247,53997,1,6,0:0:0:0:
471,330,54384,1,10,0:0:0:0:
366,375,54771,2,0,P|313:369|277:319,1,103.500001974106,2|4,0:0|0:3,0:0:0:0:
208,245,55545,5,6,0:0:0:0:
272,150,55933,1,8,0:0:0:0:
272,150,56126,1,2,0:0:0:0:
205,57,56513,2,0,P|160:41|103:52,1,103.500001974106,2|2,0:0|0:0,0:0:0:0:
49,57,57094,2,0,L|60:169,1,103.500001974106,4|8,0:0|0:0,0:0:0:0:
5,260,57868,1,2,0:0:0:0:
84,341,58255,1,8,0:0:0:0:
193,308,58642,6,0,P|235:300|308:313,1,103.500001974106,6|8,0:0|0:0,0:0:0:0:
408,318,59416,2,0,L|463:342,2,51.7500009870529,2|0|8,0:0|0:0|0:0,0:0:0:0:
356,218,60191,2,0,P|398:214|464:184,1,103.500001974106,8|0,0:3|0:0,0:0:0:0:
494,150,60771,1,4,0:3:0:0:
432,54,61158,1,12,0:0:0:0:
432,54,61352,1,12,0:0:0:0:
326,96,61739,6,0,P|278:75|206:83,1,103.500001974106,4|8,0:1|0:0,0:0:0:0:
181,109,62320,2,0,P|161:164|167:222,1,103.500001974106,2|2,0:0|0:0,0:0:0:0:
191,257,62900,1,8,0:0:0:0:
302,233,63287,2,0,L|403:256,1,103.500001974106,4|8,0:3|0:0,0:0:0:0:
403,316,63868,1,2,0:0:0:0:
403,316,64062,2,0,L|288:352,1,103.500001974106,2|8,0:0|0:0,0:0:0:0:
195,314,64836,6,0,L|202:246,1,51.7500009870529,2|0,0:0|0:0,0:0:0:0:
232,215,65223,1,8,0:0:0:0:
232,215,65416,2,0,P|232:148|198:121,1,103.500001974106,2|2,0:0|0:0,0:0:0:0:
151,117,65997,1,8,0:0:0:0:
78,29,66384,5,12,0:0:0:0:
7,118,66771,1,12,0:0:0:0:
66,214,67158,2,0,P|103:226|160:192,1,103.500001974106,12|4,0:0|0:3,0:0:0:0:
265,230,67933,5,6,0:0:0:0:
326,134,68320,1,8,0:0:0:0:
326,134,68513,2,0,P|375:124|423:162,2,103.500001974106,2|2|2,0:0|0:0|0:0,0:0:0:0:
282,97,69481,1,4,0:2:0:0:
207,11,69868,1,8,0:0:0:0:
141,104,70255,2,0,P|133:157|125:214,1,103.500001974106,2|10,0:0|0:0,0:0:0:0:
67,304,71029,6,0,P|115:350|214:340,1,155.250002961159,6|0,0:0|0:0,0:0:0:0:
239,307,71804,2,0,P|291:262|382:271,1,155.250002961159,2|0,0:0|0:0,0:0:0:0:
430,273,72578,2,0,B|453:320|453:320|437:371,2,103.500001974106,6|8|2,0:0|0:0|0:0,0:0:0:0:
376,82,74126,6,0,P|313:124|242:109,2,135,6|0|10,0:2|0:0|0:0,0:0:0:0:
471,54,75675,2,0,L|493:157,1,90,2|10,0:0|0:0,0:0:0:0:
421,213,76449,2,0,L|443:316,1,90,2|10,0:0|0:0,0:0:0:0:
376,377,77223,5,6,0:0:0:0:
300,313,77610,2,0,P|257:308|210:333,1,90,8|0,0:0|0:0,0:0:0:0:
174,355,78191,1,6,0:0:0:0:
80,323,78578,2,0,P|55:238|107:108,1,225,6|0,0:0|0:0,0:0:0:0:
188,62,79933,1,8,0:3:0:0:
188,62,80126,1,4,0:3:0:0:
188,62,80320,6,0,P|206:116|215:169,1,103.500001974106,6|8,0:0|0:0,0:0:0:0:
289,232,81094,2,0,P|269:296|263:343,1,103.500001974106,4|8,0:3|0:0,0:0:0:0:
377,328,81868,2,0,B|394:277|342:221|333:255|284:196|314:129,1,207.000003948212,6|8,0:0|0:0,0:0:0:0:
333,96,82836,1,8,0:0:0:0:
333,96,83029,2,0,L|395:80,1,51.7500009870529,4|0,0:3|0:0,0:0:0:0:
461,211,83997,6,0,P|415:227|311:289,1,164.250004511261,2|0,0:0|0:0,0:0:0:0:
