osu file format v14

[General]
AudioFilename: audio.ogg
AudioLeadIn: 0
PreviewTime: 49108
Countdown: 0
SampleSet: Soft
StackLeniency: 0.7
Mode: 0
LetterboxInBreaks: 0
WidescreenStoryboard: 0

[Editor]
DistanceSpacing: 1
BeatDivisor: 8
GridSize: 32
TimelineZoom: 2.699999

[Metadata]
Title:Keishou no Uta (TV Size)
TitleUnicode:継承の唄 (TV Size)
Artist:Ohara Yuiko
ArtistUnicode:大原ゆい子
Creator:MajK00
Version:Memories
Source:無職転生 ~異世界行ったら本気だす~
Tags:Mushoku Tensei ~Isekai Ittara Honki Dasu~ Jobless Reincarnation: I Will Seriously Try If Go To Another World anime op opening japanese jp folk pop jpop j-pop Roxy Migurdia ロキシー・ミグルディア enuhq
BeatmapID:3834732
BeatmapSetID:1864545

[Difficulty]
HPDrainRate:5.2
CircleSize:4.2
OverallDifficulty:8.6
ApproachRate:9.1
SliderMultiplier:3.34
SliderTickRate:1

[Events]
//Background and Video events
0,0,"roxyyyyyyyyy.jpg",0,0
//Break Periods
//Storyboard Layer 0 (Background)
//Storyboard Layer 1 (Fail)
//Storyboard Layer 2 (Pass)
//Storyboard Layer 3 (Foreground)
//Storyboard Layer 4 (Overlay)
//Storyboard Sound Samples

[TimingPoints]
-987,506.329113924051,3,2,27,60,1,0
342,-212.765957446809,6,2,27,60,0,0
531,-149.253731343284,6,2,27,60,0,0
6607,-129.87012987013,6,2,27,60,0,0
9652,508.474576271186,3,2,27,60,1,0
9652,-129.87012987013,3,2,27,60,0,0
12702,-149.253731343284,6,2,27,50,0,0
15738,508.474576271186,3,2,27,50,1,0
15738,-149.253731343284,3,2,27,50,0,0
18779,506.329113924051,3,2,27,50,1,0
18779,-149.253731343284,6,2,27,50,0,0
19475,-149.253731343284,6,2,27,5,0,0
19538,-149.253731343284,6,2,27,50,0,0
26383,506.329113924051,3,2,27,50,1,0
26383,-149.253731343284,6,2,27,50,0,0
28598,-149.253731343284,6,2,27,5,0,0
28661,-149.253731343284,6,2,27,50,0,0
30966,506.329113924051,3,2,27,50,1,0
30966,-149.253731343284,6,2,27,50,0,0
31662,-149.253731343284,6,2,27,5,0,0
31725,-149.253731343284,6,2,27,50,0,0
33181,-149.253731343284,6,2,27,5,0,0
33244,-149.253731343284,6,2,27,50,0,0
37041,-370.370370370373,6,2,27,40,0,0
43134,508.474576271186,3,2,27,40,1,0
43134,-370.37037037037,6,2,27,40,0,0
47710,-370.37037037037,6,2,27,50,0,0
48472,-212.765957446809,6,2,27,50,0,0
49235,504.201680672269,3,2,27,50,1,0
49235,-103.092783505155,6,2,27,80,0,0
51240,508.474576271186,3,2,27,80,1,0
51240,-103.092783505155,6,2,27,80,0,0
52264,508.474576271186,3,2,27,80,1,0
52264,-103.092783505155,6,2,27,80,0,0
53789,504.201680672269,3,2,27,80,1,0
53789,-103.092783505155,6,2,27,80,0,0
55300,506.329113924051,3,2,27,80,1,0
55300,-103.092783505155,6,2,27,80,0,0
67464,508.474576271186,3,2,27,80,1,0
67464,-103.092783505155,6,2,27,80,0,0
73565,-175.438596491227,6,2,27,65,0,0

[Colours]
Combo1 : 152,241,139
Combo2 : 92,216,252
Combo3 : 253,151,153

[HitObjects]
5,18,342,6,0,L|0:0,2,19.6224997005844,2|2|2,0:0|0:0|0:0,0:0:0:0:
14,31,531,2,0,L|138:60,1,111.889994707352,6|0,1:2|0:0,0:0:0:0:
102,150,911,2,0,L|216:111,1,111.889994707352,0|0,3:0|0:0,0:0:0:0:
360,0,1291,2,0,P|306:9|286:61,2,111.889994707352,8|0|0,3:0|3:0|3:0,0:0:0:0:
483,79,1924,5,8,1:3:0:0:
486,88,1987,1,0,1:0:0:0:
489,97,2050,2,0,L|463:166,1,55.944997353676,2|0,1:2|0:0,0:0:0:0:
460,157,2304,2,0,L|466:101,1,55.944997353676,2|4,0:2|3:0,0:0:0:0:
362,146,2557,6,0,L|374:219,1,55.944997353676,2|0,0:2|0:0,0:0:0:0:
363,225,2810,2,0,L|340:173,1,55.944997353676,2|0,1:2|0:0,0:0:0:0:
284,287,3063,6,0,L|331:344,1,55.944997353676,2|0,0:2|0:0,0:0:0:0:
315,365,3317,2,0,L|270:331,1,55.944997353676,2|0,0:2|0:0,0:0:0:0:
113,292,3569,6,0,P|157:305|166:385,1,111.889994707352,0|0,1:0|0:0,0:0:0:0:
45,327,3949,2,0,P|65:288|74:201,1,111.889994707352,4|0,3:0|0:0,0:0:0:0:
18,160,4329,1,4,1:3:0:0:
18,160,4456,1,8,0:3:0:0:
153,205,4582,2,0,P|146:178|126:159,1,55.944997353676,8|0,1:3|0:0,0:0:0:0:
101,44,4835,2,0,P|81:63|75:90,1,55.944997353676,10|0,1:2|0:0,0:0:0:0:
239,45,5088,6,0,P|292:32|371:10,1,111.889994707352,10|0,1:2|0:0,0:0:0:0:
391,124,5468,1,4,1:3:0:0:
391,124,5595,2,0,P|359:115|329:112,1,55.944997353676,2|0,0:0|0:0,0:0:0:0:
471,70,5848,2,0,P|479:97|492:126,1,55.944997353676,4|0,1:3|3:0,0:0:0:0:
436,202,6101,2,0,P|428:229|415:258,1,55.944997353676,0|0,1:0|0:0,0:0:0:0:
473,327,6354,1,4,0:3:0:0:
473,327,6481,1,8,0:3:0:0:
356,382,6607,6,0,B|276:347|276:347|249:353|230:378,1,128.589997449234,6|0,1:2|0:0,0:0:0:0:
322,257,6987,2,0,P|299:200|239:184,1,128.589997449234,10|0,0:0|0:0,0:0:0:0:
146,257,7367,2,0,P|174:271|206:273,1,64.294998724617,2|0,1:2|0:0,0:0:0:0:
91,172,7620,2,0,P|122:170|151:155,1,64.294998724617,2|0,1:2|0:0,0:0:0:0:
44,81,7873,2,0,P|26:107|0:125,1,64.294998724617,10|0,0:0|0:0,0:0:0:0:
196,0,8126,6,0,B|274:0|243:39|337:45,1,128.589997449234,2|0,1:2|0:0,0:0:0:0:
488,0,8506,2,0,B|459:-20|432:-9|432:-9|427:22|407:67,1,128.589997449234,10|0,0:0|0:0,0:0:0:0:
374,188,8886,2,0,P|360:143|341:122,1,64.294998724617,2|0,1:2|0:0,0:0:0:0:
507,85,9139,2,0,P|489:111|482:143,1,64.294998724617,2|0,1:2|0:0,0:0:0:0:
461,226,9392,1,10,0:0:0:0:
498,384,9519,5,8,0:0:0:0:
505,376,9582,1,4,1:3:0:0:
512,368,9652,2,0,B|491:364|462:373|462:373|436:347|391:342,1,128.589997449234,4|0,1:2|0:0,0:0:0:0:
223,383,10033,2,0,P|270:344|271:281,1,128.589997449234,8|0,0:0|0:0,0:0:0:0:
210,212,10414,1,2,1:2:0:0:
210,212,10541,1,4,0:3:0:0:
333,140,10668,2,0,P|320:172|292:201,1,64.294998724617,2|0,1:2|0:0,0:0:0:0:
207,66,10923,2,0,P|229:92|239:132,1,64.294998724617,2|0,1:2|0:0,0:0:0:0:
77,256,11177,6,0,P|101:184|160:133,1,128.589997449234,2|0,1:2|0:0,0:0:0:0:
0,273,11558,2,0,B|59:268|52:322|128:332,1,128.589997449234,8|0,0:0|0:0,0:0:0:0:
250,368,11940,2,0,P|198:377|170:395,1,64.294998724617,8|0,0:0|0:0,0:0:0:0:
217,270,12194,1,10,0:0:0:0:
298,267,12321,1,8,0:0:0:0:
298,267,12448,1,4,1:3:0:0:
363,309,12575,1,8,0:0:0:0:
488,209,12702,6,0,P|433:202|391:237,1,111.889994707352,6|2,1:2|0:0,0:0:0:0:
286,142,13084,1,8,0:0:0:0:
286,142,13211,2,0,P|310:155|337:161,1,55.944997353676,2|0,0:0|0:0,0:0:0:0:
460,58,13465,2,0,P|431:106|420:160,2,111.889994707352,2|2|2,1:2|1:2|1:2,0:0:0:0:
318,14,14101,5,0,3:0:0:0:
308,7,14164,1,0,3:0:0:0:
298,0,14228,2,0,B|243:2|254:49|178:48,1,111.889994707352,2|0,1:2|0:0,0:0:0:0:
86,16,14609,2,0,P|107:80|125:139,1,111.889994707352,8|0,0:0|0:0,0:0:0:0:
21,228,14990,2,0,P|28:201|46:179,1,55.944997353676,0|0,1:0|0:0,0:0:0:0:
158,271,15245,2,0,P|135:247|105:237,1,55.944997353676,0|0,1:0|0:0,0:0:0:0:
56,318,15499,1,8,0:0:0:0:
56,318,15626,1,8,0:0:0:0:
198,341,15738,6,0,P|206:285|228:234,1,111.889994707352,2|2,1:2|0:0,0:0:0:0:
293,161,16119,1,8,0:0:0:0:
293,161,16246,2,0,P|304:186|322:207,1,55.944997353676,2|0,0:0|0:0,0:0:0:0:
392,330,16500,2,0,P|344:302|289:306,2,111.889994707352,2|2|2,1:2|1:2|1:2,0:0:0:0:
498,262,17136,5,0,3:0:0:0:
488,257,17199,1,0,3:0:0:0:
478,253,17263,2,0,P|498:304|512:358,1,111.889994707352,2|0,1:2|0:0,0:0:0:0:
404,212,17644,2,0,P|442:174|502:172,1,111.889994707352,8|0,0:0|0:0,0:0:0:0:
375,116,18026,2,0,P|399:128|426:135,1,55.944997353676,0|0,1:0|0:0,0:0:0:0:
485,31,18280,2,0,P|460:43|433:50,1,55.944997353676,0|0,1:0|0:0,0:0:0:0:
365,0,18534,1,8,0:0:0:0:
365,0,18661,1,8,0:0:0:0:
291,118,18779,6,0,B|227:119|247:70|165:78,1,111.889994707352,6|2,1:2|0:0,0:0:0:0:
138,0,19158,1,8,0:0:0:0:
138,0,19285,2,0,P|109:25|97:85,1,83.917496030514,2|0,0:0|0:0,0:0:0:0:
104,84,19538,2,0,P|117:108|127:134,1,55.944997353676,2|0,1:2|0:0,0:0:0:0:
0,192,19791,2,0,P|9:165|23:141,1,55.944997353676,2|0,1:2|0:0,0:0:0:0:
90,218,20044,1,10,0:0:0:0:
90,218,20171,1,8,0:0:0:0:
0,291,20297,6,0,P|54:301|104:326,1,111.889994707352,2|2,1:2|0:0,0:0:0:0:
218,241,20677,1,8,0:0:0:0:
218,241,20804,2,0,P|192:252|166:261,1,55.944997353676,2|0,0:0|0:0,0:0:0:0:
271,321,21057,2,0,P|307:277|311:221,2,111.889994707352,2|2|10,1:2|1:2|0:0,0:0:0:0:
177,164,21690,5,0,3:0:0:0:
171,156,21753,1,0,3:0:0:0:
164,149,21816,2,0,B|119:162|119:162|113:177|113:177|51:195,1,111.889994707352,2|2,1:2|0:0,0:0:0:0:
1,96,22196,1,8,0:0:0:0:
1,96,22323,2,0,L|63:108,1,55.944997353676,2|0,0:0|0:0,0:0:0:0:
206,12,22576,2,0,P|153:27|130:76,2,111.889994707352,2|2|10,1:2|1:2|0:0,0:0:0:0:
271,141,23209,5,0,3:0:0:0:
277,150,23272,1,0,3:0:0:0:
283,159,23335,2,0,P|256:208|238:260,1,111.889994707352,2|0,1:2|0:0,0:0:0:0:
120,319,23715,2,0,B|171:315|165:365|234:361,1,111.889994707352,8|0,0:0|0:0,0:0:0:0:
314,316,24095,2,0,P|338:303|365:304,1,55.944997353676,0|0,1:0|0:0,0:0:0:0:
435,335,24348,1,8,0:0:0:0:
503,299,24475,1,8,0:0:0:0:
507,223,24601,1,8,0:0:0:0:
377,191,24728,5,8,3:0:0:0:
372,199,24791,1,0,3:0:0:0:
367,207,24854,2,0,P|310:220|248:248,1,111.889994707352,6|2,1:2|0:0,0:0:0:0:
167,309,25234,1,8,0:0:0:0:
167,309,25361,2,0,P|141:295|110:290,1,55.944997353676,2|0,0:0|0:0,0:0:0:0:
136,123,25614,2,0,P|163:171|184:223,2,111.889994707352,2|2|10,1:2|1:2|0:0,0:0:0:0:
11,9,26247,5,0,3:0:0:0:
16,17,26310,1,0,3:0:0:0:
21,25,26383,2,0,B|100:48|100:48|134:17,1,111.889994707352,2|0,1:2|0:0,0:0:0:0:
248,45,26762,1,8,0:0:0:0:
248,45,26889,2,0,L|193:58,1,55.944997353676,2|0,0:0|0:0,0:0:0:0:
54,130,27142,2,0,L|0:115,1,55.944997353676,2|0,1:2|0:0,0:0:0:0:
136,123,27395,2,0,P|160:151|162:190,1,55.944997353676,2|0,1:2|0:0,0:0:0:0:
114,248,27648,1,10,0:0:0:0:
114,248,27775,1,8,0:0:0:0:
252,193,27901,6,0,P|301:218|356:227,1,111.889994707352,2|2,1:2|0:0,0:0:0:0:
391,315,28281,1,8,0:0:0:0:
391,315,28408,2,0,P|432:283|449:239,1,83.917496030514,2|0,0:0|0:0,0:0:0:0:
448,243,28661,2,0,P|434:218|429:191,1,55.944997353676,2|0,1:2|0:0,0:0:0:0:
490,125,28914,2,0,P|503:100|508:73,1,55.944997353676,2|0,1:2|0:0,0:0:0:0:
430,0,29167,1,10,0:0:0:0:
318,100,29294,5,0,3:0:0:0:
313,108,29357,1,0,3:0:0:0:
310,117,29420,2,0,P|361:96|416:81,1,111.889994707352,2|0,1:2|0:0,0:0:0:0:
272,33,29800,2,0,P|229:66|218:120,1,111.889994707352,8|0,0:0|0:0,0:0:0:0:
273,197,30180,2,0,P|299:206|319:226,1,55.944997353676,8|0,0:0|0:0,0:0:0:0:
177,205,30433,2,0,P|157:224|131:234,1,55.944997353676,4|0,1:3|0:0,0:0:0:0:
110,143,30686,1,0,1:0:0:0:
110,143,30813,1,8,0:0:0:0:
61,267,30966,6,0,P|115:279|163:307,1,111.889994707352,6|2,1:2|0:0,0:0:0:0:
224,383,31345,1,8,0:0:0:0:
224,383,31472,2,0,P|261:364|302:359,1,83.917496030514,2|0,0:0|0:0,0:0:0:0:
318,366,31725,2,0,P|349:381|380:385,1,55.944997353676,2|0,1:2|0:0,0:0:0:0:
444,285,31978,2,0,P|416:290|392:303,1,55.944997353676,2|0,1:2|0:0,0:0:0:0:
329,235,32231,1,10,0:0:0:0:
329,235,32358,1,8,0:0:0:0:
458,201,32484,6,0,P|474:149|503:82,1,111.889994707352,2|2,1:2|0:0,0:0:0:0:
510,1,32864,1,8,0:0:0:0:
510,1,32991,2,0,P|474:15|426:22,1,83.917496030514,2|0,0:0|0:0,0:0:0:0:
420,30,33244,2,0,P|404:57|399:88,1,55.944997353676,0|0,1:0|0:0,0:0:0:0:
315,139,33497,2,0,P|308:111|294:88,1,55.944997353676,2|0,1:2|0:0,0:0:0:0:
214,42,33750,1,10,0:0:0:0:
214,42,33877,1,8,0:0:0:0:
245,171,34003,6,0,P|310:189|353:209,1,111.889994707352,2|0,1:2|0:0,0:0:0:0:
494,205,34383,2,0,P|454:215|426:279,1,111.889994707352,8|0,0:0|0:0,0:0:0:0:
512,342,34763,2,0,P|484:348|459:360,1,55.944997353676,2|0,1:2|0:0,0:0:0:0:
362,335,35016,2,0,P|334:328|309:316,1,55.944997353676,0|0,1:0|0:0,0:0:0:0:
236,383,35269,1,8,0:0:0:0:
180,252,35396,5,0,3:0:0:0:
187,258,35459,1,0,3:0:0:0:
195,264,35522,2,0,B|246:271|245:220|311:233,1,111.889994707352,2|0,1:2|0:0,0:0:0:0:
233,67,35902,2,0,P|217:120|196:172,1,111.889994707352,8|0,0:0|3:0,0:0:0:0:
0,171,36282,5,10,0:0:0:0:
101,75,36535,5,8,1:3:0:0:
225,58,36788,5,4,1:3:0:0:
293,129,37041,6,0,P|419:154|519:180,1,225.450005504151,6|0,1:2|0:0,0:0:0:0:
321,18,38560,2,0,P|215:43|173:143,1,225.450005504151,2|0,1:2|0:0,0:0:0:0:
43,255,40079,6,0,P|117:178|219:209,1,225.450005504151,2|0,1:2|0:0,0:0:0:0:
352,355,41598,2,0,P|251:309|136:281,1,225.450005504151,2|0,1:2|0:0,0:0:0:0:
247,18,43134,6,0,P|275:126|315:232,1,225.450005504151,6|0,1:2|0:0,0:0:0:0:
512,272,44659,2,0,P|401:278|372:379,1,225.450005504151,2|0,1:2|0:0,0:0:0:0:
216,232,46184,6,0,P|105:210|0:172,1,225.450005504151,2|0,1:2|0:0,0:0:0:0:
0,356,47710,6,0,P|34:327|103:321,1,112.725002752075,2|0,1:2|0:0,0:0:0:0:
156,237,48472,1,4,1:3:0:0:
136,82,48727,1,2,3:2:0:0:
0,171,48981,1,8,0:0:0:0:
185,310,49108,5,0,3:0:0:0:
195,316,49172,1,0,3:0:0:0:
203,320,49235,2,0,B|276:331|279:252|361:267,1,161.990003831246,6|0,1:2|0:0,0:0:0:0:
435,202,49613,1,8,0:0:0:0:
409,384,49739,2,0,P|369:376|341:348,1,80.9950019156228,2|0,1:2|0:0,0:0:0:0:
493,273,49991,2,0,L|521:356,1,80.9950019156228,8|0,0:0|0:0,0:0:0:0:
339,182,50243,2,0,L|367:99,1,80.9950019156228,2|0,1:2|0:0,0:0:0:0:
512,25,50495,1,8,0:0:0:0:
456,108,50621,1,8,0:0:0:0:
299,40,50747,6,0,B|193:8|193:8|149:46,1,161.990003831246,2|0,1:2|0:0,0:0:0:0:
108,139,51125,1,8,0:0:0:0:
239,180,51240,2,0,L|214:102,1,80.9950019156228,2|0,1:2|0:0,0:0:0:0:
163,251,51494,1,8,0:0:0:0:
276,253,51621,1,0,3:0:0:0:
288,255,51684,1,0,3:0:0:0:
300,257,51748,2,0,P|336:233|393:242,1,80.9950019156228,2|0,1:2|0:0,0:0:0:0:
284,372,52002,2,0,P|251:349|211:347,1,80.9950019156228,8|0,0:0|0:0,0:0:0:0:
0,358,52264,5,2,1:2:0:0:
45,272,52391,2,0,B|66:245|132:246|146:288|146:288|121:322|135:358,1,161.990003831246,8|8,0:0|0:0,0:0:0:0:
25,182,52772,2,0,P|13:105|-13:23,1,161.990003831246,2|8,1:2|0:0,0:0:0:0:
92,0,53153,1,8,3:0:0:0:
110,122,53280,2,0,P|70:115|39:86,1,80.9950019156228,2|0,1:2|0:0,0:0:0:0:
193,43,53535,1,10,0:0:0:0:
197,172,53662,5,0,3:0:0:0:
190,182,53725,1,0,3:0:0:0:
184,193,53789,2,0,P|241:172|346:144,1,161.990003831246,2|0,1:2|0:0,0:0:0:0:
512,194,54167,1,8,0:0:0:0:
467,115,54293,2,0,P|435:144|429:189,1,80.9950019156228,2|0,1:2|0:0,0:0:0:0:
505,339,54545,2,0,P|495:296|459:269,1,80.9950019156228,8|0,0:0|0:0,0:0:0:0:
323,286,54797,1,2,1:2:0:0:
323,286,54923,1,4,1:3:0:0:
419,364,55049,1,10,0:0:0:0:
462,263,55175,1,8,0:0:0:0:
268,364,55300,6,0,B|223:362|205:326|205:326|237:245,1,161.990003831246,6|0,1:2|0:0,0:0:0:0:
307,73,55679,1,8,0:0:0:0:
406,163,55806,2,0,L|323:188,1,80.9950019156228,2|0,1:2|0:0,0:0:0:0:
215,56,56059,2,0,L|298:81,1,80.9950019156228,8|0,0:0|0:0,0:0:0:0:
194,162,56312,1,2,1:2:0:0:
135,89,56439,1,0,3:0:0:0:
130,79,56502,1,0,3:0:0:0:
125,69,56565,2,0,P|126:29|147:-4,1,80.9950019156228,8|8,0:0|3:0,0:0:0:0:
42,220,56818,5,2,1:2:0:0:
0,143,56945,2,0,B|81:153|53:211|142:223,1,161.990003831246,8|8,0:0|0:0,0:0:0:0:
30,374,57325,2,0,P|3:344|0:302,1,80.9950019156228,2|0,1:2|0:0,0:0:0:0:
168,333,57578,2,0,P|134:317|91:310,1,80.9950019156228,8|0,0:0|0:0,0:0:0:0:
243,384,57831,2,0,P|277:368|319:361,1,80.9950019156228,0|0,1:0|0:0,0:0:0:0:
364,245,58084,1,8,0:0:0:0:
502,361,58211,5,0,3:0:0:0:
508,372,58274,1,0,3:0:0:0:
511,384,58337,2,0,P|445:345|452:268,1,161.990003831246,2|0,1:2|0:0,0:0:0:0:
512,116,58717,1,8,0:0:0:0:
399,103,58844,2,0,P|420:143|432:187,1,80.9950019156228,0|0,1:0|0:0,0:0:0:0:
288,84,59097,2,0,P|300:45|319:9,1,80.9950019156228,8|0,0:0|0:0,0:0:0:0:
335,164,59350,1,2,1:2:0:0:
335,164,59477,1,0,3:0:0:0:
205,83,59603,2,0,P|165:87|135:114,1,80.9950019156228,10|0,0:0|0:0,0:0:0:0:
155,251,59856,5,2,1:2:0:0:
201,163,59983,1,8,0:0:0:0:
73,195,60110,1,4,1:3:0:0:
83,312,60236,1,8,0:0:0:0:
90,322,60299,1,8,3:0:0:0:
97,332,60363,2,0,P|136:339|174:354,1,80.9950019156228,0|0,1:0|0:0,0:0:0:0:
319,260,60616,2,0,P|279:267|241:282,1,80.9950019156228,8|0,0:0|0:0,0:0:0:0:
348,369,60869,5,8,0:0:0:0:
433,238,60996,1,8,0:0:0:0:
510,384,61122,1,8,0:0:0:0:
433,331,61249,1,8,1:3:0:0:
512,187,61375,6,0,B|480:214|480:214|427:188|366:176,1,161.990003831246,6|0,1:2|0:0,0:0:0:0:
404,13,61755,1,8,0:0:0:0:
512,84,61882,2,0,P|471:89|433:101,1,80.9950019156228,2|0,1:2|0:0,0:0:0:0:
276,21,62135,2,0,P|312:37|331:72,1,80.9950019156228,8|0,0:0|0:0,0:0:0:0:
286,206,62388,1,2,1:2:0:0:
183,147,62515,1,0,3:0:0:0:
178,136,62578,1,0,3:0:0:0:
177,124,62641,2,0,P|208:100|248:101,1,80.9950019156228,8|0,0:0|3:0,0:0:0:0:
66,7,62894,5,2,1:2:0:0:
147,42,63021,2,0,B|126:15|60:16|46:58|46:58|71:92|57:128,1,161.990003831246,8|8,0:0|0:0,0:0:0:0:
0,249,63401,2,0,P|55:191|131:207,1,161.990003831246,2|8,1:2|0:0,0:0:0:0:
175,313,63781,1,8,3:0:0:0:
58,355,63907,2,0,P|72:317|83:278,1,80.9950019156228,2|0,1:2|0:0,0:0:0:0:
229,208,64160,2,0,P|214:170|203:131,1,80.9950019156228,8|0,0:0|0:0,0:0:0:0:
169,323,64413,5,2,1:2:0:0:
284,384,64540,2,0,B|368:400|361:324|448:341,1,161.990003831246,8|8,0:0|0:0,0:0:0:0:
331,220,64920,2,0,L|307:297,1,80.9950019156228,2|0,1:2|0:0,0:0:0:0:
486,205,65173,2,0,L|462:127,1,80.9950019156228,8|0,0:0|3:0,0:0:0:0:
314,43,65426,2,0,P|327:82|365:108,1,80.9950019156228,2|0,1:2|0:0,0:0:0:0:
402,24,65679,1,10,0:0:0:0:
262,131,65806,5,0,3:0:0:0:
254,140,65869,1,0,3:0:0:0:
246,149,65932,2,0,B|147:118|147:118|98:161,1,161.990003831246,2|0,1:2|0:0,0:0:0:0:
0,82,66312,1,8,0:0:0:0:
118,12,66439,2,0,L|140:89,1,80.9950019156228,2|0,1:2|0:0,0:0:0:0:
21,182,66692,2,0,L|0:260,1,80.9950019156228,8|0,0:0|0:0,0:0:0:0:
60,372,66945,1,8,1:3:0:0:
60,372,67072,1,4,1:3:0:0:
156,311,67198,1,10,0:0:0:0:
111,236,67325,1,8,0:0:0:0:
206,384,67464,6,0,B|271:366|271:366|286:337|286:337|356:319,1,161.990003831246,6|0,1:2|0:0,0:0:0:0:
364,194,67845,1,8,0:0:0:0:
250,183,67972,2,0,L|229:261,1,80.9950019156228,0|0,1:0|0:0,0:0:0:0:
371,184,68226,2,0,L|350:105,1,80.9950019156228,8|0,0:0|3:0,0:0:0:0:
213,28,68480,2,0,P|229:71|255:93,1,80.9950019156228,2|0,1:2|0:0,0:0:0:0:
331,0,68735,1,10,0:0:0:0:
331,0,68862,1,8,0:0:0:0:
507,66,68989,5,2,1:2:0:0:
453,0,69116,2,0,P|426:27|418:78,1,80.9950019156228,8|0,0:0|0:0,0:0:0:0:
473,228,69370,1,8,0:0:0:0:
332,205,69497,2,0,B|414:203|394:148|477:143,1,161.990003831246,0|10,1:0|0:0,0:0:0:0:
347,121,69879,1,0,3:0:0:0:
338,115,69942,1,0,3:0:0:0:
329,109,70006,2,0,P|287:115|252:148,1,80.9950019156228,2|0,1:2|0:0,0:0:0:0:
329,306,70260,2,0,P|368:300|400:276,1,80.9950019156228,10|0,0:0|0:0,0:0:0:0:
191,197,70514,5,2,1:2:0:0:
225,322,70641,2,0,P|245:270|262:240,1,80.9950019156228,8|0,0:0|0:0,0:0:0:0:
146,120,70896,1,8,0:0:0:0:
112,245,71023,2,0,P|92:193|75:163,1,80.9950019156228,0|0,1:0|0:0,0:0:0:0:
143,23,71277,2,0,B|213:17|205:96|291:88,1,161.990003831246,10|0,0:0|1:0,0:0:0:0:
409,60,71658,1,8,3:0:0:0:
392,208,71786,2,0,P|371:173|362:132,1,80.9950019156228,8|8,0:0|3:0,0:0:0:0:
475,254,72040,5,2,1:2:0:0:
402,318,72167,2,0,P|370:296|330:291,1,80.9950019156228,8|0,0:0|0:0,0:0:0:0:
184,377,72421,1,8,0:0:0:0:
272,384,72548,2,0,L|236:280,1,80.9950019156228,0|0,1:0|0:0,0:0:0:0:
168,173,72802,2,0,L|132:277,1,80.9950019156228,10|0,0:0|0:0,0:0:0:0:
262,188,73057,5,8,1:3:0:0:
203,77,73184,1,4,1:3:0:0:
93,34,73311,5,8,0:0:0:0:
163,167,73438,1,8,0:0:0:0:
305,45,73565,6,0,P|376:36|443:13,1,142.784998257019,6|0,1:2|0:0,0:0:0:0:
507,98,74074,5,2,0:0:0:0:
512,87,74328,1,2,0:0:0:0:
431,137,74582,1,2,0:0:0:0:
436,148,74836,1,2,0:0:0:0:
512,306,75091,6,0,P|472:249|400:239,1,142.784998257019,2|0,1:2|0:0,0:0:0:0:
410,330,75599,5,2,0:0:0:0:
421,325,75853,1,2,0:0:0:0:
316,280,76108,1,2,0:0:0:0:
327,285,76362,1,2,0:0:0:0:
246,384,76616,6,0,P|233:314|199:251,1,142.784998257019,2|0,1:2|0:0,0:0:0:0:
131,202,77125,5,2,0:0:0:0:
131,202,77252,2,0,P|123:217|118:233,2,23.7974997095032,2|2|2,0:0|0:0|0:0,0:0:0:0:
34,154,77633,1,2,0:0:0:0:
39,165,77887,1,2,0:0:0:0:
181,91,78141,6,0,P|158:23|76:4,2,142.784998257019,2|0|0,1:2|3:0|3:0,0:0:0:0:
117,303,79158,6,0,P|181:287|270:276,1,142.784998257019,2|0,1:2|0:0,0:0:0:0:
409,174,79667,5,6,1:2:0:0:
256,192,79730,12,0,85260,3:0:0:0:
