osu file format v14

[General]
AudioFilename: audio.ogg
AudioLeadIn: 0
PreviewTime: 49108
Countdown: 0
SampleSet: Soft
StackLeniency: 0.7
Mode: 0
LetterboxInBreaks: 0
WidescreenStoryboard: 1

[Editor]
DistanceSpacing: 1
BeatDivisor: 8
GridSize: 16
TimelineZoom: 3.499999

[Metadata]
Title:Keishou no Uta (TV Size)
TitleUnicode:継承の唄 (TV Size)
Artist:Ohara Yuiko
ArtistUnicode:大原ゆい子
Creator:MajK00
Version:Enu's Insane
Source:無職転生 ~異世界行ったら本気だす~
Tags:Mushoku Tensei ~Isekai Ittara Honki Dasu~ Jobless Reincarnation: I Will Seriously Try If Go To Another World anime op opening japanese jp folk pop jpop j-pop Roxy Migurdia ロキシー・ミグルディア enuhq
BeatmapID:3834731
BeatmapSetID:1864545

[Difficulty]
HPDrainRate:4.5
CircleSize:3.8
OverallDifficulty:8.2
ApproachRate:8.8
SliderMultiplier:3.14
SliderTickRate:1

[Events]
//Background and Video events
0,0,"roxyyyyyyyyy.jpg",0,0
//Break Periods
//Storyboard Layer 0 (Background)
//Storyboard Layer 1 (Fail)
//Storyboard Layer 2 (Pass)
//Storyboard Layer 3 (Foreground)
//Storyboard Layer 4 (Overlay)
//Storyboard Sound Samples

[TimingPoints]
-987,506.329113924051,3,2,27,60,1,0
342,-212.765957446809,6,2,27,60,0,0
531,-263.157894736842,6,2,27,60,0,0
2050,-172.413793103448,6,2,27,60,0,0
6607,-129.87012987013,6,2,27,60,0,0
9652,508.474576271186,3,2,27,60,1,0
9652,-129.87012987013,6,2,27,60,0,0
12702,-149.253731343284,6,2,27,50,0,0
15738,508.474576271186,3,2,27,50,1,0
15738,-149.253731343284,6,2,27,50,0,0
18779,506.329113924051,3,2,27,50,1,0
18779,-149.253731343284,6,2,27,50,0,0
26383,506.329113924051,3,2,27,50,1,0
26383,-149.253731343284,6,2,27,50,0,0
30966,506.329113924051,3,2,27,50,1,0
30966,-149.253731343284,6,2,27,50,0,0
37041,-434.782608695652,6,2,27,40,0,0
40079,-270.27027027027,6,2,27,40,0,0
41598,-434.782608695652,6,2,27,40,0,0
43134,508.474576271186,3,2,27,40,1,0
43134,-434.782608695652,6,2,27,40,0,0
47710,-227.272727272727,6,2,27,50,0,0
49235,504.201680672269,3,2,27,50,1,0
49235,-103.092783505155,6,2,27,80,0,0
51240,508.474576271186,3,2,27,80,1,0
51240,-103.092783505155,6,2,27,80,0,0
52264,508.474576271186,3,2,27,80,1,0
52264,-103.092783505155,6,2,27,80,0,0
53789,504.201680672269,3,2,27,80,1,0
53789,-103.092783505155,6,2,27,80,0,0
55300,506.329113924051,3,2,27,80,1,0
55300,-103.092783505155,6,2,27,80,0,0
67464,508.474576271186,3,2,27,80,1,0
67464,-103.092783505155,6,2,27,80,0,0
73565,-175.438596491227,6,2,27,65,0,0

[Colours]
Combo1 : 152,241,139
Combo2 : 92,216,252
Combo3 : 253,151,153

[HitObjects]
55,253,342,6,0,L|49:235,2,18.4474997185135,2|2|2,0:0|0:0|0:0,0:0:0:0:
66,282,531,2,0,P|105:334|349:349,1,328.129995994507,6|0,1:2|0:0,0:0:0:0:
428,313,2050,6,0,L|471:328,1,45.5300013894654,2|0,1:2|0:0,0:0:0:0:
428,293,2304,2,0,L|471:308,1,45.5300013894654,2|4,0:2|3:0,0:0:0:0:
348,218,2557,6,0,L|333:262,1,45.5300013894654,2|0,0:2|0:0,0:0:0:0:
368,218,2810,2,0,L|353:262,1,45.5300013894654,2|0,1:2|0:0,0:0:0:0:
472,164,3063,6,0,L|486:208,1,45.5300013894654,2|0,0:2|0:0,0:0:0:0:
452,164,3316,2,0,L|466:208,1,45.5300013894654,2|0,0:2|0:0,0:0:0:0:
364,119,3569,6,0,P|297:111|253:61,1,136.590004168396,0|4,1:0|3:0,0:0:0:0:
88,162,4329,1,4,1:3:0:0:
88,162,4456,1,8,0:3:0:0:
135,89,4582,2,0,L|116:32,1,45.5300013894654,8|0,1:3|0:0,0:0:0:0:
33,259,4835,2,0,L|18:215,1,45.5300013894654,10|0,1:2|0:0,0:0:0:0:
96,309,5088,6,0,P|66:340|19:346,1,91.0600027789307,10|0,1:2|0:0,0:0:0:0:
141,227,5468,1,4,1:3:0:0:
198,331,5595,2,0,L|214:277,1,45.5300013894654,2|0,0:0|0:0,0:0:0:0:
238,205,5848,2,0,L|250:161,1,45.5300013894654,4|0,1:3|3:0,0:0:0:0:
368,45,6101,1,0,1:0:0:0:
347,85,6228,1,0,0:0:0:0:
389,153,6354,2,0,P|411:149|431:139,1,45.5300013894654,4|8,0:3|0:3,0:0:0:0:
270,29,6607,6,0,P|210:37|159:69,1,120.889997601975,6|0,1:2|0:0,0:0:0:0:
69,1,6987,2,0,B|47:35|35:72|35:72|68:125,1,120.889997601975,10|0,0:0|0:0,0:0:0:0:
118,219,7367,2,0,P|127:190|140:163,1,60.4449988009873,2|0,1:2|0:0,0:0:0:0:
0,254,7620,2,0,P|9:225|22:198,1,60.4449988009873,2|0,1:2|0:0,0:0:0:0:
80,304,7873,1,10,0:0:0:0:
198,384,8126,6,0,P|257:382|302:343,1,120.889997601975,2|0,1:2|0:0,0:0:0:0:
285,245,8506,2,0,B|321:259|357:264|357:264|389:306,1,120.889997601975,10|0,0:0|0:0,0:0:0:0:
439,375,8886,1,2,1:2:0:0:
352,175,9139,1,2,1:2:0:0:
477,239,9392,1,10,0:0:0:0:
436,149,9519,1,8,0:0:0:0:
377,75,9652,6,0,P|319:92|263:114,1,120.889997601975,4|0,1:2|0:0,0:0:0:0:
436,149,10033,2,0,B|455:109|471:78|471:78|441:16,1,120.889997601975,8|0,0:0|0:0,0:0:0:0:
477,239,10414,1,2,1:2:0:0:
352,175,10668,1,2,1:2:0:0:
457,384,10923,1,2,1:2:0:0:
287,384,11177,6,0,P|303:327|352:293,1,120.889997601975,2|0,1:2|0:0,0:0:0:0:
277,305,11558,2,0,B|247:237|247:237|273:174,1,120.889997601975,8|0,0:0|0:0,0:0:0:0:
308,124,11940,1,8,0:0:0:0:
113,282,12194,2,0,P|139:297|168:305,1,60.4449988009873,10|8,0:0|0:0,0:0:0:0:
0,384,12448,2,0,P|29:376|55:362,1,60.4449988009873,4|8,1:3|0:0,0:0:0:0:
41,187,12702,6,0,P|5:228|26:283,2,105.189995024277,6|2|2,1:2|0:0|0:0,0:0:0:0:
214,93,13465,2,0,L|193:155,1,52.5949975121385,2|0,1:2|0:0,0:0:0:0:
132,71,13719,2,0,L|111:133,1,52.5949975121385,2|0,1:2|0:0,0:0:0:0:
191,6,13974,1,2,1:2:0:0:
288,145,14228,6,0,B|337:133|401:111|401:111|450:141,2,157.784992536415,2|8|0,1:2|0:0|1:0,0:0:0:0:
424,327,15245,2,0,P|439:302|443:278,1,52.5949975121385,0|0,1:0|0:0,0:0:0:0:
391,215,15499,1,8,0:0:0:0:
391,215,15626,1,8,0:0:0:0:
246,325,15738,6,0,P|295:306|345:290,2,105.189995024277,2|2|2,1:2|0:0|0:0,0:0:0:0:
79,384,16500,2,0,P|93:360|98:335,1,52.5949975121385,2|0,1:2|0:0,0:0:0:0:
19,292,16754,2,0,P|4:268|0:243,1,52.5949975121385,2|0,1:2|0:0,0:0:0:0:
67,185,17009,2,0,P|81:161|86:136,1,52.5949975121385,2|0,1:2|3:0,0:0:0:0:
12,74,17199,5,0,3:0:0:0:
22,82,17263,2,0,P|89:99|166:45,1,157.784992536415,2|8,1:2|0:0,0:0:0:0:
226,10,17771,2,0,L|288:31,1,52.5949975121385
356,52,18026,1,0,1:0:0:0:
273,275,18280,1,0,1:0:0:0:
292,111,18534,1,8,0:0:0:0:
393,139,18661,1,8,0:0:0:0:
292,111,18779,6,0,L|327:216,2,105.189995024277,6|2|2,1:2|0:0|0:0,0:0:0:0:
180,12,19538,2,0,L|118:33,1,52.5949975121385,2|0,1:2|0:0,0:0:0:0:
51,54,19791,2,0,L|-11:75,1,52.5949975121385,2|0,1:2|0:0,0:0:0:0:
111,115,20044,1,10,0:0:0:0:
111,115,20171,1,8,0:0:0:0:
62,247,20297,6,0,P|28:208|30:156,1,105.189995024277,2|2,1:2|0:0,0:0:0:0:
149,201,20677,1,8,0:0:0:0:
149,201,20804,2,0,L|211:180,1,52.5949975121385,2|0,0:0|0:0,0:0:0:0:
133,384,21057,2,0,B|153:326|153:326|133:278,2,105.189995024277,2|2|10,1:2|1:2|0:0,0:0:0:0:
46,339,21816,5,2,1:2:0:0:
149,201,22070,1,2,0:0:0:0:
0,55,22323,1,2,0:0:0:0:
47,154,22576,1,2,1:2:0:0:
157,18,22829,1,2,1:2:0:0:
232,90,23082,1,10,0:0:0:0:
381,0,23335,6,0,P|400:48|415:99,1,105.189995024277,2|0,1:2|0:0,0:0:0:0:
512,89,23715,2,0,P|493:137|478:188,1,105.189995024277,8|0,0:0|0:0,0:0:0:0:
398,238,24095,1,0,1:0:0:0:
491,382,24348,2,0,L|441:365,1,52.5949975121385,8|8,0:0|0:0,0:0:0:0:
356,325,24601,2,0,L|294:346,1,52.5949975121385,8|8,0:0|3:0,0:0:0:0:
195,284,24854,6,0,L|235:397,2,105.189995024277,6|2|2,1:2|0:0|0:0,0:0:0:0:
23,384,25614,2,0,L|5:334,1,52.5949975121385,2|0,1:2|0:0,0:0:0:0:
52,258,25867,1,2,1:2:0:0:
52,258,25994,1,0,3:0:0:0:
105,183,26120,2,0,L|87:133,1,52.5949975121385,10|0,0:0|3:0,0:0:0:0:
0,96,26383,6,0,P|51:42|128:53,1,157.784992536415,2|8,1:2|0:0,0:0:0:0:
194,4,26889,1,2,0:0:0:0:
270,121,27142,1,2,1:2:0:0:
366,243,27395,2,0,L|316:261,1,52.5949975121385,2|0,1:2|0:0,0:0:0:0:
416,178,27648,2,0,L|466:196,1,52.5949975121385,10|8,0:0|0:0,0:0:0:0:
323,64,27901,6,0,P|315:115|337:162,2,105.189995024277,2|2|2,1:2|0:0|0:0,0:0:0:0:
389,7,28661,1,2,1:2:0:0:
235,145,28914,1,2,1:2:0:0:
79,29,29167,1,10,0:0:0:0:
79,29,29294,1,0,3:0:0:0:
27,102,29420,6,0,P|43:146|61:201,1,105.189995024277,2|0,1:2|0:0,0:0:0:0:
34,286,29800,2,0,P|85:285|128:256,1,105.189995024277,8|0,0:0|0:0,0:0:0:0:
159,341,30180,2,0,L|209:359,1,52.5949975121385,8|0,0:0|0:0,0:0:0:0:
346,246,30433,2,0,L|396:264,1,52.5949975121385,4|0,1:3|0:0,0:0:0:0:
309,336,30686,1,0,1:0:0:0:
274,303,30813,1,8,0:0:0:0:
239,266,30966,6,0,L|274:167,1,105.189995024277,6|2,1:2|0:0,0:0:0:0:
170,200,31345,1,8,0:0:0:0:
170,200,31472,2,0,L|145:130,1,52.5949975121385,2|0,0:0|0:0,0:0:0:0:
126,67,31725,1,2,1:2:0:0:
6,237,31978,1,2,1:2:0:0:
41,82,32231,2,0,L|58:131,1,52.5949975121385,10|8,0:0|0:0,0:0:0:0:
126,67,32484,6,0,L|225:32,1,105.189995024277,2|2,1:2|0:0,0:0:0:0:
231,120,32864,1,8,0:0:0:0:
231,120,32991,2,0,L|300:95,1,52.5949975121385,2|0,0:0|0:0,0:0:0:0:
283,194,33244,1,0,1:0:0:0:
412,23,33497,2,0,P|385:35|369:53,1,52.5949975121385,2|0,1:2|0:0,0:0:0:0:
491,129,33750,2,0,P|472:110|449:99,1,52.5949975121385,10|8,0:0|0:0,0:0:0:0:
376,140,34003,6,0,L|418:258,1,105.189995024277,2|0,1:2|0:0,0:0:0:0:
482,293,34383,2,0,P|440:324|388:326,1,105.189995024277,8|0,0:0|0:0,0:0:0:0:
312,257,34763,1,2,1:2:0:0:
194,335,35016,2,0,L|219:406,1,52.5949975121385,0|0,1:0|0:0,0:0:0:0:
88,277,35269,2,0,L|62:348,1,52.5949975121385,8|0,0:0|3:0,0:0:0:0:
171,199,35522,6,0,P|119:199|81:164,1,105.189995024277,2|0,1:2|0:0,0:0:0:0:
119,89,35902,2,0,L|101:39,1,52.5949975121385,8|0,0:0|0:0,0:0:0:0:
245,138,36155,1,0,3:0:0:0:
245,138,36282,2,0,L|227:88,1,52.5949975121385,10|0,0:0|0:0,0:0:0:0:
198,10,36535,5,8,1:3:0:0:
275,224,36788,1,4,1:3:0:0:
201,360,37041,2,0,P|278:330|371:301,1,180.549993939057,6|0,1:2|0:0,0:0:0:0:
475,361,38560,6,0,P|488:275|423:218,1,180.549993939057,2|0,1:2|0:0,0:0:0:0:
367,99,40079,6,0,L|431:119,3,58.0900014182129,2|2|2|2,1:2|0:0|0:0|0:0,0:0:0:0:
311,26,41092,1,2,0:0:0:0:
311,26,41345,1,2,0:0:0:0:
256,104,41598,6,0,B|291:204|291:204|259:224|248:263,1,180.549993939057,2|0,1:2|0:0,0:0:0:0:
299,327,43134,6,0,P|229:269|141:267,1,180.549993939057,6|0,1:2|0:0,0:0:0:0:
73,374,44659,6,0,P|46:287|15:203,1,180.549993939057,2|0,1:2|0:0,0:0:0:0:
83,108,46184,6,0,B|128:64|182:63|182:63|192:94|221:118,1,180.549993939057,2|0,1:2|0:0,0:0:0:0:
277,36,47710,6,0,P|346:64|405:87,1,138.160004216309,2|0,1:2|0:0,0:0:0:0:
511,173,48472,5,4,1:3:0:0:
431,266,48727,1,2,3:2:0:0:
512,367,48981,1,8,0:0:0:0:
431,266,49235,6,0,B|393:231|344:217|344:217|323:237|296:247,1,152.29000360183,6|0,1:2|0:0,0:0:0:0:
206,339,49613,1,8,0:0:0:0:
202,247,49739,2,0,P|223:302|233:337,1,76.1450018009148,2|0,1:2|0:0,0:0:0:0:
251,164,49991,2,0,P|217:140|175:132,1,76.1450018009148,8|0,0:0|0:0,0:0:0:0:
0,252,50243,2,0,P|66:253|131:189,1,152.29000360183,2|8,1:2|0:0,0:0:0:0:
44,46,50621,1,8,0:0:0:0:
33,155,50747,6,0,B|75:66|75:66|115:55|150:32,1,152.29000360183,2|0,1:2|0:0,0:0:0:0:
227,112,51125,1,8,0:0:0:0:
223,20,51240,2,0,P|244:75|254:110,1,76.1450018009148,2|0,1:2|0:0,0:0:0:0:
321,158,51494,2,0,P|300:213|290:248,1,76.1450018009148,8|0,0:0|3:0,0:0:0:0:
447,26,51748,2,0,P|388:10|323:76,1,152.29000360183,2|8,1:2|0:0,0:0:0:0:
509,95,52129,1,0,3:0:0:0:
418,124,52264,6,0,B|465:170|461:192|511:247,1,152.29000360183,2|0,1:2|0:0,0:0:0:0:
387,253,52645,1,8,0:0:0:0:
473,337,52772,2,0,B|439:377|439:377|376:380|341:331,1,152.29000360183,2|8,1:2|0:0,0:0:0:0:
216,337,53153,1,8,3:0:0:0:
273,270,53280,2,0,P|258:304|229:328,1,76.1450018009148,2|0,1:2|0:0,0:0:0:0:
143,384,53535,2,0,P|113:359|99:325,1,76.1450018009148,10|0,0:0|3:0,0:0:0:0:
161,259,53725,5,0,3:0:0:0:
155,270,53789,2,0,P|109:309|13:276,1,152.29000360183,2|0,1:2|0:0,0:0:0:0:
143,98,54167,1,8,0:0:0:0:
92,195,54293,2,0,B|50:106|50:106|10:95|-25:72,1,152.29000360183,2|8,1:2|0:0,0:0:0:0:
79,8,54671,1,0,0:0:0:0:
225,135,54797,2,0,P|170:114|135:104,1,76.1450018009148,2|4,1:2|1:3,0:0:0:0:
303,187,55049,1,10,0:0:0:0:
222,40,55175,1,8,0:0:0:0:
238,261,55300,6,0,P|280:317|366:327,1,152.29000360183,6|0,1:2|0:0,0:0:0:0:
412,213,55679,1,8,0:0:0:0:
476,354,55806,2,0,B|421:251|421:251|393:222,1,152.29000360183,2|8,1:2|0:0,0:0:0:0:
512,94,56186,1,0,0:0:0:0:
512,94,56312,2,0,P|489:147|481:184,1,76.1450018009148,2|0,1:2|3:0,0:0:0:0:
382,22,56565,1,8,0:0:0:0:
294,77,56692,1,8,3:0:0:0:
175,0,56818,6,0,B|98:58|98:58|23:23,1,152.29000360183,2|0,1:2|0:0,0:0:0:0:
196,175,57198,1,8,0:0:0:0:
103,92,57325,2,0,P|80:145|72:182,1,76.1450018009148,2|0,1:2|0:0,0:0:0:0:
175,0,57578,2,0,P|191:34|202:70,1,76.1450018009148,8|0,0:0|0:0,0:0:0:0:
316,169,57831,2,0,P|350:152|386:141,1,76.1450018009148,0|0,1:0|0:0,0:0:0:0:
294,77,58084,1,8,0:0:0:0:
294,77,58211,1,0,3:0:0:0:
196,175,58337,6,0,B|257:220|238:243|297:288,1,152.29000360183,2|0,1:2|0:0,0:0:0:0:
479,372,58717,2,0,B|445:332|445:332|382:329|347:378,1,152.29000360183,8|0,0:0|0:0,0:0:0:0:
424,239,59097,2,0,P|458:222|494:211,1,76.1450018009148,8|0,0:0|0:0,0:0:0:0:
345,160,59350,1,2,1:2:0:0:
495,99,59477,2,0,P|426:133|354:155,1,152.29000360183,0|0,3:0|0:0,0:0:0:0:
201,22,59856,5,2,1:2:0:0:
248,161,59983,2,0,P|265:127|276:91,1,76.1450018009148,8|4,0:0|1:3,0:0:0:0:
77,164,60236,1,8,0:0:0:0:
98,78,60363,2,0,P|133:93|157:121,1,76.1450018009148,0|0,1:0|0:0,0:0:0:0:
48,234,60616,2,0,P|65:200|76:164,1,76.1450018009148,8|0,0:0|0:0,0:0:0:0:
156,265,60869,1,8,0:0:0:0:
81,334,60996,1,8,0:0:0:0:
163,257,61122,1,8,0:0:0:0:
227,352,61249,1,8,1:3:0:0:
382,351,61375,6,0,B|344:316|295:302|295:302|274:322|247:332,1,152.29000360183,6|0,1:2|0:0,0:0:0:0:
364,194,61755,1,8,0:0:0:0:
290,269,61881,2,0,P|269:214|259:179,1,76.1450018009148,2|0,1:2|0:0,0:0:0:0:
423,267,62135,2,0,B|479:240|479:240|513:236,1,76.1450018009148,8|0,0:0|0:0,0:0:0:0:
314,120,62388,2,0,P|348:56|435:70,1,152.29000360183,2|8,1:2|0:0,0:0:0:0:
466,138,62768,1,0,3:0:0:0:
313,33,62894,6,0,P|240:55|172:88,1,152.29000360183,2|0,1:2|0:0,0:0:0:0:
28,157,63274,1,8,0:0:0:0:
73,78,63401,2,0,B|120:96|166:133|166:133|181:185,1,152.29000360183,2|8,1:2|0:0,0:0:0:0:
68,268,63781,1,8,3:0:0:0:
160,272,63907,2,0,P|105:251|70:241,1,76.1450018009148,2|0,1:2|0:0,0:0:0:0:
217,358,64160,2,0,P|180:369|145:384,1,76.1450018009148,8|0,0:0|0:0,0:0:0:0:
264,175,64413,5,2,1:2:0:0:
263,269,64540,2,0,B|322:314|303:337|364:382,1,152.29000360183,8|8,0:0|0:0,0:0:0:0:
506,213,64920,2,0,B|460:187|460:187|400:205|384:263,1,152.29000360183,2|8,1:2|0:0,0:0:0:0:
470,384,65299,1,0,3:0:0:0:
466,292,65425,2,0,P|487:347|497:382,1,76.1450018009148,2|0,1:2|0:0,0:0:0:0:
434,166,65679,2,0,P|422:129|407:94,1,76.1450018009148,10|0,0:0|3:0,0:0:0:0:
452,20,65869,5,0,3:0:0:0:
448,32,65932,2,0,P|394:94|321:88,1,152.29000360183,2|0,1:2|0:0,0:0:0:0:
274,14,66312,1,8,0:0:0:0:
191,183,66439,2,0,P|226:168|262:156,1,76.1450018009148,2|0,1:2|0:0,0:0:0:0:
108,52,66692,2,0,P|144:63|179:78,1,76.1450018009148,8|0,0:0|0:0,0:0:0:0:
0,185,66945,1,8,1:3:0:0:
82,139,67072,1,4,1:3:0:0:
112,228,67198,1,10,0:0:0:0:
21,321,67325,1,8,0:0:0:0:
97,381,67464,6,0,P|165:347|238:325,1,152.29000360183,6|0,1:2|0:0,0:0:0:0:
305,384,67845,1,8,0:0:0:0:
434,282,67972,2,0,P|502:307|506:388,1,152.29000360183,0|8,1:0|0:0,0:0:0:0:
325,298,68353,1,0,3:0:0:0:
320,205,68479,2,0,P|341:260|351:295,1,76.1450018009148,2|0,1:2|0:0,0:0:0:0:
391,109,68735,2,0,P|412:164|422:199,1,76.1450018009148,10|8,0:0|0:0,0:0:0:0:
471,58,68989,6,0,B|433:23|384:9|384:9|363:29|336:39,1,152.29000360183,2|0,1:2|0:0,0:0:0:0:
194,106,69370,1,8,0:0:0:0:
287,111,69496,2,0,P|232:90|197:80,1,76.1450018009148,0|0,1:0|0:0,0:0:0:0:
89,31,69752,2,0,P|125:19|160:4,1,76.1450018009148,10|0,0:0|3:0,0:0:0:0:
26,148,70006,2,0,P|14:111|-1:76,1,76.1450018009148,2|0,1:2|0:0,0:0:0:0:
123,162,70260,2,0,P|108:197|96:233,1,76.1450018009148,10|0,0:0|0:0,0:0:0:0:
0,384,70514,6,0,P|50:329|123:334,1,152.29000360183,2|0,1:2|0:0,0:0:0:0:
303,379,70896,1,8,0:0:0:0:
212,384,71022,2,0,P|267:363|302:353,1,76.1450018009148,0|0,1:0|0:0,0:0:0:0:
446,309,71277,2,0,P|477:330|495:363,1,76.1450018009148,10|0,0:0|0:0,0:0:0:0:
363,272,71531,2,0,P|385:241|419:225,1,76.1450018009148,0|8,1:0|3:0,0:0:0:0:
390,375,71786,1,8,0:0:0:0:
390,375,71913,1,8,3:0:0:0:
279,273,72040,5,2,1:2:0:0:
174,384,72167,2,0,P|152:311|118:243,1,152.29000360183,8|8,0:0|0:0,0:0:0:0:
0,114,72548,2,0,P|22:145|56:161,1,76.1450018009148,0|0,1:0|0:0,0:0:0:0:
164,47,72802,2,0,P|127:58|92:73,1,76.1450018009148,10|0,0:0|0:0,0:0:0:0:
210,157,73057,5,8,1:3:0:0:
210,157,73184,1,4,1:3:0:0:
292,57,73311,1,8,0:0:0:0:
358,121,73438,1,8,0:0:0:0:
455,6,73565,2,0,P|477:69|497:133,1,134.234998361389,6|0,1:2|0:0,0:0:0:0:
439,193,74074,5,2,0:0:0:0:
512,291,74328,1,2,0:0:0:0:
427,384,74582,1,2,0:0:0:0:
342,322,74836,1,2,0:0:0:0:
253,376,75091,2,0,P|187:381|137:339,1,134.234998361389,2|0,1:2|0:0,0:0:0:0:
76,283,75599,5,2,0:0:0:0:
0,192,75853,1,2,0:0:0:0:
62,114,76108,1,2,0:0:0:0:
0,17,76362,1,2,0:0:0:0:
154,142,76616,2,0,P|218:125|267:81,1,134.234998361389,2|0,1:2|0:0,0:0:0:0:
336,35,77125,5,2,0:0:0:0:
336,35,77252,2,0,P|352:40|368:42,2,22.3724997268982,2|2|2,0:0|0:0|0:0,0:0:0:0:
444,124,77633,1,2,0:0:0:0:
500,31,77887,1,2,0:0:0:0:
362,149,78141,2,0,B|394:220|394:220|377:239|369:270,1,134.234998361389,2|0,1:2|3:0,0:0:0:0:
417,335,78650,5,2,0:0:0:0:
309,384,78904,1,0,3:0:0:0:
215,331,79158,1,2,1:2:0:0:
94,377,79413,1,2,0:0:0:0:
10,310,79667,1,6,1:2:0:0:
256,192,79730,12,0,85260,3:0:0:0:
