osu file format v14

[General]
AudioFilename: audio.ogg
AudioLeadIn: 0
PreviewTime: 49162
Countdown: 0
SampleSet: Soft
StackLeniency: 0.7
Mode: 2
LetterboxInBreaks: 0
WidescreenStoryboard: 1

[Editor]
Bookmarks: 6622,12708,24880,37053,49225,61398
DistanceSpacing: 0.6
BeatDivisor: 4
GridSize: 16
TimelineZoom: 1

[Metadata]
Title:Keishou no Uta (TV Size)
TitleUnicode:継承の唄 (TV Size)
Artist:Ohara Yuiko
ArtistUnicode:大原ゆい子
Creator:BlackBN
Version:Rain
Source:無職転生 ~異世界行ったら本気だす~
Tags:BlackBq anime jpop j-pop pop japanese mushokutensei mushoku tensei: jobless reincarnation ~異世界行ったら本気だす~ isekai ittara honki dasu opening op 2 two
BeatmapID:3468364
BeatmapSetID:1697623

[Difficulty]
HPDrainRate:5
CircleSize:4
OverallDifficulty:9
ApproachRate:9
SliderMultiplier:2.5
SliderTickRate:2

[Events]
//Background and Video events
0,0,"Elise.jpg",0,0
Video,160,"v.mp4"
//Break Periods
//Storyboard Layer 0 (Background)
//Storyboard Layer 1 (Fail)
//Storyboard Layer 2 (Pass)
//Storyboard Layer 3 (Foreground)
//Storyboard Layer 4 (Overlay)
//Storyboard Sound Samples

[TimingPoints]
536,507.185122569738,3,2,22,50,1,0
6622,-100,3,2,22,60,0,0
37306,-100,3,2,22,50,0,0
43139,-100,3,2,22,55,0,0
46182,-100,3,2,22,60,0,0
49225,-100,3,2,22,70,0,1
73570,510.63829787234,3,2,22,60,1,0
73570,-99.3237531697391,3,2,22,60,0,0
79697,504.201680672269,3,2,22,40,1,0
81209,-100,3,2,22,35,0,0
82722,-100,3,2,22,30,0,0
85243,-100,3,2,22,50,0,0

[Colours]
Combo1 : 129,80,90
Combo2 : 209,71,71
Combo3 : 231,202,154

[HitObjects]
191,339,536,6,0,P|128:286|193:236,1,187.5,4|8,0:0|0:0,0:0:0:0:
324,245,1043,1,0,0:0:0:0:
325,155,1296,1,2,0:0:0:0:
99,172,1550,2,0,L|99:39,1,125,8|0,0:0|0:0,0:0:0:0:
428,336,2057,6,0,L|266:315,1,125,8|2,1:3|0:0,0:0:0:0:
79,285,2564,2,0,L|227:277,1,125,2|2,0:0|0:0,0:0:0:0:
429,264,3071,2,0,L|431:126,1,125,2|2,1:0|0:0,0:0:0:0:
99,359,3579,6,0,L|96:156,1,187.5,0|8,1:1|0:0,0:0:0:0:
228,166,4086,1,0,0:0:0:0:
353,160,4339,1,0,0:0:0:0:
126,165,4593,1,8,0:0:0:0:
125,28,4847,1,8,0:0:0:0:
454,352,5100,6,0,L|262:321,1,187.5,10|0,0:0|0:0,0:0:0:0:
142,312,5607,2,0,L|130:162,1,125,2|4,0:0|0:3,0:0:0:0:
346,184,6115,2,0,L|354:122,1,62.5,2|0,1:0|0:0,0:0:0:0:
221,154,6368,2,0,L|213:92,1,62.5,0|0,1:0|1:0,0:0:0:0:
443,352,6622,6,0,L|444:202,1,125,6|0,0:0|0:0,0:0:0:0:
312,218,7002,1,8,0:0:0:0:
119,257,7382,1,0,1:0:0:0:
344,256,7636,1,2,0:0:0:0:
472,256,7890,1,2,0:0:0:0:
143,358,8143,6,0,P|101:314|150:279,1,125,2|0,1:0|0:0,0:0:0:0:
272,277,8524,1,8,0:0:0:0:
467,273,8904,1,0,1:0:0:0:
241,234,9158,1,2,0:0:0:0:
453,211,9411,2,0,L|454:141,1,62.5,8|8,0:0|0:0,0:0:0:0:
224,334,9665,6,0,L|74:324,1,125,6|0,0:0|0:0,0:0:0:0:
231,265,10045,1,8,0:0:0:0:
426,267,10426,1,0,1:0:0:0:
200,182,10679,1,2,0:0:0:0:
77,182,10933,1,2,0:0:0:0:
405,357,11186,6,0,P|434:305|373:280,1,125,2|0,1:0|0:0,0:0:0:0:
256,244,11567,1,8,0:0:0:0:
59,233,11947,1,0,1:0:0:0:
287,181,12201,2,0,L|362:171,1,62.5,10|10,0:0|0:0,0:0:0:0:
216,158,12454,2,0,L|141:148,1,62.5,8|8,0:0|0:0,0:0:0:0:
383,357,12708,6,0,P|419:296|367:272,1,125,6|2,0:0|0:0,0:0:0:0:
162,264,13215,2,0,L|320:244,1,125,2|2,0:0|1:0,0:0:0:0:
56,231,13722,2,0,L|57:93,1,125,2|2,1:0|0:0,0:0:0:0:
384,354,14229,6,0,P|424:320|382:278,1,125,0|0,1:0|0:0,0:0:0:0:
250,268,14610,1,8,0:0:0:0:
63,264,14990,2,0,L|63:119,1,125,2|2,0:0|1:0,0:0:0:0:
289,129,15497,2,0,L|362:120,1,62.5,8|8,0:0|0:0,0:0:0:0:
120,350,15751,6,0,P|78:303|135:277,1,125,6|2,0:0|0:0,0:0:0:0:
341,273,16258,2,0,L|492:257,1,125,2|2,0:0|1:0,0:0:0:0:
240,231,16765,2,0,L|87:211,1,125,2|2,1:0|0:0,0:0:0:0:
448,350,17273,6,0,P|474:289|421:258,1,125,0|0,1:0|0:0,0:0:0:0:
303,256,17653,1,8,0:0:0:0:
102,255,18033,1,2,0:0:0:0:
108,155,18287,1,2,1:0:0:0:
333,145,18541,2,0,L|431:129,1,62.5,8|8,0:0|0:0,0:0:0:0:
167,335,18794,6,0,L|22:319,1,125,6|2,0:0|0:0,0:0:0:0:
268,327,19301,2,0,L|267:180,1,125,2|2,0:0|1:0,0:0:0:0:
38,208,19809,2,0,L|190:197,1,125,2|10,1:0|0:0,0:0:0:0:
491,361,20316,6,0,L|490:196,1,125,2|2,1:0|0:0,0:0:0:0:
265,248,20823,2,0,L|418:223,1,125,2|2,0:0|1:0,0:0:0:0:
162,183,21330,2,0,L|6:157,1,125,2|10,1:0|0:0,0:0:0:0:
368,347,21837,6,0,L|375:195,1,125,2|2,1:0|0:0,0:0:0:0:
147,232,22344,2,0,L|15:215,1,125,2|2,0:0|1:0,0:0:0:0:
251,187,22852,2,0,L|406:164,1,125,2|10,1:0|0:0,0:0:0:0:
46,356,23359,6,0,L|44:209,1,125,2|0,1:0|0:0,0:0:0:0:
176,229,23739,1,8,0:0:0:0:
364,228,24120,1,2,0:0:0:0:
137,166,24373,2,0,L|30:152,1,62.5,8|8,0:3|0:3,0:0:0:0:
208,115,24627,2,0,L|283:109,1,62.5,4|4,0:3|0:3,0:0:0:0:
43,348,24880,6,0,L|43:196,1,125,6|2,0:0|0:0,0:0:0:0:
270,267,25388,2,0,L|416:258,1,125,2|2,0:0|1:0,0:0:0:0:
166,195,25895,1,2,1:0:0:0:
39,193,26148,1,10,0:0:0:0:
371,352,26402,6,0,P|410:299|336:288,1,125,2|0,1:0|0:0,0:0:0:0:
311,264,26782,1,8,0:0:0:0:
179,272,26909,2,0,L|176:139,1,125,2|2,0:0|0:0,0:0:0:0:
402,163,27416,1,2,1:0:0:0:
177,170,27670,2,0,L|95:161,1,62.5,8|8,0:0|0:0,0:0:0:0:
344,352,27923,6,0,L|486:338,1,125,6|2,0:0|0:0,0:0:0:0:
239,276,28431,2,0,L|238:148,1,125,2|2,0:0|1:0,0:0:0:0:
464,138,28938,1,2,1:0:0:0:
465,38,29191,1,10,0:0:0:0:
135,356,29445,6,0,P|100:297|158:274,1,125,2|0,1:0|0:0,0:0:0:0:
266,258,29825,1,8,0:0:0:0:
458,251,30206,1,2,0:0:0:0:
231,171,30459,2,0,L|224:100,1,62.5,8|4,0:3|0:3,0:0:0:0:
364,163,30713,2,0,L|364:92,1,62.5,4|4,0:3|0:3,0:0:0:0:
158,357,30967,6,0,L|19:348,1,125,6|2,0:0|0:0,0:0:0:0:
261,299,31474,2,0,L|266:170,1,125,2|2,0:0|1:0,0:0:0:0:
40,171,31981,1,2,1:0:0:0:
253,170,32235,2,0,L|335:162,1,62.5,8|8,0:0|0:0,0:0:0:0:
87,354,32488,6,0,L|80:182,1,125,2|2,1:0|0:0,0:0:0:0:
307,240,32995,1,2,0:0:0:0:
433,238,33249,1,2,0:0:0:0:
208,175,33503,1,0,1:0:0:0:
421,105,33756,2,0,L|491:99,1,62.5,8|8,0:0|0:0,0:0:0:0:
253,351,34010,6,0,L|119:336,1,125,2|0,1:0|0:0,0:0:0:0:
260,278,34390,1,8,0:0:0:0:
451,223,34770,1,2,0:0:0:0:
226,177,35024,2,0,L|93:161,1,125,0|8,0:0|0:0,0:0:0:0:
426,364,35531,6,0,L|430:215,1,125,2|0,1:0|0:0,0:0:0:0:
296,229,35912,1,8,0:0:0:0:
106,221,36292,1,2,0:0:0:0:
334,142,36546,2,0,L|462:131,1,125,8|4,0:3|0:3,0:0:0:0:
114,349,37053,6,0,P|243:128|405:350,1,625,6|2,1:2|0:0,0:0:0:0:
182,343,38574,1,2,1:0:0:0:
392,331,40096,6,0,P|164:256|390:103,1,625,4|2,1:1|0:0,0:0:0:0:
150,78,41617,1,2,1:0:0:0:
345,335,43139,6,0,P|481:203|238:134,1,500,4|2,1:1|0:0,0:0:0:0:
65,123,44661,2,0,L|351:67,1,250,2|2,1:0|0:0,0:0:0:0:
54,353,46182,6,0,P|71:219|175:279,1,250,4|0,1:1|0:0,0:0:0:0:
376,211,46943,1,2,0:0:0:0:
63,352,47704,6,0,L|355:305,1,250,2|2,1:0|0:0,0:0:0:0:
181,98,48464,1,8,0:3:0:0:
406,99,48718,1,4,0:3:0:0:
406,99,48972,1,4,0:3:0:0:
77,357,49225,6,0,P|50:319|94:246,1,125,6|0,0:0|0:0,0:0:0:0:
304,301,49732,2,0,L|169:285,1,125,2|10,0:0|0:0,0:0:0:0:
407,239,50240,1,0,0:0:0:0:
181,217,50493,2,0,L|179:147,1,62.5,8|8,0:0|0:0,0:0:0:0:
436,357,50747,6,0,L|444:212,1,125,2|8,1:0|0:0,0:0:0:0:
377,218,51127,1,8,0:0:0:0:
245,287,51254,2,0,L|94:272,1,125,2|10,1:0|0:0,0:0:0:0:
351,257,51761,2,0,L|356:125,1,125,2|8,1:0|0:0,0:0:0:0:
27,353,52268,6,0,L|27:261,1,62.5,10|10,0:0|0:0,0:0:0:0:
155,293,52649,1,8,0:0:0:0:
276,295,52776,2,0,L|140:272,1,125,2|8,1:0|0:0,0:0:0:0:
383,251,53283,2,0,L|387:101,1,125,2|2,1:0|0:0,0:0:0:0:
323,109,53663,1,2,0:0:0:0:
95,350,53790,6,0,P|63:298|98:244,1,125,2|8,1:0|0:0,0:0:0:0:
158,265,54170,1,8,0:0:0:0:
279,265,54297,2,0,L|141:241,1,125,0|8,0:0|0:0,0:0:0:0:
158,180,54804,1,10,0:0:0:0:
386,171,55058,2,0,L|480:163,1,62.5,8|0,0:0|0:0,0:0:0:0:
221,352,55311,6,0,P|179:309|220:286,1,125,6|0,0:0|0:0,0:0:0:0:
448,265,55819,2,0,L|296:245,1,125,2|2,1:0|0:0,0:0:0:0:
95,203,56326,2,0,L|19:197,2,62.5,0|10|10,1:0|0:0|0:0,0:0:0:0:
424,359,56833,6,0,P|466:309|398:287,1,125,2|0,1:0|0:0,0:0:0:0:
203,263,57340,2,0,L|21:230,1,125,2|2,1:0|0:0,0:0:0:0:
209,182,57847,1,0,1:0:0:0:
435,186,58101,1,2,1:0:0:0:
436,131,58228,1,2,0:0:0:0:
208,360,58355,6,0,L|47:333,1,125,2|0,1:0|0:0,0:0:0:0:
216,293,58735,1,8,0:0:0:0:
406,291,59115,1,10,0:0:0:0:
172,292,59369,1,2,1:0:0:0:
108,294,59495,1,0,1:0:0:0:
73,244,59622,1,0,1:0:0:0:
95,186,59749,1,0,1:0:0:0:
321,269,59876,6,0,L|466:259,1,125,2|0,1:0|0:0,0:0:0:0:
314,204,60257,1,2,1:0:0:0:
117,204,60637,1,2,0:0:0:0:
345,365,60891,2,0,L|349:277,1,62.5,8|8,0:0|0:0,0:0:0:0:
215,287,61144,2,0,L|125:275,1,62.5,0|0,1:0|1:0,0:0:0:0:
382,335,61398,6,0,L|396:184,1,125,6|0,0:0|0:0,0:0:0:0:
168,192,61905,2,0,L|318:172,1,125,2|2,1:0|0:0,0:0:0:0:
63,122,62412,1,2,1:0:0:0:
293,236,62666,2,0,L|294:144,1,62.5,8|8,0:0|0:0,0:0:0:0:
65,354,62919,6,0,P|24:325|71:275,1,125,2|8,1:0|0:0,0:0:0:0:
127,272,63300,1,8,0:0:0:0:
260,277,63426,2,0,L|95:243,1,125,2|10,1:0|0:0,0:0:0:0:
365,221,63934,2,0,L|368:76,1,125,2|8,1:0|0:0,0:0:0:0:
39,355,64441,6,0,L|37:276,1,62.5,10|10,0:0|0:0,0:0:0:0:
168,290,64821,1,8,0:0:0:0:
395,295,64948,2,0,P|440:238|369:221,1,125,2|10,1:0|0:0,0:0:0:0:
180,204,65455,2,0,L|311:182,1,125,2|8,1:0|0:0,0:0:0:0:
305,127,65836,1,8,0:0:0:0:
67,352,65962,6,0,L|61:194,1,125,2|0,1:0|0:0,0:0:0:0:
127,211,66343,1,8,0:0:0:0:
259,208,66470,2,0,L|435:183,1,125,2|10,1:0|0:0,0:0:0:0:
251,118,66977,1,0,1:0:0:0:
27,135,67230,2,0,L|26:61,1,62.5,8|8,0:0|0:0,0:0:0:0:
256,342,67484,6,0,L|386:332,1,125,6|0,0:0|0:0,0:0:0:0:
248,280,67864,1,8,0:0:0:0:
247,211,67991,1,0,1:0:0:0:
475,217,68245,1,10,0:0:0:0:
250,197,68498,2,0,L|92:182,1,125,2|10,1:0|0:0,0:0:0:0:
459,349,69005,6,0,L|467:183,1,125,2|0,1:0|0:0,0:0:0:0:
331,196,69386,1,10,0:0:0:0:
140,212,69766,1,10,0:0:0:0:
365,200,70020,2,0,L|492:188,1,125,2|0,1:0|0:0,0:0:0:0:
154,363,70527,6,0,P|119:300|172:270,1,125,2|0,1:0|0:0,0:0:0:0:
287,271,70907,1,8,0:0:0:0:
474,270,71288,1,0,0:0:0:0:
246,195,71541,2,0,L|241:116,1,62.5,0|0,1:0|0:0,0:0:0:0:
375,156,71795,2,0,L|383:53,1,62.5,8|8,0:0|0:0,0:0:0:0:
149,356,72049,6,0,P|107:307|165:276,1,125,2|0,1:0|0:0,0:0:0:0:
275,249,72429,1,8,0:0:0:0:
469,255,72809,1,10,0:0:0:0:
243,212,73063,2,0,L|241:144,1,62.5,0|0,1:0|0:0,0:0:0:0:
377,136,73317,2,0,L|446:124,1,62.5,8|8,0:0|0:0,0:0:0:0:
210,348,73570,6,0,B|74:272|203:148|203:148|507:132,1,503.404254371239,6|0,0:0|0:0,0:0:0:0:
210,348,75101,6,0,P|379:234|168:130,1,503.404254371239,2|0,1:0|0:0,0:0:0:0:
446,338,76633,6,0,L|149:282,2,251.702127185619,2|0|0,1:0|0:0|0:0,0:0:0:0:
194,350,78165,6,0,P|325:232|90:131,1,503.404254371239,2|2,1:0|0:0,0:0:0:0:
256,192,79697,12,2,85243,0:0:0:0:
