osu file format v14

[General]
AudioFilename: audio.ogg
AudioLeadIn: 0
PreviewTime: 49162
Countdown: 0
SampleSet: Soft
StackLeniency: 0.7
Mode: 2
LetterboxInBreaks: 0
WidescreenStoryboard: 1

[Editor]
Bookmarks: 6622,12708,24880,37053,49225,61398
DistanceSpacing: 1
BeatDivisor: 4
GridSize: 32
TimelineZoom: 1

[Metadata]
Title:Keishou no Uta (TV Size)
TitleUnicode:継承の唄 (TV Size)
Artist:Ohara Yuiko
ArtistUnicode:大原ゆい子
Creator:BlackBN
Version:Platter
Source:無職転生 ~異世界行ったら本気だす~
Tags:BlackBq anime jpop j-pop pop japanese mushokutensei mushoku tensei: jobless reincarnation ~異世界行ったら本気だす~ isekai ittara honki dasu opening op 2 two
BeatmapID:3482549
BeatmapSetID:1697623

[Difficulty]
HPDrainRate:4
CircleSize:3.5
OverallDifficulty:8
ApproachRate:8
SliderMultiplier:2.1
SliderTickRate:1

[Events]
//Background and Video events
0,0,"Elise.jpg",0,0
Video,160,"v.mp4"
//Break Periods
//Storyboard Layer 0 (Background)
//Storyboard Layer 1 (Fail)
//Storyboard Layer 2 (Pass)
//Storyboard Layer 3 (Foreground)
//Storyboard Layer 4 (Overlay)
//Storyboard Sound Samples

[TimingPoints]
536,507.185122569738,3,2,22,50,1,0
6622,-100,3,2,22,60,0,0
37306,-100,3,2,22,50,0,0
43139,-100,3,2,22,55,0,0
46182,-100,3,2,22,60,0,0
49225,-100,3,2,22,70,0,1
73570,510.63829787234,3,2,22,60,1,0
73570,-99.3237531697391,3,2,22,60,0,0
79697,504.201680672269,3,2,22,40,1,0
81209,-100,3,2,22,35,0,0
82722,-100,3,2,22,30,0,0
85243,-100,3,2,22,50,0,0

[Colours]
Combo1 : 129,80,90
Combo2 : 209,71,71
Combo3 : 231,202,154

[HitObjects]
115,354,536,6,0,P|73:288|129:259,1,157.5,4|8,0:0|0:0,0:0:0:0:
284,268,1296,1,2,0:0:0:0:
391,266,1550,2,0,L|395:135,1,105,8|0,0:0|0:0,0:0:0:0:
184,185,2057,6,0,L|37:179,1,105,8|2,1:3|0:0,0:0:0:0:
185,126,2564,2,0,L|336:112,1,105,2|2,0:0|0:0,0:0:0:0:
183,183,3071,2,0,L|185:35,1,105,2|2,1:0|0:0,0:0:0:0:
396,352,3579,6,0,L|399:189,1,157.5,0|8,1:1|0:0,0:0:0:0:
236,199,4339,1,0,0:0:0:0:
447,140,4593,1,8,0:0:0:0:
447,140,4847,1,8,0:0:0:0:
249,332,5100,6,0,L|87:318,1,157.5,10|0,0:0|0:0,0:0:0:0:
92,250,5607,1,2,0:0:0:0:
475,190,6115,1,2,1:0:0:0:
467,138,6241,1,0,0:0:0:0:
437,102,6368,1,0,1:0:0:0:
386,102,6495,1,0,1:0:0:0:
179,331,6622,6,0,P|115:309|104:258,1,105,6|0,0:0|0:0,0:0:0:0:
157,252,7002,1,8,0:0:0:0:
313,251,7382,1,0,1:0:0:0:
101,205,7636,2,0,L|101:99,1,105,2|2,0:0|0:0,0:0:0:0:
311,351,8143,6,0,P|378:334|378:295,1,105,2|0,1:0|0:0,0:0:0:0:
325,276,8524,1,8,0:0:0:0:
168,239,8904,1,0,1:0:0:0:
379,209,9158,2,0,L|380:74,1,105,2|8,0:0|0:0,0:0:0:0:
327,98,9538,1,8,0:0:0:0:
135,321,9665,6,0,L|24:306,1,105,6|0,0:0|0:0,0:0:0:0:
87,244,10045,1,8,0:0:0:0:
251,247,10426,1,0,1:0:0:0:
39,229,10679,2,0,L|46:86,1,105,2|2,0:0|0:0,0:0:0:0:
257,329,11186,6,0,L|259:212,1,105,2|0,1:0|0:0,0:0:0:0:
201,254,11567,1,8,0:0:0:0:
358,253,11947,1,0,1:0:0:0:
144,172,12201,1,10,0:0:0:0:
88,140,12328,1,10,0:0:0:0:
90,72,12454,1,8,0:0:0:0:
143,34,12581,1,8,0:0:0:0:
336,348,12708,6,0,L|338:225,1,105,6|2,0:0|0:0,0:0:0:0:
224,216,13215,2,0,L|361:201,1,105,2|2,0:0|1:0,0:0:0:0:
203,153,13722,2,0,L|71:137,1,105,2|2,1:0|0:0,0:0:0:0:
311,354,14229,6,0,L|312:234,1,105,0|0,1:0|0:0,0:0:0:0:
258,228,14610,1,8,0:0:0:0:
97,203,14990,1,2,0:0:0:0:
99,92,15244,1,2,1:0:0:0:
310,103,15497,2,0,L|310:41,1,52.5,8|8,0:0|0:0,0:0:0:0:
118,354,15751,6,0,P|90:298|130:267,1,105,6|2,0:0|0:0,0:0:0:0:
224,266,16258,2,0,L|371:255,1,105,2|2,0:0|1:0,0:0:0:0:
204,192,16765,2,0,L|89:181,1,105,2|2,1:0|0:0,0:0:0:0:
313,360,17273,6,0,L|436:347,1,105,0|0,1:0|0:0,0:0:0:0:
419,291,17653,1,8,0:0:0:0:
259,294,18033,1,2,0:0:0:0:
154,295,18287,1,2,1:0:0:0:
364,226,18541,2,0,L|363:155,1,52.5,8|8,0:0|0:0,0:0:0:0:
172,350,18794,6,0,L|46:336,1,105,6|2,0:0|0:0,0:0:0:0:
181,280,19301,2,0,L|329:265,1,105,2|2,0:0|1:0,0:0:0:0:
160,253,19809,2,0,L|160:132,1,105,2|10,1:0|0:0,0:0:0:0:
369,356,20316,6,0,L|368:230,1,105,2|2,1:0|0:0,0:0:0:0:
260,249,20823,2,0,L|391:227,1,105,2|2,0:0|1:0,0:0:0:0:
245,174,21330,2,0,L|134:159,1,105,2|10,1:0|0:0,0:0:0:0:
354,362,21837,6,0,L|496:350,1,105,2|2,1:0|0:0,0:0:0:0:
353,304,22344,2,0,L|235:287,1,105,2|2,0:0|1:0,0:0:0:0:
122,299,22852,2,0,L|121:175,1,105,2|10,1:0|0:0,0:0:0:0:
331,349,23359,6,0,L|485:338,1,105,2|0,1:0|0:0,0:0:0:0:
490,316,23739,1,8,0:0:0:0:
330,274,24120,1,2,0:0:0:0:
116,274,24373,1,8,0:3:0:0:
67,256,24499,1,8,0:3:0:0:
36,214,24626,1,4,0:3:0:0:
38,162,24753,1,4,0:3:0:0:
230,350,24880,6,0,L|370:335,1,105,6|2,0:0|0:0,0:0:0:0:
230,278,25388,2,0,L|88:262,1,105,2|2,0:0|1:0,0:0:0:0:
251,221,25895,2,0,L|381:204,1,105,2|10,1:0|0:0,0:0:0:0:
144,352,26402,6,0,L|145:230,1,105,2|0,1:0|0:0,0:0:0:0:
259,237,26909,2,0,L|401:215,1,105,2|2,0:0|0:0,0:0:0:0:
259,154,27416,1,2,1:0:0:0:
467,173,27670,2,0,L|468:103,1,52.5,8|8,0:0|0:0,0:0:0:0:
275,352,27923,6,0,L|145:340,1,105,6|2,0:0|0:0,0:0:0:0:
280,295,28431,2,0,L|416:278,1,105,2|2,0:0|1:0,0:0:0:0:
258,246,28938,2,0,L|259:95,1,105,2|10,1:0|0:0,0:0:0:0:
473,364,29445,6,0,L|473:259,1,105,2|0,1:0|0:0,0:0:0:0:
420,255,29825,1,8,0:0:0:0:
259,261,30206,1,2,0:0:0:0:
146,263,30459,1,8,0:3:0:0:
358,200,30713,2,0,L|357:147,1,52.5,4|4,0:3|0:3,0:0:0:0:
165,349,30967,6,0,L|44:342,1,105,6|2,0:0|0:0,0:0:0:0:
166,282,31474,2,0,L|298:267,1,105,2|2,0:0|1:0,0:0:0:0:
166,202,31981,1,2,1:0:0:0:
377,198,32235,2,0,L|381:119,1,52.5,8|8,0:0|0:0,0:0:0:0:
255,359,32488,6,0,L|108:351,1,105,2|2,1:0|0:0,0:0:0:0:
259,282,32995,1,2,0:0:0:0:
259,183,33249,1,2,0:0:0:0:
149,186,33503,1,0,1:0:0:0:
358,176,33756,2,0,L|437:161,1,52.5,8|8,0:0|0:0,0:0:0:0:
285,366,34010,6,0,L|286:238,1,105,2|0,1:0|0:0,0:0:0:0:
341,253,34390,1,8,0:0:0:0:
500,256,34770,1,2,0:0:0:0:
391,199,35024,2,0,L|256:186,1,105,0|8,0:0|0:0,0:0:0:0:
73,366,35531,6,0,L|73:246,1,105,2|0,1:0|0:0,0:0:0:0:
128,252,35912,1,8,0:0:0:0:
295,251,36292,1,2,0:0:0:0:
188,254,36546,2,0,L|70:252,1,105,8|4,0:3|0:3,0:0:0:0:
404,338,37053,6,0,P|280:158|118:342,1,525,6|2,1:2|0:0,0:0:0:0:
224,338,38574,1,2,1:0:0:0:
367,336,40096,6,0,P|179:262|371:156,1,525,4|2,1:1|0:0,0:0:0:0:
261,209,41617,1,2,1:0:0:0:
60,293,43139,6,0,P|161:147|324:283,1,420,4|2,1:1|0:0,0:0:0:0:
111,104,44661,2,0,L|329:87,1,210,2|2,1:0|0:0,0:0:0:0:
91,352,46182,6,0,P|16:293|113:276,1,210,4|0,1:1|0:0,0:0:0:0:
191,258,46943,1,2,0:0:0:0:
69,329,47704,6,0,L|297:306,1,210,2|2,1:0|0:0,0:0:0:0:
172,209,48464,1,8,0:3:0:0:
386,220,48718,1,4,0:3:0:0:
385,111,48972,1,4,0:3:0:0:
64,357,49225,6,0,P|36:306|88:279,1,105,6|0,0:0|0:0,0:0:0:0:
174,266,49732,2,0,L|329:250,1,105,2|10,0:0|0:0,0:0:0:0:
153,224,50240,2,0,L|154:74,1,105,0|8,0:0|0:0,0:0:0:0:
207,118,50620,1,8,0:0:0:0:
399,360,50747,6,0,L|551:346,1,105,2|8,1:0|0:0,0:0:0:0:
396,278,51254,2,0,L|242:267,1,105,2|10,1:0|0:0,0:0:0:0:
418,232,51761,2,0,L|420:116,1,105,2|8,1:0|0:0,0:0:0:0:
102,348,52268,6,0,L|103:266,1,52.5,10|10,0:0|0:0,0:0:0:0:
262,267,52776,2,0,L|380:248,1,105,2|8,1:0|0:0,0:0:0:0:
256,193,53283,2,0,L|105:186,1,105,2|2,1:0|0:0,0:0:0:0:
150,126,53663,1,2,0:0:0:0:
341,352,53790,6,0,L|480:337,1,105,2|8,1:0|0:0,0:0:0:0:
445,283,54170,1,8,0:0:0:0:
382,264,54297,2,0,L|270:256,1,105,0|8,0:0|0:0,0:0:0:0:
169,229,54804,1,10,0:0:0:0:
381,204,55058,2,0,L|380:125,1,52.5,8|0,0:0|0:0,0:0:0:0:
189,344,55311,6,0,L|46:334,1,105,6|0,0:0|0:0,0:0:0:0:
196,273,55819,2,0,L|326:264,1,105,2|2,1:0|0:0,0:0:0:0:
175,194,56326,2,0,L|123:192,2,52.5,0|10|10,1:0|0:0|0:0,0:0:0:0:
492,348,56833,6,0,L|491:210,1,105,2|0,1:0|0:0,0:0:0:0:
376,236,57340,2,0,L|268:229,1,105,2|2,1:0|0:0,0:0:0:0:
161,212,57847,1,0,1:0:0:0:
373,181,58101,2,0,L|455:171,1,52.5,2|2,1:0|0:0,0:0:0:0:
233,355,58355,6,0,L|234:232,1,105,2|0,1:0|0:0,0:0:0:0:
287,248,58735,1,8,0:0:0:0:
450,262,59115,1,10,0:0:0:0:
240,220,59369,1,2,1:0:0:0:
183,200,59496,1,0,1:0:0:0:
165,147,59623,1,0,1:0:0:0:
191,94,59749,1,0,1:0:0:0:
383,366,59876,6,0,P|417:331|382:301,1,105,2|0,1:0|0:0,0:0:0:0:
330,297,60257,1,2,1:0:0:0:
170,289,60637,1,2,0:0:0:0:
385,219,60891,1,8,0:0:0:0:
440,201,61017,1,8,0:0:0:0:
439,148,61144,1,0,1:0:0:0:
384,124,61271,1,0,1:0:0:0:
196,368,61398,6,0,L|49:360,1,105,6|0,0:0|0:0,0:0:0:0:
204,300,61905,2,0,L|342:293,1,105,2|2,1:0|0:0,0:0:0:0:
181,234,62412,2,0,P|148:194|185:160,1,105,2|8,1:0|0:0,0:0:0:0:
230,155,62792,1,8,0:0:0:0:
423,359,62919,6,0,L|422:232,1,105,2|8,1:0|0:0,0:0:0:0:
309,244,63426,2,0,L|160:235,1,105,2|10,1:0|0:0,0:0:0:0:
332,176,63934,2,0,L|453:166,1,105,2|8,1:0|0:0,0:0:0:0:
113,358,64441,6,0,L|114:281,1,52.5,10|10,0:0|0:0,0:0:0:0:
270,295,64948,2,0,L|393:284,1,105,2|10,1:0|0:0,0:0:0:0:
259,235,65455,2,0,L|125:220,1,105,2|8,1:0|0:0,0:0:0:0:
155,174,65836,1,8,0:0:0:0:
356,368,65962,6,0,L|475:350,1,105,2|0,1:0|0:0,0:0:0:0:
462,296,66343,1,8,0:0:0:0:
387,292,66470,2,0,L|273:277,1,105,2|10,1:0|0:0,0:0:0:0:
176,252,66977,1,0,1:0:0:0:
389,197,67230,2,0,L|391:144,1,52.5,8|8,0:0|0:0,0:0:0:0:
199,358,67484,6,0,L|81:346,1,105,6|0,0:0|0:0,0:0:0:0:
94,282,67864,1,8,0:0:0:0:
148,266,67991,1,0,1:0:0:0:
259,258,68245,1,10,0:0:0:0:
260,168,68498,1,2,1:0:0:0:
46,155,68752,2,0,L|44:74,1,52.5,10|0,0:0|0:0,0:0:0:0:
237,356,69005,6,0,L|347:346,1,105,2|0,1:0|0:0,0:0:0:0:
341,280,69386,1,10,0:0:0:0:
179,271,69766,1,10,0:0:0:0:
291,270,70020,2,0,L|410:255,1,105,2|0,1:0|0:0,0:0:0:0:
396,196,70400,1,0,0:0:0:0:
203,358,70527,6,0,L|191:236,1,105,2|0,1:0|0:0,0:0:0:0:
246,247,70907,1,8,0:0:0:0:
414,250,71288,1,0,0:0:0:0:
196,224,71541,1,0,1:0:0:0:
142,201,71668,1,0,0:0:0:0:
142,142,71795,1,8,0:0:0:0:
197,121,71922,1,8,0:0:0:0:
389,361,72049,6,0,L|395:218,1,105,2|0,1:0|0:0,0:0:0:0:
340,254,72429,1,8,0:0:0:0:
180,247,72809,1,10,0:0:0:0:
396,195,73063,1,0,1:0:0:0:
431,150,73190,1,0,0:0:0:0:
422,99,73317,1,8,0:0:0:0:
368,78,73443,1,8,0:0:0:0:
173,347,73570,6,0,B|88:271|190:190|190:190|433:181,1,422.859573671841,6|0,0:0|0:0,0:0:0:0:
231,348,75101,6,0,P|385:260|221:167,1,422.859573671841,2|0,1:0|0:0,0:0:0:0:
424,351,76633,6,0,P|260:237|87:356,1,422.859573671841,2|0,1:0|0:0,0:0:0:0:
279,344,78165,6,0,P|403:201|234:150,1,422.859573671841,2|2,1:0|0:0,0:0:0:0:
256,192,79697,12,2,85243,0:0:0:0:
