osu file format v14

[General]
AudioFilename: audio.mp3
AudioLeadIn: 0
PreviewTime: 57290
Countdown: 0
SampleSet: Normal
StackLeniency: 0.7
Mode: 1
LetterboxInBreaks: 0
WidescreenStoryboard: 1

[Editor]
Bookmarks: 16909,20048,23537,39583,43769,57722,77240,80080
DistanceSpacing: 0.3
BeatDivisor: 4
GridSize: 32
TimelineZoom: 1.650007

[Metadata]
Title:Kaze to Iku Michi (TV Size)
TitleUnicode:風と行く道 (TV Size)
Artist:Ohara Yuiko
ArtistUnicode:大原ゆい子
Creator:iRedi
Version:Muzukashii
Source:無職転生 ~異世界行ったら本気だす~
Tags:mushoku tensei: ~isekai ittara honki dasu~ jobless reincarnation: i will seriously try if i go to another world eris boreas greyrat エリス・ボレアス・グレイラット Erisu Boreasu Gureiratto anime japanese j-pop jpop pop second season s2 part two 2 ed ending
BeatmapID:3884600
BeatmapSetID:1886487

[Difficulty]
HPDrainRate:7
CircleSize:0
OverallDifficulty:4
ApproachRate:9
SliderMultiplier:1.4
SliderTickRate:1

[Events]
//Background and Video events
0,0,"eris.jpg",0,60
Video,348,"roxy.mp4"
//Break Periods
//Storyboard Layer 0 (Background)
//Storyboard Layer 1 (Fail)
//Storyboard Layer 2 (Pass)
//Storyboard Layer 3 (Foreground)
//Storyboard Layer 4 (Overlay)
//Storyboard Sound Samples

[TimingPoints]
514,697.674418604651,4,1,0,50,1,0
514,-100,4,1,0,50,0,0
3304,714.285714285714,4,1,0,50,1,0
3304,-98.0392156862745,4,1,0,50,0,0
4018,666.666666666667,4,1,0,50,1,8
4018,-104.166666666667,4,1,0,50,0,8
4684,689.655172413793,4,1,0,50,1,8
4684,-101.010101010101,4,1,0,50,0,8
6106,705.882352941176,4,1,0,50,1,0
6106,-99.009900990099,4,1,0,50,0,0
8886,697.674418604651,4,1,0,50,1,0
8886,-100,4,1,0,50,0,0
11676,697.674418604651,4,1,0,50,1,8
11676,-100,4,1,0,50,0,8
11700,666.666666666667,4,1,0,50,1,0
11700,-104.166666666667,4,1,0,50,0,0
12033,697.674418604651,4,1,0,50,1,8
12033,-100,4,1,0,50,0,8
12381,701.754385964912,4,1,0,50,1,8
12381,-99.009900990099,4,1,0,50,0,8
13082,714.285714285714,4,1,0,50,1,8
13082,-98.0392156862745,4,1,0,50,0,8
13439,697.674418604651,4,1,0,50,1,8
13439,-100,4,1,0,50,0,8
14467,714.285714285714,4,1,0,50,1,0
14467,-98.0392156862745,4,1,0,50,0,0
15538,689.655172413793,4,1,0,50,1,8
15538,-101.010101010101,4,1,0,50,0,8
15882,689.655172413793,4,1,0,50,1,8
15882,-101.010101010101,4,1,0,50,0,8
17261,697.674418604651,4,1,0,50,1,0
17261,-100,4,1,0,50,0,0
19354,731.707317073171,4,1,0,50,1,8
19354,-95.2380952380952,4,1,0,50,0,8
20054,697.674418604651,4,1,0,50,1,0
20054,-100,4,1,0,50,0,0
22844,705.882352941176,4,1,0,50,1,0
22844,-99.009900990099,4,1,0,50,0,0
24255,697.674418604651,4,1,0,50,1,8
24255,-100,4,1,0,50,0,8
24952,666.666666666667,4,1,0,50,1,8
24952,-104.166666666667,4,1,0,50,0,8
25285,697.674418604651,4,1,0,50,1,8
25285,-100,4,1,0,50,0,8
25633,718.562874251497,4,1,0,50,1,0
25633,-97.0873786407767,4,1,0,50,0,0
26710,681.818181818182,4,1,0,50,1,8
26710,-102.040816326531,4,1,0,50,0,8
27050,685.714285714286,4,1,0,50,1,8
27050,-102.040816326531,4,1,0,50,0,8
27735,697.674418604651,4,1,0,50,1,8
27735,-100,4,1,0,50,0,8
28083,740.740740740741,4,1,0,50,1,8
28083,-94.3396226415094,4,1,0,50,0,8
28453,693.64161849711,4,1,0,50,1,0
28453,-101.010101010101,4,1,0,50,0,0
29840,699.708454810496,4,1,0,50,1,8
29840,-100,4,1,0,50,0,8
31239,710.059171597633,4,1,0,50,1,0
31239,-98.0392156862745,4,1,0,50,0,0
31949,681.818181818182,4,1,0,50,1,8
31949,-102.040816326531,4,1,0,50,0,8
32630,697.674418604651,4,1,0,50,1,8
32630,-100,4,1,0,50,0,8
33327,689.655172413793,4,1,0,50,1,8
33327,-101.010101010101,4,1,0,50,0,8
34016,701.754385964912,4,1,0,50,1,0
34016,-99.009900990099,4,1,0,50,0,0
36823,681.818181818182,4,1,0,50,1,0
36823,-102.040816326531,4,1,0,50,0,0
37504,697.674418604651,4,1,0,50,1,8
37504,-100,4,1,0,50,0,8
38201,705.882352941176,4,1,0,50,1,8
38201,-99.009900990099,4,1,0,50,0,8
38906,697.674418604651,4,1,0,50,1,8
38906,-100,4,1,0,50,0,8
39254,681.818181818182,4,1,0,50,1,8
39254,-102.040816326531,4,1,0,50,0,8
39594,705.882352941176,4,1,0,50,1,0
39594,-99.009900990099,4,1,0,50,0,0
40299,689.655172413793,4,1,0,50,1,8
40299,-101.010101010101,4,1,0,50,0,8
40643,714.285714285714,4,1,0,50,1,8
40643,-98.0392156862745,4,1,0,50,0,8
41357,681.818181818182,4,1,0,50,1,8
41357,-102.040816326531,4,1,0,50,0,8
42378,714.285714285714,4,1,0,50,1,8
42378,-98.0392156862745,4,1,0,50,0,8
43092,705.882352941176,4,1,0,50,1,8
43092,-99.009900990099,4,1,0,50,0,8
43769,700.116686114352,4,1,0,50,1,0
43769,-100,4,1,0,50,0,0
46569,697.674418604651,4,1,0,50,1,0
46569,-100,4,1,0,50,0,0
49359,705.882352941176,4,1,0,50,1,0
49359,-99.009900990099,4,1,0,50,0,0
50770,681.818181818182,4,1,0,50,1,8
50770,-102.040816326531,4,1,0,50,0,8
52133,705.882352941176,4,1,0,50,1,0
52133,-99.009900990099,4,1,0,50,0,0
54956,691.64265129683,4,1,0,50,1,0
54956,-101.010101010101,4,1,0,50,0,0
57722,705.882352941176,4,1,0,50,1,1
57722,-99.009900990099,4,1,0,50,0,1
59839,697.674418604651,4,1,0,50,1,9
59839,-100,4,1,0,50,0,9
60536,689.655172413793,4,1,0,50,1,1
60536,-101.010101010101,4,1,0,50,0,1
62604,722.89156626506,4,1,0,50,1,9
62604,-96.1538461538461,4,1,0,50,0,9
63303,714.285714285714,4,1,0,50,1,1
63303,-98.0392156862745,4,1,0,50,0,1
64017,697.674418604651,4,1,0,50,1,9
64017,-100,4,1,0,50,0,9
66110,697.674418604651,4,1,0,50,1,1
66110,-100,4,1,0,50,0,1
67505,701.754385964912,4,1,0,50,1,9
67505,-99.009900990099,4,1,0,50,0,9
68908,697.674418604651,4,1,0,50,1,1
68908,-100,4,1,0,50,0,1
71698,681.818181818182,4,1,0,50,1,1
71698,-102.040816326531,4,1,0,50,0,1
73061,697.674418604651,4,1,0,50,1,9
73061,-100,4,1,0,50,0,9
73758,714.285714285714,4,1,0,50,1,9
73758,-98.0392156862745,4,1,0,50,0,9
74472,714.285714285714,4,1,0,50,1,1
74472,-98.0392156862745,4,1,0,50,0,1
75186,697.674418604651,4,1,0,50,1,9
75186,-100,4,1,0,50,0,9
75883,681.818181818182,4,1,0,50,1,9
75883,-102.040816326531,4,1,0,50,0,9
76564,697.674418604651,4,1,0,50,1,9
76564,-100,4,1,0,50,0,9
77261,697.674418604651,4,1,0,50,1,0
77261,-100,4,1,0,50,0,0
78307,857.142857142857,4,1,0,50,1,8
78307,-81.3008130081301,4,1,0,50,0,8
78735,571.428571428571,4,1,0,50,1,8
78735,-121.951219512195,4,1,0,50,0,8
79020,714.285714285714,4,1,0,50,1,8
79020,-98.0392156862745,4,1,0,50,0,8
79734,689.655172413793,4,1,0,50,1,8
79734,-101.010101010101,4,1,0,50,0,8
80078,750,4,1,0,50,1,8
80078,-92.5925925925926,4,1,0,50,0,8
80080,722.89156626506,4,1,0,50,1,0
80080,-96.1538461538461,4,1,0,50,0,0
80802,697.674418604651,4,1,0,50,1,8
80802,-100,4,1,0,50,0,8
82894,699.708454810496,4,1,0,50,1,0
82894,-100,4,1,0,50,0,0
85692,714.285714285714,4,1,0,50,1,0
85692,-98.0392156862745,4,1,0,50,0,0
86406,697.674418604651,4,1,0,50,1,8
86406,-100,4,1,0,50,0,8
88499,697.674418604651,4,1,0,50,1,0
88499,-100,4,1,0,50,0,0

[HitObjects]
512,0,3304,5,4,0:0:0:0:
256,192,4018,1,8,0:0:0:0:
256,192,4351,1,0,0:0:0:0:
256,192,4518,1,0,0:0:0:0:
256,192,4684,1,0,0:0:0:0:
256,192,5028,1,8,0:0:0:0:
512,0,5718,1,12,0:0:0:0:
256,192,6811,1,0,0:0:0:0:
256,192,7164,1,8,0:0:0:0:
256,192,7870,1,8,0:0:0:0:
256,192,8223,1,0,0:0:0:0:
512,0,8886,1,12,0:0:0:0:
256,192,9583,1,0,0:0:0:0:
256,192,9932,1,8,0:0:0:0:
256,192,10106,1,8,0:0:0:0:
256,192,10281,1,8,0:0:0:0:
256,192,10630,1,0,0:0:0:0:
512,0,11327,1,12,0:0:0:0:
256,192,12381,1,0,0:0:0:0:
256,192,12731,1,8,0:0:0:0:
256,192,13082,1,8,0:0:0:0:
256,192,13439,1,8,0:0:0:0:
256,192,13787,1,0,0:0:0:0:
512,0,14467,1,4,0:0:0:0:
256,192,14824,1,8,0:0:0:0:
256,192,15181,1,0,0:0:0:0:
256,192,15882,1,0,0:0:0:0:
256,192,16226,1,8,0:0:0:0:
512,0,16916,1,12,0:0:0:0:
256,192,17261,12,0,19354,0:0:0:0:
512,0,20054,5,4,0:0:0:0:
256,192,20402,1,8,0:0:0:0:
256,192,20577,1,8,0:0:0:0:
256,192,21274,1,0,0:0:0:0:
256,192,21449,1,0,0:0:0:0:
256,192,21798,1,0,0:0:0:0:
256,192,22147,1,8,0:0:0:0:
256,192,22495,1,0,0:0:0:0:
256,192,23020,1,0,0:0:0:0:
256,192,23196,1,0,0:0:0:0:
256,192,23549,1,8,0:0:0:0:
256,192,24603,1,0,0:0:0:0:
256,192,25285,1,0,0:0:0:0:
256,192,25633,1,8,0:0:0:0:
256,192,25992,1,0,0:0:0:0:
256,192,26171,1,0,0:0:0:0:
256,192,26710,1,8,0:0:0:0:
256,192,26880,1,8,0:0:0:0:
256,192,27392,1,0,0:0:0:0:
256,192,27735,1,8,0:0:0:0:
256,192,28083,1,0,0:0:0:0:
256,192,28453,1,0,0:0:0:0:
256,192,29146,1,8,0:0:0:0:
256,192,29493,1,0,0:0:0:0:
256,192,30189,1,0,0:0:0:0:
256,192,30539,1,8,0:0:0:0:
256,192,30889,1,0,0:0:0:0:
256,192,31239,1,8,0:0:0:0:
256,192,31594,1,8,0:0:0:0:
256,192,31771,1,8,0:0:0:0:
256,192,32289,1,0,0:0:0:0:
256,192,32460,1,0,0:0:0:0:
256,192,32978,1,0,0:0:0:0:
256,192,33327,1,8,0:0:0:0:
256,192,33671,1,8,0:0:0:0:
512,0,34016,1,4,0:0:0:0:
256,192,34717,1,8,0:0:0:0:
256,192,35068,1,0,0:0:0:0:
256,192,35244,1,0,0:0:0:0:
256,192,35419,1,0,0:0:0:0:
256,192,36472,1,0,0:0:0:0:
512,0,36823,1,12,0:0:0:0:
256,192,37163,1,8,0:0:0:0:
256,192,37334,1,8,0:0:0:0:
256,192,37852,1,0,0:0:0:0:
256,192,38201,1,8,0:0:0:0:
256,192,38553,1,0,0:0:0:0:
256,192,38906,1,8,0:0:0:0:
512,0,39594,1,4,0:0:0:0:
256,192,40299,1,0,0:0:0:0:
512,0,40643,1,12,0:0:0:0:
256,192,41357,1,8,0:0:0:0:
256,192,42038,1,0,0:0:0:0:
256,192,42378,1,8,0:0:0:0:
256,192,43769,1,0,0:0:0:0:
256,192,44119,1,0,0:0:0:0:
256,192,44469,1,8,0:0:0:0:
256,192,44819,1,0,0:0:0:0:
256,192,44994,1,0,0:0:0:0:
256,192,45169,1,0,0:0:0:0:
256,192,45519,1,8,0:0:0:0:
256,192,45869,1,0,0:0:0:0:
256,192,46569,1,8,0:0:0:0:
256,192,46917,1,8,0:0:0:0:
256,192,47266,1,0,0:0:0:0:
256,192,47615,1,0,0:0:0:0:
256,192,47789,1,0,0:0:0:0:
256,192,47964,1,0,0:0:0:0:
256,192,48313,1,0,0:0:0:0:
256,192,48662,1,8,0:0:0:0:
512,0,49359,1,12,0:0:0:0:
256,192,49711,1,8,0:0:0:0:
256,192,50064,1,0,0:0:0:0:
256,192,50417,1,8,0:0:0:0:
256,192,50594,1,8,0:0:0:0:
256,192,50770,1,8,0:0:0:0:
256,192,51110,1,0,0:0:0:0:
256,192,51451,1,8,0:0:0:0:
512,0,52133,1,4,0:0:0:0:
256,192,52838,1,8,0:0:0:0:
512,0,53191,1,4,0:0:0:0:
256,192,54250,1,8,0:0:0:0:
256,192,54603,1,8,0:0:0:0:
512,0,54956,1,4,0:0:0:0:
512,0,57722,1,4,0:0:0:0:
256,192,58074,1,8,0:0:0:0:
256,192,58427,1,8,0:0:0:0:
256,192,58780,1,0,0:0:0:0:
256,192,58957,1,0,0:0:0:0:
256,192,59133,1,0,0:0:0:0:
256,192,59486,1,0,0:0:0:0:
256,192,59839,1,8,0:0:0:0:
256,192,60187,1,0,0:0:0:0:
256,192,60536,1,8,0:0:0:0:
256,192,61570,1,8,0:0:0:0:
256,192,61742,1,8,0:0:0:0:
256,192,61915,1,8,0:0:0:0:
256,192,62260,1,0,0:0:0:0:
256,192,62604,1,8,0:0:0:0:
256,192,62965,1,8,0:0:0:0:
512,0,63303,1,4,0:0:0:0:
256,192,64365,1,0,0:0:0:0:
256,192,64540,1,0,0:0:0:0:
256,192,64714,1,0,0:0:0:0:
256,192,65063,1,8,0:0:0:0:
256,192,65412,1,8,0:0:0:0:
256,192,65761,1,0,0:0:0:0:
256,192,65935,1,0,0:0:0:0:
256,192,66110,1,0,0:0:0:0:
256,192,67330,1,8,0:0:0:0:
256,192,67505,1,8,0:0:0:0:
256,192,67855,1,0,0:0:0:0:
256,192,68206,1,0,0:0:0:0:
256,192,68557,1,8,0:0:0:0:
256,192,68733,1,8,0:0:0:0:
256,192,68908,1,8,0:0:0:0:
256,192,69605,1,8,0:0:0:0:
256,192,69954,1,0,0:0:0:0:
256,192,70303,1,8,0:0:0:0:
256,192,70652,1,8,0:0:0:0:
256,192,71001,1,0,0:0:0:0:
256,192,71349,1,8,0:0:0:0:
512,0,71698,1,4,0:0:0:0:
256,192,72379,1,0,0:0:0:0:
256,192,72550,1,0,0:0:0:0:
256,192,72720,1,0,0:0:0:0:
512,0,73061,1,12,0:0:0:0:
512,0,73758,1,12,0:0:0:0:
512,0,74472,1,4,0:0:0:0:
256,192,75186,1,8,0:0:0:0:
512,0,75534,1,4,0:0:0:0:
256,192,76223,1,0,0:0:0:0:
256,192,76564,1,8,0:0:0:0:
256,192,76738,1,8,0:0:0:0:
256,192,76912,1,8,0:0:0:0:
512,0,77261,1,4,0:0:0:0:
512,0,80080,1,4,0:0:0:0:
256,192,80802,1,0,0:0:0:0:
256,192,81150,1,8,0:0:0:0:
256,192,81499,1,8,0:0:0:0:
256,192,81848,1,0,0:0:0:0:
256,192,82197,1,0,0:0:0:0:
512,0,82546,1,12,0:0:0:0:
256,192,83593,1,0,0:0:0:0:
256,192,84118,1,8,0:0:0:0:
256,192,84293,1,8,0:0:0:0:
256,192,84643,1,8,0:0:0:0:
256,192,84993,1,0,0:0:0:0:
256,192,85168,1,0,0:0:0:0:
256,192,85342,1,0,0:0:0:0:
512,0,85692,1,12,0:0:0:0:
256,192,86406,1,0,0:0:0:0:
256,192,86754,1,0,0:0:0:0:
256,192,87103,1,8,0:0:0:0:
512,0,87452,1,4,0:0:0:0:
512,0,87801,1,4,0:0:0:0:
512,0,88150,1,4,0:0:0:0:
