osu file format v14

[General]
AudioFilename: audio.mp3
AudioLeadIn: 0
PreviewTime: 57278
Countdown: 0
SampleSet: Soft
StackLeniency: 0.7
Mode: 3
LetterboxInBreaks: 0
SpecialStyle: 0
WidescreenStoryboard: 1

[Editor]
DistanceSpacing: 0.3
BeatDivisor: 4
GridSize: 32
TimelineZoom: 1.5

[Metadata]
Title:Kaze to Iku Michi (TV Size)
TitleUnicode:風と行く道 (TV Size)
Artist:Ohara Yuiko
ArtistUnicode:大原ゆい子
Creator:Yuiazu-
Version:Hope
Source:無職転生 ~異世界行ったら本気だす~
Tags:Mushoku Tensei: Isekai Ittara Honki Dasu Jobless Reincarnation: I Will Seriously Try If I Go To Another World Second Part Two 2 ED Ending Japanese Anime Jpop J-pop
BeatmapID:3350108
BeatmapSetID:1641425

[Difficulty]
HPDrainRate:8
CircleSize:4
OverallDifficulty:8
ApproachRate:5
SliderMultiplier:1.4
SliderTickRate:1

[Events]
//Background and Video events
0,0,"1131778.jpg",0,0
Video,383,"vid.mp4"
//Break Periods
//Storyboard Layer 0 (Background)
//Storyboard Layer 1 (Fail)
//Storyboard Layer 2 (Pass)
//Storyboard Layer 3 (Foreground)
//Storyboard Layer 4 (Overlay)
//Storyboard Sound Samples

[TimingPoints]
530,697.674418604651,4,2,1,60,1,0
43790,697.674418604651,4,2,1,60,1,0
57743,-100,4,2,1,60,0,1
77278,-100,4,2,1,60,0,0

[HitObjects]
448,192,530,128,0,3320:0:0:0:0:
320,192,2274,128,0,3320:0:0:0:0:
64,192,3320,128,2,3669:0:0:0:0:
192,192,3320,1,4,0:0:0:0:
320,192,3669,1,0,0:0:0:0:
64,192,4018,1,8,0:0:0:0:
192,192,4018,1,0,0:0:0:0:
448,192,4018,1,0,0:0:0:0:
192,192,4367,1,0,0:0:0:0:
320,192,4541,1,2,0:0:0:0:
448,192,4541,1,0,0:0:0:0:
64,192,4716,1,2,0:0:0:0:
192,192,4716,1,0,0:0:0:0:
64,192,5064,1,8,0:0:0:0:
320,192,5064,1,0,0:0:0:0:
448,192,5064,128,0,5413:0:0:0:0:
192,192,5413,1,0,0:0:0:0:
64,192,5762,1,2,0:0:0:0:
192,192,5762,128,4,6111:0:0:0:0:
320,192,5762,1,0,0:0:0:0:
448,192,6111,1,0,0:0:0:0:
64,192,6460,1,2,0:0:0:0:
320,192,6460,1,0,0:0:0:0:
64,192,6809,1,8,0:0:0:0:
192,192,6809,1,0,0:0:0:0:
448,192,6809,1,0,0:0:0:0:
320,192,7157,1,0,0:0:0:0:
448,192,7157,1,0,0:0:0:0:
64,192,7332,1,2,0:0:0:0:
192,192,7332,1,0,0:0:0:0:
320,192,7506,1,2,0:0:0:0:
448,192,7506,1,0,0:0:0:0:
192,192,7855,1,2,0:0:0:0:
320,192,7855,1,0,0:0:0:0:
64,192,8204,1,8,0:0:0:0:
192,192,8204,1,0,0:0:0:0:
448,192,8204,1,0,0:0:0:0:
64,192,8553,1,0,0:0:0:0:
192,192,8902,1,2,0:0:0:0:
320,192,8902,1,4,0:0:0:0:
448,192,8902,128,0,9250:0:0:0:0:
64,192,9250,1,0,0:0:0:0:
64,192,9599,1,8,0:0:0:0:
192,192,9599,1,0,0:0:0:0:
320,192,9599,1,0,0:0:0:0:
448,192,9948,1,0,0:0:0:0:
64,192,10123,1,2,0:0:0:0:
320,192,10123,1,0,0:0:0:0:
192,192,10297,1,2,0:0:0:0:
448,192,10297,1,0,0:0:0:0:
64,192,10646,128,8,10995:0:0:0:0:
320,192,10646,1,0,0:0:0:0:
448,192,10646,1,0,0:0:0:0:
192,192,10995,1,0,0:0:0:0:
192,192,11343,128,2,11692:0:0:0:0:
320,192,11343,1,4,0:0:0:0:
448,192,11343,1,0,0:0:0:0:
64,192,11692,1,0,0:0:0:0:
192,192,12041,1,2,0:0:0:0:
448,192,12041,1,0,0:0:0:0:
64,192,12390,1,8,0:0:0:0:
320,192,12390,1,0,0:0:0:0:
448,192,12390,1,0,0:0:0:0:
64,192,12739,1,0,0:0:0:0:
192,192,12739,1,0,0:0:0:0:
320,192,12913,1,2,0:0:0:0:
448,192,12913,1,0,0:0:0:0:
64,192,13088,1,2,0:0:0:0:
192,192,13088,1,0,0:0:0:0:
192,192,13436,1,2,0:0:0:0:
320,192,13436,1,0,0:0:0:0:
64,192,13785,1,8,0:0:0:0:
320,192,13785,1,0,0:0:0:0:
448,192,13785,1,0,0:0:0:0:
192,192,14134,1,2,0:0:0:0:
448,192,14134,1,0,0:0:0:0:
64,192,14483,128,2,14832:0:0:0:0:
192,192,14483,1,4,0:0:0:0:
320,192,14483,1,0,0:0:0:0:
320,192,14832,128,0,15181:0:0:0:0:
448,192,14832,1,0,0:0:0:0:
64,192,15181,1,8,0:0:0:0:
192,192,15181,128,0,15529:0:0:0:0:
448,192,15181,1,0,0:0:0:0:
64,192,15529,1,2,0:0:0:0:
320,192,15529,1,0,0:0:0:0:
192,192,15878,1,2,0:0:0:0:
320,192,15878,128,4,16227:0:0:0:0:
448,192,15878,1,0,0:0:0:0:
64,192,16227,128,8,16576:0:0:0:0:
192,192,16227,1,0,0:0:0:0:
448,192,16227,1,0,0:0:0:0:
320,192,16576,1,2,0:0:0:0:
448,192,16576,1,0,0:0:0:0:
192,192,16838,1,0,0:0:0:0:
320,192,16881,1,0,0:0:0:0:
64,192,16925,1,2,0:0:0:0:
448,192,16925,128,4,19367:0:0:0:0:
320,192,17855,1,0,0:0:0:0:
192,192,17913,1,0,0:0:0:0:
64,192,17971,128,0,19367:0:0:0:0:
192,192,19367,128,0,19716:0:0:0:0:
320,192,19716,128,0,20413:0:0:0:0:
64,192,20064,128,2,20413:0:0:0:0:
192,192,20064,1,4,0:0:0:0:
448,192,20064,1,0,0:0:0:0:
448,192,20413,128,0,20588:0:0:0:0:
192,192,20588,128,0,20762:0:0:0:0:
64,192,20762,1,8,0:0:0:0:
320,192,20762,1,0,0:0:0:0:
448,192,20762,1,0,0:0:0:0:
192,192,21111,1,0,0:0:0:0:
320,192,21285,128,0,21460:0:0:0:0:
64,192,21460,128,2,21809:0:0:0:0:
448,192,21460,1,0,0:0:0:0:
192,192,21809,128,2,22157:0:0:0:0:
320,192,21809,1,0,0:0:0:0:
64,192,22157,1,8,0:0:0:0:
320,192,22157,128,0,22506:0:0:0:0:
448,192,22157,1,0,0:0:0:0:
64,192,22506,128,0,22855:0:0:0:0:
320,192,22855,1,2,0:0:0:0:
448,192,22855,1,0,0:0:0:0:
192,192,23029,128,0,23204:0:0:0:0:
448,192,23204,128,0,23902:0:0:0:0:
64,192,23553,1,8,0:0:0:0:
320,192,23553,1,0,0:0:0:0:
320,192,23902,1,0,0:0:0:0:
64,192,24076,1,2,0:0:0:0:
192,192,24076,1,0,0:0:0:0:
64,192,24250,1,2,0:0:0:0:
192,192,24250,1,0,0:0:0:0:
320,192,24599,1,2,0:0:0:0:
448,192,24599,1,0,0:0:0:0:
64,192,24948,1,8,0:0:0:0:
192,192,24948,1,0,0:0:0:0:
448,192,24948,1,0,0:0:0:0:
192,192,25297,128,0,25471:0:0:0:0:
320,192,25471,128,0,25646:0:0:0:0:
64,192,25646,128,2,25995:0:0:0:0:
448,192,25646,1,0,0:0:0:0:
448,192,25995,128,0,26169:0:0:0:0:
192,192,26169,128,0,26343:0:0:0:0:
64,192,26343,1,8,0:0:0:0:
320,192,26343,1,0,0:0:0:0:
448,192,26343,1,0,0:0:0:0:
320,192,26692,128,0,26867:0:0:0:0:
64,192,26867,128,8,27390:0:0:0:0:
192,192,26867,1,0,0:0:0:0:
448,192,26867,1,0,0:0:0:0:
320,192,27041,1,2,0:0:0:0:
192,192,27390,1,2,0:0:0:0:
448,192,27390,128,0,27739:0:0:0:0:
64,192,27739,1,8,0:0:0:0:
192,192,27739,128,0,28088:0:0:0:0:
320,192,27739,1,0,0:0:0:0:
448,192,28088,128,0,28262:0:0:0:0:
64,192,28262,128,0,28436:0:0:0:0:
320,192,28436,128,2,29134:0:0:0:0:
448,192,28436,1,0,0:0:0:0:
192,192,28785,128,0,29134:0:0:0:0:
64,192,29134,1,8,0:0:0:0:
448,192,29134,128,0,29483:0:0:0:0:
64,192,29483,128,0,29832:0:0:0:0:
192,192,29657,128,0,29832:0:0:0:0:
320,192,29832,1,2,0:0:0:0:
448,192,29832,1,0,0:0:0:0:
192,192,30181,1,0,0:0:0:60:tom2.wav
320,192,30181,1,0,0:0:0:0:
64,192,30529,1,8,0:0:0:0:
320,192,30529,1,0,0:0:0:0:
448,192,30529,1,0,0:0:0:0:
192,192,30878,128,0,31053:0:0:0:60:tom1.wav
448,192,30878,1,0,0:0:0:0:
320,192,31053,128,0,31227:0:0:0:0:
64,192,31227,128,2,31576:0:0:0:0:
192,192,31227,1,0,0:0:0:0:
448,192,31576,128,0,31750:0:0:0:0:
192,192,31750,128,0,31925:0:0:0:0:
64,192,31925,1,8,0:0:0:0:
320,192,31925,1,0,0:0:0:0:
448,192,31925,1,0,0:0:0:0:
64,192,32274,128,0,32448:0:0:0:0:
320,192,32448,128,2,32623:0:0:0:0:
448,192,32448,1,0,0:0:0:0:
64,192,32623,1,2,0:0:0:0:
192,192,32623,128,0,32971:0:0:0:0:
320,192,32971,1,2,0:0:0:0:
448,192,32971,128,0,33320:0:0:0:0:
64,192,33320,128,8,33669:0:0:0:0:
192,192,33320,1,0,0:0:0:0:
320,192,33320,1,0,0:0:0:0:
320,192,33669,128,0,34018:0:0:0:0:
64,192,34018,128,2,34716:0:0:0:0:
192,192,34018,128,4,34367:0:0:0:0:
448,192,34018,1,0,0:0:0:0:
320,192,34367,1,0,0:0:0:0:
192,192,34716,1,8,0:0:0:0:
448,192,34716,128,0,34890:0:0:0:0:
320,192,34890,128,0,35064:0:0:0:0:
64,192,35064,128,2,35413:0:0:0:0:
192,192,35064,128,4,35239:0:0:0:0:
448,192,35064,1,0,0:0:0:0:
320,192,35239,128,0,35413:0:0:0:0:
448,192,35413,128,0,35762:0:0:0:0:
64,192,35762,1,2,0:0:0:0:
192,192,35762,1,0,0:0:0:0:
320,192,35936,1,0,0:0:0:0:
64,192,36111,1,8,0:0:0:0:
192,192,36111,1,0,0:0:0:0:
448,192,36111,1,0,0:0:0:0:
64,192,36460,128,2,36634:0:0:0:0:
320,192,36460,1,0,0:0:0:0:
448,192,36634,128,0,36809:0:0:0:0:
64,192,36809,1,2,0:0:0:0:
192,192,36809,128,4,37157:0:0:0:0:
320,192,36809,1,0,0:0:0:0:
320,192,37157,128,0,37332:0:0:0:0:
64,192,37332,128,0,37506:0:0:0:0:
192,192,37506,1,8,0:0:0:0:
320,192,37506,1,0,0:0:0:0:
448,192,37506,1,0,0:0:0:0:
192,192,37855,128,0,38029:0:0:0:0:
64,192,37942,1,0,0:0:0:0:
320,192,38029,1,2,0:0:0:0:
448,192,38029,1,0,0:0:0:0:
192,192,38117,1,0,0:0:0:0:
64,192,38204,128,2,38553:0:0:0:0:
448,192,38204,1,0,0:0:0:0:
192,192,38553,1,2,0:0:0:0:
320,192,38553,128,0,38902:0:0:0:0:
64,192,38902,1,8,0:0:0:0:
192,192,38902,128,0,39250:0:0:0:0:
448,192,38902,1,0,0:0:0:0:
64,192,39250,1,2,0:0:0:0:
448,192,39250,128,0,39599:0:0:0:0:
320,192,39425,128,0,39599:0:0:0:0:
64,192,39599,128,2,40297:0:0:0:0:
192,192,39599,1,4,0:0:0:0:
448,192,39948,128,0,40646:0:0:0:0:
192,192,40297,1,8,0:0:0:0:
320,192,40297,128,0,40646:0:0:0:0:
64,192,40646,128,2,40995:0:0:0:0:
192,192,40646,128,4,41343:0:0:0:0:
320,192,40995,1,0,0:0:0:0:
64,192,41343,1,2,0:0:0:0:
448,192,41343,1,0,0:0:0:0:
192,192,41692,1,8,0:0:0:0:
320,192,41692,1,0,0:0:0:0:
448,192,41692,1,0,0:0:0:0:
64,192,42041,1,2,0:0:0:0:
192,192,42041,128,0,42216:0:0:0:0:
320,192,42216,128,0,42390:0:0:0:0:
64,192,42390,128,2,43785:0:0:0:0:
192,192,42390,1,0,0:0:0:60:HHOpen.wav
448,192,42390,128,0,42739:0:0:0:0:
192,192,42739,1,2,0:0:0:0:
320,192,42739,1,0,0:0:0:60:tom3.wav
320,192,43088,1,2,0:0:0:0:
448,192,43088,1,0,0:0:0:60:tom3.wav
192,192,43436,1,2,0:0:0:0:
448,192,43436,1,0,0:0:0:60:tom3.wav
320,192,43785,128,0,43964:0:0:0:0:
448,192,43785,128,0,43964:0:0:0:0:
320,192,44138,128,2,44487:0:0:0:0:
448,192,44138,128,0,44487:0:0:0:0:
64,192,44487,128,8,44836:0:0:0:0:
192,192,44487,1,0,0:0:0:60:HHOpen.wav
448,192,44836,128,0,45010:0:0:0:0:
320,192,45010,128,0,45185:0:0:0:0:
64,192,45185,128,2,45359:0:0:0:0:
192,192,45185,128,0,45359:0:0:0:0:
64,192,45534,128,2,45883:0:0:0:0:
192,192,45534,128,0,45883:0:0:0:0:
320,192,45883,1,8,0:0:0:0:
448,192,45883,128,0,46231:0:0:0:60:HHOpen.wav
192,192,46231,128,0,46406:0:0:0:0:
320,192,46406,128,0,46580:0:0:0:0:
64,192,46580,128,2,46755:0:0:0:0:
448,192,46580,128,0,46755:0:0:0:0:
64,192,46929,128,2,47278:0:0:0:0:
448,192,46929,128,0,47278:0:0:0:0:
192,192,47278,1,8,0:0:0:0:
320,192,47278,128,0,47627:0:0:0:60:HHOpen.wav
64,192,47627,128,0,47801:0:0:0:0:
448,192,47801,128,0,47976:0:0:0:0:
192,192,47976,128,2,48150:0:0:0:0:
320,192,47976,128,0,48150:0:0:0:0:
192,192,48324,128,2,48673:0:0:0:0:
320,192,48324,128,0,48673:0:0:0:0:
64,192,48673,128,8,49022:0:0:0:0:
448,192,48673,1,0,0:0:0:60:HHOpen.wav
320,192,49022,128,0,49196:0:0:0:0:
192,192,49196,128,0,49371:0:0:0:0:
64,192,49371,1,2,0:0:0:0:
320,192,49371,128,4,49545:0:0:0:0:
448,192,49371,128,0,49545:0:0:0:0:
320,192,49720,128,2,50069:0:0:0:0:
448,192,49720,128,0,50069:0:0:0:0:
64,192,50069,128,8,50417:0:0:0:0:
192,192,50069,1,0,0:0:0:60:HHOpen.wav
320,192,50417,128,0,50592:0:0:0:0:
448,192,50592,128,0,50766:0:0:0:0:
64,192,50766,128,2,50941:0:0:0:0:
192,192,50766,128,0,50941:0:0:0:0:
64,192,51115,128,2,51464:0:0:0:0:
192,192,51115,128,0,51464:0:0:0:0:
320,192,51464,1,8,0:0:0:0:
448,192,51464,128,0,51813:0:0:0:60:HHOpen.wav
192,192,51813,128,0,52162:0:0:0:0:
64,192,52162,1,2,0:0:0:0:
320,192,52162,128,4,52336:0:0:0:0:
448,192,52162,1,0,0:0:0:0:
320,192,52510,128,0,52859:0:0:0:0:
64,192,52859,128,2,53208:0:0:0:0:
192,192,52859,1,0,0:0:0:0:
192,192,53208,1,8,0:0:0:0:
320,192,53208,1,4,0:0:0:0:
448,192,53208,128,0,53906:0:0:0:0:
64,192,53557,1,0,0:0:0:0:
192,192,53906,128,2,54255:0:0:0:0:
320,192,53906,1,0,0:0:0:0:
64,192,54255,1,8,0:0:0:0:
320,192,54255,128,0,54603:0:0:0:60:HHOpen.wav
448,192,54255,1,0,0:0:0:0:
64,192,54603,1,2,0:0:0:0:
192,192,54603,128,0,54952:0:0:0:0:
64,192,54952,128,2,56813:0:0:0:0:
320,192,54952,1,4,0:0:0:0:
448,192,54952,128,0,56813:0:0:0:0:
320,192,56813,128,0,56929:0:0:0:0:
192,192,56929,128,0,57045:0:0:0:0:
64,192,57045,128,0,57162:0:0:0:0:
448,192,57045,128,0,57162:0:0:0:0:
192,192,57394,128,0,57743:0:0:0:0:
64,192,57743,1,2,0:0:0:0:
320,192,57743,128,4,58092:0:0:0:0:
448,192,57743,128,0,58441:0:0:0:0:
192,192,58092,128,0,58441:0:0:0:0:
64,192,58441,128,8,58790:0:0:0:0:
320,192,58441,1,0,0:0:0:0:
448,192,58790,128,0,58964:0:0:0:0:
64,192,58964,1,2,0:0:0:0:
192,192,58964,128,0,59138:0:0:0:0:
320,192,59138,128,2,59487:0:0:0:0:
448,192,59138,1,0,0:0:0:0:
64,192,59487,1,2,0:0:0:0:
192,192,59487,1,0,0:0:0:0:
64,192,59836,1,8,0:0:0:0:
320,192,59836,1,0,0:0:0:0:
448,192,59836,128,0,60185:0:0:0:0:
192,192,60185,128,0,60534:0:0:0:0:
320,192,60359,1,0,0:0:0:0:
64,192,60534,128,2,61231:0:0:0:0:
448,192,60534,1,0,0:0:0:0:
192,192,60708,1,0,0:0:0:0:
320,192,60883,1,0,0:0:0:0:
192,192,61057,1,0,0:0:0:0:
320,192,61231,1,8,0:0:0:0:
448,192,61231,1,0,0:0:0:0:
192,192,61580,128,0,61755:0:0:0:0:
64,192,61755,1,2,0:0:0:0:
448,192,61755,128,0,61929:0:0:0:0:
192,192,61929,1,2,0:0:0:0:
320,192,61929,128,0,62278:0:0:0:0:
64,192,62278,128,2,62627:0:0:0:0:
448,192,62278,1,0,0:0:0:0:
192,192,62627,128,8,62976:0:0:0:0:
320,192,62627,1,0,0:0:0:0:
448,192,62627,1,0,0:0:0:0:
64,192,62976,1,2,0:0:0:0:
320,192,62976,128,0,63324:0:0:0:0:
64,192,63324,128,2,63673:0:0:0:0:
192,192,63324,1,4,0:0:0:0:
448,192,63324,128,0,64022:0:0:0:0:
320,192,63673,1,0,0:0:0:0:
192,192,63848,1,0,0:0:0:0:
64,192,64022,1,8,0:0:0:0:
320,192,64022,1,0,0:0:0:0:
448,192,64371,128,0,64545:0:0:0:0:
64,192,64545,1,2,0:0:0:0:
192,192,64545,128,0,64720:0:0:0:0:
320,192,64720,128,2,65069:0:0:0:0:
448,192,64720,1,0,0:0:0:0:
64,192,65069,128,2,65417:0:0:0:0:
192,192,65069,1,0,0:0:0:0:
192,192,65417,1,8,0:0:0:0:
320,192,65417,1,0,0:0:0:0:
448,192,65417,128,0,65766:0:0:0:0:
320,192,65766,128,0,65941:0:0:0:0:
192,192,65941,128,0,66115:0:0:0:0:
64,192,66115,128,2,66813:0:0:0:0:
320,192,66115,1,4,0:0:0:0:
448,192,66115,128,0,66464:0:0:0:0:
192,192,66464,1,0,0:0:0:0:
448,192,66638,1,0,0:0:0:0:
192,192,66813,1,8,0:0:0:0:
320,192,66813,1,0,0:0:0:0:
64,192,66987,1,0,0:0:0:0:
448,192,67162,1,0,0:0:0:0:
64,192,67336,1,2,0:0:0:0:
192,192,67336,1,0,0:0:0:0:
320,192,67510,1,2,0:0:0:0:
448,192,67510,1,0,0:0:0:0:
64,192,67685,1,8,0:0:0:0:
192,192,67685,1,0,0:0:0:0:
320,192,67859,1,2,0:0:0:0:
448,192,67859,1,0,0:0:0:0:
192,192,68034,1,0,0:0:0:0:
64,192,68208,1,8,0:0:0:0:
320,192,68208,1,4,0:0:0:0:
448,192,68208,128,0,68557:0:0:0:0:
64,192,68557,128,2,68731:0:0:0:0:
192,192,68557,1,0,0:0:0:0:
320,192,68731,128,0,68906:0:0:0:0:
64,192,68906,1,2,0:0:0:0:
192,192,68906,128,4,69603:0:0:0:0:
448,192,68906,1,0,0:0:0:0:
320,192,69255,1,0,0:0:0:0:
64,192,69603,1,8,0:0:0:0:
320,192,69603,1,0,0:0:0:0:
448,192,69603,1,0,0:0:0:0:
448,192,69952,128,0,70127:0:0:0:0:
64,192,70127,1,2,0:0:0:0:
192,192,70127,1,0,0:0:0:0:
320,192,70301,1,2,0:0:0:0:
448,192,70301,128,0,70650:0:0:0:0:
64,192,70650,128,2,70999:0:0:0:0:
192,192,70650,1,0,0:0:0:0:
192,192,70999,1,8,0:0:0:0:
320,192,70999,128,0,71348:0:0:0:0:
448,192,70999,1,0,0:0:0:0:
64,192,71348,1,2,0:0:0:0:
192,192,71348,128,0,71696:0:0:0:0:
64,192,71696,1,8,0:0:0:0:
320,192,71696,1,4,0:0:0:0:
448,192,71696,128,0,72394:0:0:0:0:
192,192,72045,1,2,0:0:0:0:
320,192,72045,1,0,0:0:0:0:
64,192,72394,1,8,0:0:0:0:
192,192,72394,1,0,0:0:0:0:
320,192,72394,1,0,0:0:0:0:
64,192,72569,1,8,0:0:0:0:
192,192,72569,1,0,0:0:0:0:
448,192,72569,1,0,0:0:0:0:
320,192,72743,128,0,72917:0:0:0:60:tom1.wav
448,192,72743,1,0,0:0:0:0:
192,192,72917,128,0,73092:0:0:0:0:
64,192,73092,1,2,0:0:0:0:
320,192,73092,128,4,73441:0:0:0:0:
448,192,73092,128,0,73790:0:0:0:0:
192,192,73441,1,0,0:0:0:0:
64,192,73790,128,2,74487:0:0:0:0:
192,192,73790,128,4,74138:0:0:0:0:
320,192,73790,1,0,0:0:0:0:
448,192,74138,1,0,0:0:0:0:
192,192,74487,1,2,0:0:0:0:
320,192,74487,128,4,75534:0:0:0:0:
448,192,74487,128,0,74836:0:0:0:0:
64,192,74836,1,0,0:0:0:0:
192,192,75185,1,8,0:0:0:0:
448,192,75185,1,0,0:0:0:0:
64,192,75534,1,2,0:0:0:0:
192,192,75534,1,4,0:0:0:0:
448,192,75534,1,0,0:0:0:0:
320,192,75883,128,0,76057:0:0:0:0:
192,192,76057,128,0,76231:0:0:0:0:
64,192,76231,1,2,0:0:0:0:
448,192,76231,128,0,76406:0:0:0:0:
192,192,76406,128,0,76580:0:0:0:0:
320,192,76580,128,8,76755:0:0:0:0:
448,192,76580,1,0,0:0:0:0:
64,192,76755,128,8,76929:0:0:0:0:
192,192,76755,1,0,0:0:0:0:
320,192,76929,1,2,0:0:0:0:
448,192,76929,128,0,77103:0:0:0:0:
192,192,77103,128,0,77278:0:0:0:0:
64,192,77278,128,2,79720:0:0:0:0:
320,192,77278,1,4,0:0:0:0:
448,192,77278,128,0,78324:0:0:0:0:
192,192,78324,128,0,78673:0:0:0:0:
448,192,78673,128,0,79022:0:0:0:0:
320,192,79022,128,0,79371:0:0:0:0:
192,192,79371,128,0,79720:0:0:0:0:
448,192,79720,128,0,79894:0:0:0:0:
320,192,79894,1,8,0:0:0:0:
192,192,79981,1,8,0:0:0:0:
64,192,80069,128,2,80417:0:0:0:0:
320,192,80069,1,4,0:0:0:0:
448,192,80069,1,0,0:0:0:0:
448,192,80417,128,0,80766:0:0:0:0:
64,192,80766,1,8,0:0:0:0:
192,192,80766,128,0,81115:0:0:0:0:
320,192,80766,1,0,0:0:0:0:
320,192,81115,128,0,81464:0:0:0:0:
64,192,81290,1,2,0:0:0:0:
192,192,81464,1,2,0:0:0:0:
448,192,81464,1,0,0:0:0:0:
64,192,81813,128,8,82162:0:0:0:0:
320,192,81813,1,0,0:0:0:0:
448,192,81813,1,0,0:0:0:0:
192,192,82162,128,2,82510:0:0:0:0:
320,192,82162,1,0,0:0:0:0:
64,192,82510,1,2,0:0:0:0:
320,192,82510,128,4,82859:0:0:0:0:
448,192,82510,128,0,83208:0:0:0:0:
192,192,82859,1,0,0:0:0:0:
64,192,83208,1,2,0:0:0:0:
320,192,83208,1,0,0:0:0:0:
64,192,83557,1,8,0:0:0:0:
448,192,83557,1,0,0:0:0:0:
320,192,83644,1,0,0:0:0:0:
192,192,83731,1,0,0:0:0:0:
64,192,83819,1,0,0:0:0:0:
448,192,83906,1,0,0:0:0:0:
320,192,83993,1,0,0:0:0:0:
64,192,84080,1,8,0:0:0:0:
192,192,84080,1,0,0:0:0:0:
320,192,84167,1,0,0:0:0:0:
64,192,84255,1,2,0:0:0:0:
448,192,84255,1,0,0:0:0:0:
192,192,84342,1,0,0:0:0:0:
320,192,84429,1,0,0:0:0:0:
192,192,84603,1,2,0:0:0:0:
448,192,84603,1,0,0:0:0:0:
64,192,84952,1,8,0:0:0:0:
320,192,84952,1,0,0:0:0:0:
448,192,84952,1,0,0:0:0:0:
64,192,85127,1,8,0:0:0:0:
192,192,85127,1,0,0:0:0:0:
448,192,85127,1,0,0:0:0:0:
320,192,85301,128,0,85476:0:0:0:0:
192,192,85476,128,0,85650:0:0:0:0:
64,192,85650,128,2,85999:0:0:0:0:
320,192,85650,1,4,0:0:0:0:
448,192,85650,128,0,86348:0:0:0:0:
320,192,85999,128,0,86348:0:0:0:0:
64,192,86348,128,8,87045:0:0:0:0:
192,192,86348,128,0,86696:0:0:0:0:
320,192,86696,1,2,0:0:0:0:
448,192,86696,128,0,87045:0:0:0:0:
192,192,87045,1,2,0:0:0:0:
320,192,87045,1,0,0:0:0:0:
64,192,87394,1,8,0:0:0:0:
192,192,87394,1,2,0:0:0:0:
448,192,87394,1,0,0:0:0:0:
64,192,87743,1,8,0:0:0:0:
320,192,87743,1,2,0:0:0:0:
448,192,87743,1,0,0:0:0:0:
64,192,88092,128,8,88441:0:0:0:0:
192,192,88092,128,2,88441:0:0:0:0:
448,192,88092,128,0,88441:0:0:0:0:
