osu file format v14

[General]
AudioFilename: audio.mp3
AudioLeadIn: 0
PreviewTime: 70016
Countdown: 0
SampleSet: Soft
StackLeniency: 0.7
Mode: 3
LetterboxInBreaks: 0
SpecialStyle: 0
WidescreenStoryboard: 0

[Editor]
DistanceSpacing: 1
BeatDivisor: 4
GridSize: 8
TimelineZoom: 3.800005

[Metadata]
Title:Iwanai kedo ne. (TV Size)
TitleUnicode:言わないけどね。 (TV Size)
Artist:Ohara Yuiko
ArtistUnicode:大原ゆい子
Creator:leqek
Version:4K MX
Source:からかい上手の高木さん
Tags:Karakai Jouzu no Takagi san
BeatmapID:2036573
BeatmapSetID:972769

[Difficulty]
HPDrainRate:7.4
CircleSize:4
OverallDifficulty:6.9
ApproachRate:5
SliderMultiplier:1.4
SliderTickRate:1

[Events]
//Background and Video events
0,0,"BG.jpg",0,0
//Break Periods
//Storyboard Layer 0 (Background)
//Storyboard Layer 1 (Fail)
//Storyboard Layer 2 (Pass)
//Storyboard Layer 3 (Foreground)
//Storyboard Sound Samples

[TimingPoints]
1493,521.739130434783,4,2,0,22,1,0
19753,500,4,2,0,22,1,0
20253,521.739130434783,4,2,0,22,1,0
20777,521.739130434783,4,2,0,22,1,0
70863,-100,4,2,0,22,0,1
87559,-100,4,2,0,22,0,0

[HitObjects]
448,192,1319,5,0,0:0:0:0:
320,192,1362,1,0,0:0:0:0:
192,192,1406,1,0,0:0:0:0:
64,192,1449,1,0,0:0:0:0:
320,192,1493,1,0,0:0:0:0:
448,192,1493,128,0,2014:0:0:0:0:
64,192,1753,1,0,0:0:0:0:
192,192,2014,1,0,0:0:0:0:
320,192,2014,1,0,0:0:0:0:
448,192,2275,1,0,0:0:0:0:
192,192,2536,1,0,0:0:0:0:
64,192,2536,1,0,0:0:0:0:
320,192,2666,1,0,0:0:0:0:
64,192,2927,1,0,0:0:0:0:
448,192,3058,1,0,0:0:0:0:
192,192,3188,1,0,0:0:0:0:
320,192,3319,1,0,0:0:0:0:
448,192,3449,1,0,0:0:0:0:
64,192,3579,128,0,4101:0:0:0:0:
192,192,3579,1,0,0:0:0:0:
448,192,3840,1,0,0:0:0:0:
320,192,4101,1,0,0:0:0:0:
192,192,4362,1,0,0:0:0:0:
320,192,4623,1,0,0:0:0:0:
64,192,4753,1,0,0:0:0:0:
448,192,5014,1,0,0:0:0:0:
192,192,5145,1,0,0:0:0:0:
320,192,5275,1,0,0:0:0:0:
64,192,5406,1,0,0:0:0:0:
192,192,5536,1,0,0:0:0:0:
448,192,5666,1,0,0:0:0:0:
320,192,5666,128,0,6710:0:0:0:0:
64,192,5666,128,0,5927:0:0:0:0:
192,192,5927,1,0,0:0:0:0:
448,192,6188,1,0,0:0:0:0:
64,192,6449,1,0,0:0:0:0:
448,192,6710,1,0,0:0:0:0:
192,192,6710,128,0,7753:0:0:0:0:
320,192,6840,1,0,0:0:0:0:
64,192,7101,1,0,0:0:0:0:
448,192,7232,1,0,0:0:0:0:
320,192,7362,1,0,0:0:0:0:
64,192,7493,1,0,0:0:0:0:
320,192,7623,1,0,0:0:0:0:
448,192,7753,128,0,8797:0:0:0:0:
64,192,7753,1,0,0:0:0:0:
192,192,8014,1,0,0:0:0:0:
320,192,8145,1,0,0:0:0:0:
64,192,8275,1,0,0:0:0:0:
192,192,8536,1,0,0:0:0:0:
64,192,8797,1,0,0:0:0:0:
320,192,8797,1,0,0:0:0:0:
192,192,9058,1,0,0:0:0:0:
320,192,9319,1,0,0:0:0:0:
448,192,9319,1,0,0:0:0:0:
64,192,9319,1,0,0:0:0:0:
192,192,9579,1,0,0:0:0:0:
320,192,9710,1,0,0:0:0:0:
64,192,9840,128,0,11927:0:0:0:0:
448,192,9840,1,0,0:0:0:0:
320,192,10101,1,0,0:0:0:0:
192,192,10232,1,0,0:0:0:0:
448,192,10623,1,0,0:0:0:0:
192,192,10884,128,0,11927:0:0:0:0:
320,192,10884,1,0,0:0:0:0:
448,192,11927,128,0,12840:0:0:0:0:
320,192,11927,1,0,0:0:0:0:
320,192,12188,128,0,12840:0:0:0:0:
192,192,12188,1,0,0:0:0:0:
192,192,12449,128,0,13101:0:0:0:0:
64,192,12449,1,0,0:0:0:0:
64,192,12710,128,0,13362:0:0:0:0:
320,192,12971,128,0,13101:0:0:0:0:
448,192,12971,128,0,13623:0:0:0:0:
192,192,13232,128,0,13362:0:0:0:0:
320,192,13232,128,0,13884:0:0:0:0:
192,192,13493,128,0,13884:0:0:0:0:
64,192,13493,128,0,13623:0:0:0:0:
64,192,13753,128,0,13884:0:0:0:0:
448,192,13753,128,0,13884:0:0:0:0:
448,192,14014,1,0,0:0:0:0:
64,192,14014,128,0,14536:0:0:0:0:
192,192,14014,128,0,14145:0:0:0:0:
320,192,14014,128,0,14079:0:0:0:0:
448,192,14275,1,0,0:0:0:0:
320,192,14406,1,0,0:0:0:0:
192,192,14536,1,0,0:0:0:0:
320,192,14666,1,0,0:0:0:0:
64,192,14797,1,0,0:0:0:0:
448,192,14862,1,0,0:0:0:0:
320,192,14927,1,0,0:0:0:0:
192,192,14993,1,0,0:0:0:0:
64,192,15058,1,0,0:0:0:0:
448,192,15058,1,0,0:0:0:0:
64,192,15971,1,0,0:0:0:0:
192,192,16036,1,0,0:0:0:0:
320,192,16101,1,0,0:0:0:0:
448,192,16101,128,0,17666:0:0:0:0:
64,192,16623,128,0,17666:0:0:0:0:
320,192,17666,128,0,17927:0:0:0:0:
192,192,17927,1,0,0:0:0:0:
320,192,18188,128,0,18449:0:0:0:0:
448,192,18188,128,0,18449:0:0:0:0:
192,192,18188,128,0,18319:0:0:0:0:
64,192,18188,128,0,18319:0:0:0:0:
192,192,18449,1,0,0:0:0:0:
64,192,18449,1,0,0:0:0:0:
192,192,18579,128,0,18840:0:0:0:0:
320,192,18579,128,0,18840:0:0:0:0:
64,192,18579,128,0,18710:0:0:0:0:
448,192,18579,128,0,18710:0:0:0:0:
64,192,18840,1,0,0:0:0:0:
448,192,18840,1,0,0:0:0:0:
448,192,18938,128,0,19069:0:0:0:0:
320,192,18938,128,0,19069:0:0:0:0:
192,192,18938,128,0,19623:0:0:0:0:
64,192,18938,128,0,19623:0:0:0:0:
320,192,19493,128,0,19623:0:0:0:0:
448,192,19493,128,0,19623:0:0:0:0:
448,192,19753,1,0,0:0:0:0:
320,192,19753,1,0,0:0:0:0:
192,192,19753,1,0,0:0:0:0:
64,192,19753,1,0,0:0:0:0:
448,192,19878,1,0,0:0:0:0:
320,192,19878,1,0,0:0:0:0:
192,192,19878,1,0,0:0:0:0:
64,192,19878,1,0,0:0:0:0:
192,192,20128,1,0,0:0:0:0:
64,192,20128,1,0,0:0:0:0:
320,192,20190,1,0,0:0:0:0:
448,192,20190,1,0,0:0:0:0:
64,192,20253,1,0,0:0:0:0:
192,192,20253,1,0,0:0:0:0:
448,192,20426,1,0,0:0:0:0:
320,192,20426,1,0,0:0:0:0:
192,192,20513,1,0,0:0:0:0:
64,192,20513,1,0,0:0:0:0:
64,192,20777,1,0,0:0:0:0:
320,192,20777,1,0,0:0:0:0:
448,192,20777,128,0,21037:0:0:0:0:
192,192,21037,1,0,0:0:0:0:
320,192,21037,1,0,0:0:0:0:
192,192,21298,1,0,0:0:0:0:
448,192,21298,1,0,0:0:0:0:
64,192,21298,128,0,21559:0:0:0:0:
320,192,21559,1,0,0:0:0:0:
64,192,21690,128,0,21820:0:0:0:0:
192,192,21690,128,0,21820:0:0:0:0:
320,192,21820,1,0,0:0:0:0:
448,192,21820,1,0,0:0:0:0:
192,192,21994,128,0,22081:0:0:0:0:
64,192,21994,128,0,22081:0:0:0:0:
448,192,22081,1,0,0:0:0:0:
320,192,22081,128,0,22342:0:0:0:0:
192,192,22342,1,0,0:0:0:0:
64,192,22342,1,0,0:0:0:0:
448,192,22342,1,0,0:0:0:0:
192,192,22603,1,0,0:0:0:0:
320,192,22733,1,0,0:0:0:0:
448,192,22863,1,0,0:0:0:0:
192,192,22863,1,0,0:0:0:0:
64,192,22863,128,0,23124:0:0:0:0:
320,192,23124,1,0,0:0:0:0:
192,192,23124,1,0,0:0:0:0:
320,192,23385,1,0,0:0:0:0:
64,192,23385,1,0,0:0:0:0:
448,192,23385,128,0,23646:0:0:0:0:
192,192,23646,1,0,0:0:0:0:
448,192,23777,128,0,23907:0:0:0:0:
320,192,23777,128,0,23907:0:0:0:0:
192,192,23907,1,0,0:0:0:0:
64,192,23907,1,0,0:0:0:0:
320,192,24081,128,0,24168:0:0:0:0:
448,192,24081,128,0,24168:0:0:0:0:
64,192,24168,1,0,0:0:0:0:
192,192,24168,128,0,24429:0:0:0:0:
320,192,24429,1,0,0:0:0:0:
448,192,24429,1,0,0:0:0:0:
64,192,24429,1,0,0:0:0:0:
192,192,24690,1,0,0:0:0:0:
448,192,24690,1,0,0:0:0:0:
320,192,24820,1,0,0:0:0:0:
192,192,24950,128,0,25211:0:0:0:0:
448,192,24950,1,0,0:0:0:0:
64,192,24950,1,0,0:0:0:0:
320,192,25211,1,0,0:0:0:0:
64,192,25211,1,0,0:0:0:0:
320,192,25472,1,0,0:0:0:0:
192,192,25472,1,0,0:0:0:0:
448,192,25472,1,0,0:0:0:0:
192,192,25733,1,0,0:0:0:0:
320,192,25733,1,0,0:0:0:0:
64,192,25863,128,0,25994:0:0:0:0:
448,192,25863,128,0,25994:0:0:0:0:
320,192,25994,1,0,0:0:0:0:
192,192,25994,1,0,0:0:0:0:
448,192,26168,128,0,26255:0:0:0:0:
64,192,26168,128,0,26255:0:0:0:0:
320,192,26255,1,0,0:0:0:0:
192,192,26255,1,0,0:0:0:0:
192,192,26516,1,0,0:0:0:0:
320,192,26516,1,0,0:0:0:0:
448,192,26516,1,0,0:0:0:0:
64,192,26777,1,0,0:0:0:0:
320,192,26777,1,0,0:0:0:0:
192,192,26907,1,0,0:0:0:0:
448,192,26907,1,0,0:0:0:0:
448,192,27037,1,0,0:0:0:0:
320,192,27037,1,0,0:0:0:0:
64,192,27037,128,0,27559:0:0:0:0:
192,192,27298,1,0,0:0:0:0:
320,192,27429,1,0,0:0:0:0:
448,192,27559,1,0,0:0:0:0:
192,192,27559,1,0,0:0:0:0:
192,192,27820,128,0,28255:0:0:0:0:
64,192,27820,1,0,0:0:0:0:
320,192,27820,1,0,0:0:0:0:
448,192,28081,1,0,0:0:0:0:
320,192,28255,1,0,0:0:0:0:
448,192,28255,1,0,0:0:0:0:
192,192,28342,1,0,0:0:0:0:
64,192,28342,1,0,0:0:0:0:
448,192,28603,1,0,0:0:0:0:
320,192,28603,1,0,0:0:0:0:
192,192,28603,1,0,0:0:0:0:
64,192,28603,1,0,0:0:0:0:
320,192,28766,1,0,0:0:0:0:
448,192,28766,1,0,0:0:0:0:
192,192,28766,1,0,0:0:0:0:
64,192,28766,1,0,0:0:0:0:
192,192,29124,1,0,0:0:0:0:
448,192,29124,1,0,0:0:0:0:
64,192,29124,128,0,29646:0:0:0:0:
320,192,29385,1,0,0:0:0:0:
448,192,29646,128,0,29907:0:0:0:0:
192,192,29646,1,0,0:0:0:0:
320,192,29646,1,0,0:0:0:0:
192,192,29907,1,0,0:0:0:0:
64,192,29907,1,0,0:0:0:0:
320,192,30081,1,0,0:0:0:0:
448,192,30081,1,0,0:0:0:0:
192,192,30168,1,0,0:0:0:0:
64,192,30168,1,0,0:0:0:0:
320,192,30429,128,0,30690:0:0:0:0:
192,192,30429,1,0,0:0:0:0:
192,192,30690,128,0,30950:0:0:0:0:
64,192,30690,1,0,0:0:0:0:
448,192,30690,1,0,0:0:0:0:
320,192,30950,128,0,31211:0:0:0:0:
448,192,31211,128,0,31733:0:0:0:0:
64,192,31211,1,0,0:0:0:0:
192,192,31472,1,0,0:0:0:0:
64,192,31733,128,0,31994:0:0:0:0:
320,192,31733,1,0,0:0:0:0:
192,192,31733,1,0,0:0:0:0:
320,192,31994,1,0,0:0:0:0:
448,192,31994,1,0,0:0:0:0:
192,192,32168,1,0,0:0:0:0:
64,192,32168,1,0,0:0:0:0:
320,192,32255,1,0,0:0:0:0:
448,192,32255,1,0,0:0:0:0:
64,192,32429,1,0,0:0:0:0:
192,192,32429,1,0,0:0:0:0:
320,192,32516,1,0,0:0:0:0:
448,192,32516,1,0,0:0:0:0:
64,192,32777,1,0,0:0:0:0:
448,192,32777,1,0,0:0:0:0:
192,192,32777,1,0,0:0:0:0:
320,192,33037,1,0,0:0:0:0:
64,192,33298,1,0,0:0:0:0:
448,192,33298,128,0,33559:0:0:0:0:
192,192,33298,1,0,0:0:0:0:
192,192,33559,1,0,0:0:0:0:
320,192,33559,1,0,0:0:0:0:
448,192,33820,1,0,0:0:0:0:
192,192,33820,128,0,34081:0:0:0:0:
64,192,33820,1,0,0:0:0:0:
320,192,34081,1,0,0:0:0:0:
448,192,34081,1,0,0:0:0:0:
192,192,34255,1,0,0:0:0:0:
448,192,34255,1,0,0:0:0:0:
320,192,34342,1,0,0:0:0:0:
64,192,34342,1,0,0:0:0:0:
320,192,34516,1,0,0:0:0:0:
448,192,34516,1,0,0:0:0:0:
64,192,34603,1,0,0:0:0:0:
192,192,34603,128,0,34863:0:0:0:0:
320,192,34863,128,0,35124:0:0:0:0:
448,192,34863,1,0,0:0:0:0:
64,192,34863,1,0,0:0:0:0:
192,192,35124,1,0,0:0:0:0:
64,192,35124,1,0,0:0:0:0:
320,192,35255,1,0,0:0:0:0:
448,192,35255,1,0,0:0:0:0:
64,192,35385,128,0,35777:0:0:0:0:
448,192,35385,128,0,35777:0:0:0:0:
192,192,35385,1,0,0:0:0:0:
192,192,35777,1,0,0:0:0:0:
320,192,35777,1,0,0:0:0:0:
448,192,35907,1,0,0:0:0:0:
64,192,35907,1,0,0:0:0:0:
192,192,36168,128,0,36690:0:0:0:0:
320,192,36168,128,0,36690:0:0:0:0:
64,192,36168,1,0,0:0:0:0:
448,192,36168,1,0,0:0:0:0:
64,192,36690,1,0,0:0:0:0:
448,192,36690,1,0,0:0:0:0:
320,192,36950,1,0,0:0:0:0:
448,192,36950,1,0,0:0:0:0:
64,192,36950,1,0,0:0:0:0:
192,192,36950,1,0,0:0:0:0:
448,192,37124,1,0,0:0:0:0:
64,192,37124,1,0,0:0:0:0:
192,192,37124,1,0,0:0:0:0:
320,192,37124,1,0,0:0:0:0:
64,192,37472,1,0,0:0:0:0:
192,192,37472,1,0,0:0:0:0:
448,192,37472,128,0,37733:0:0:0:0:
320,192,37733,1,0,0:0:0:0:
192,192,37733,1,0,0:0:0:0:
448,192,37994,1,0,0:0:0:0:
320,192,37994,1,0,0:0:0:0:
64,192,37994,128,0,38255:0:0:0:0:
192,192,38255,1,0,0:0:0:0:
320,192,38385,1,0,0:0:0:0:
448,192,38385,1,0,0:0:0:0:
192,192,38516,1,0,0:0:0:0:
64,192,38516,1,0,0:0:0:0:
320,192,38690,1,0,0:0:0:0:
448,192,38690,1,0,0:0:0:0:
64,192,38777,1,0,0:0:0:0:
192,192,38777,128,0,39037:0:0:0:0:
320,192,39037,1,0,0:0:0:0:
448,192,39037,1,0,0:0:0:0:
64,192,39037,1,0,0:0:0:0:
320,192,39298,1,0,0:0:0:0:
192,192,39429,1,0,0:0:0:0:
448,192,39559,1,0,0:0:0:0:
320,192,39559,1,0,0:0:0:0:
64,192,39559,128,0,39820:0:0:0:0:
192,192,39820,1,0,0:0:0:0:
320,192,39820,1,0,0:0:0:0:
64,192,40081,1,0,0:0:0:0:
192,192,40081,1,0,0:0:0:0:
448,192,40081,128,0,40342:0:0:0:0:
320,192,40342,1,0,0:0:0:0:
192,192,40472,1,0,0:0:0:0:
64,192,40472,1,0,0:0:0:0:
320,192,40603,1,0,0:0:0:0:
448,192,40603,1,0,0:0:0:0:
192,192,40777,1,0,0:0:0:0:
64,192,40777,1,0,0:0:0:0:
448,192,40863,1,0,0:0:0:0:
320,192,40863,128,0,41124:0:0:0:0:
192,192,41124,1,0,0:0:0:0:
64,192,41124,1,0,0:0:0:0:
448,192,41124,1,0,0:0:0:0:
320,192,41385,1,0,0:0:0:0:
64,192,41516,1,0,0:0:0:0:
320,192,41646,1,0,0:0:0:0:
192,192,41646,1,0,0:0:0:0:
448,192,41646,128,0,41907:0:0:0:0:
64,192,41907,1,0,0:0:0:0:
192,192,41907,1,0,0:0:0:0:
320,192,42168,1,0,0:0:0:0:
448,192,42168,1,0,0:0:0:0:
64,192,42168,128,0,42429:0:0:0:0:
192,192,42429,1,0,0:0:0:0:
320,192,42429,1,0,0:0:0:0:
448,192,42559,1,0,0:0:0:0:
64,192,42559,1,0,0:0:0:0:
64,192,42863,1,0,0:0:0:0:
448,192,42863,1,0,0:0:0:0:
320,192,42950,1,0,0:0:0:0:
192,192,42950,128,0,43211:0:0:0:0:
320,192,43211,1,0,0:0:0:0:
448,192,43211,1,0,0:0:0:0:
64,192,43211,1,0,0:0:0:0:
448,192,43472,1,0,0:0:0:0:
192,192,43472,1,0,0:0:0:0:
320,192,43603,1,0,0:0:0:0:
192,192,43733,1,0,0:0:0:0:
64,192,43733,1,0,0:0:0:0:
448,192,43733,128,0,43994:0:0:0:0:
320,192,43994,1,0,0:0:0:0:
192,192,44124,1,0,0:0:0:0:
64,192,44124,1,0,0:0:0:0:
64,192,44255,1,0,0:0:0:0:
320,192,44255,1,0,0:0:0:0:
448,192,44255,1,0,0:0:0:0:
320,192,44516,1,0,0:0:0:0:
448,192,44516,1,0,0:0:0:0:
192,192,44516,1,0,0:0:0:0:
64,192,44516,128,0,44950:0:0:0:0:
192,192,44777,1,0,0:0:0:0:
448,192,44950,1,0,0:0:0:0:
320,192,44950,1,0,0:0:0:0:
192,192,45037,1,0,0:0:0:0:
64,192,45037,1,0,0:0:0:0:
320,192,45298,1,0,0:0:0:0:
448,192,45298,1,0,0:0:0:0:
64,192,45298,1,0,0:0:0:0:
64,192,45559,1,0,0:0:0:0:
192,192,45559,1,0,0:0:0:0:
448,192,45690,1,0,0:0:0:0:
320,192,45690,1,0,0:0:0:0:
64,192,45820,128,0,46211:0:0:0:0:
448,192,45820,128,0,46211:0:0:0:0:
192,192,45820,128,0,45950:0:0:0:0:
320,192,45820,1,0,0:0:0:0:
320,192,46081,128,0,46211:0:0:0:0:
64,192,46342,128,0,46733:0:0:0:0:
192,192,46342,128,0,46733:0:0:0:0:
448,192,46342,128,0,46472:0:0:0:0:
320,192,46342,1,0,0:0:0:0:
320,192,46603,128,0,46733:0:0:0:0:
448,192,46603,1,0,0:0:0:0:
320,192,46863,128,0,47255:0:0:0:0:
448,192,46863,128,0,47255:0:0:0:0:
64,192,46863,128,0,46994:0:0:0:0:
192,192,46863,1,0,0:0:0:0:
192,192,47124,1,0,0:0:0:0:
64,192,47124,1,0,0:0:0:0:
192,192,47385,128,0,47777:0:0:0:0:
320,192,47385,128,0,47777:0:0:0:0:
64,192,47385,1,0,0:0:0:0:
448,192,47385,1,0,0:0:0:0:
448,192,47646,128,0,47777:0:0:0:0:
64,192,47646,1,0,0:0:0:0:
64,192,47907,128,0,48298:0:0:0:0:
448,192,47907,128,0,48298:0:0:0:0:
320,192,47907,128,0,48037:0:0:0:0:
192,192,47907,1,0,0:0:0:0:
192,192,48168,128,0,48298:0:0:0:0:
320,192,48168,1,0,0:0:0:0:
64,192,48429,128,0,48820:0:0:0:0:
320,192,48429,128,0,48690:0:0:0:0:
448,192,48429,128,0,48559:0:0:0:0:
192,192,48429,1,0,0:0:0:0:
192,192,48690,128,0,48820:0:0:0:0:
448,192,48690,1,0,0:0:0:0:
320,192,48820,128,0,48950:0:0:0:0:
448,192,48950,128,0,49342:0:0:0:0:
64,192,48950,128,0,49081:0:0:0:0:
192,192,48950,128,0,49342:0:0:0:0:
320,192,49211,1,0,0:0:0:0:
64,192,49211,1,0,0:0:0:0:
320,192,49472,1,0,0:0:0:0:
448,192,49472,1,0,0:0:0:0:
64,192,49472,1,0,0:0:0:0:
320,192,49603,1,0,0:0:0:0:
448,192,49603,1,0,0:0:0:0:
192,192,49668,1,0,0:0:0:0:
64,192,49733,128,0,49994:0:0:0:0:
448,192,49733,1,0,0:0:0:0:
320,192,49820,1,0,0:0:0:0:
192,192,49907,1,0,0:0:0:0:
320,192,49994,128,0,50516:0:0:0:0:
448,192,49994,1,0,0:0:0:0:
192,192,50255,1,0,0:0:0:0:
64,192,50255,1,0,0:0:0:0:
64,192,50516,1,0,0:0:0:0:
192,192,50516,1,0,0:0:0:0:
448,192,50516,1,0,0:0:0:0:
320,192,50777,1,0,0:0:0:0:
64,192,50907,1,0,0:0:0:0:
448,192,50907,1,0,0:0:0:0:
192,192,51037,128,0,51559:0:0:0:0:
320,192,51037,1,0,0:0:0:0:
64,192,51037,1,0,0:0:0:0:
320,192,51298,1,0,0:0:0:0:
448,192,51298,1,0,0:0:0:0:
448,192,51559,1,0,0:0:0:0:
320,192,51559,1,0,0:0:0:0:
64,192,51559,1,0,0:0:0:0:
192,192,51820,1,0,0:0:0:0:
320,192,51950,1,0,0:0:0:0:
64,192,52081,128,0,52863:0:0:0:0:
448,192,52081,1,0,0:0:0:0:
192,192,52081,1,0,0:0:0:0:
320,192,52342,1,0,0:0:0:0:
192,192,52472,1,0,0:0:0:0:
448,192,52603,128,0,52863:0:0:0:0:
192,192,52863,1,0,0:0:0:0:
320,192,52863,128,0,53298:0:0:0:0:
64,192,53124,1,0,0:0:0:0:
448,192,53298,1,0,0:0:0:0:
192,192,53298,1,0,0:0:0:0:
320,192,53385,1,0,0:0:0:0:
64,192,53385,128,0,53646:0:0:0:0:
192,192,53646,1,0,0:0:0:0:
448,192,53646,1,0,0:0:0:0:
320,192,53646,1,0,0:0:0:0:
448,192,53809,1,0,0:0:0:0:
320,192,53809,1,0,0:0:0:0:
192,192,53907,1,0,0:0:0:0:
64,192,53907,1,0,0:0:0:0:
192,192,54168,1,0,0:0:0:0:
64,192,54168,1,0,0:0:0:0:
320,192,54168,128,0,54559:0:0:0:0:
448,192,54168,128,0,54690:0:0:0:0:
192,192,54559,128,0,54690:0:0:0:0:
64,192,54690,1,0,0:0:0:0:
320,192,54690,1,0,0:0:0:0:
192,192,54820,1,0,0:0:0:0:
320,192,54885,1,0,0:0:0:0:
64,192,54950,1,0,0:0:0:0:
448,192,54950,1,0,0:0:0:0:
320,192,55081,1,0,0:0:0:0:
64,192,55211,1,0,0:0:0:0:
448,192,55211,1,0,0:0:0:0:
192,192,55211,128,0,55472:0:0:0:0:
320,192,55472,1,0,0:0:0:0:
192,192,55603,1,0,0:0:0:0:
448,192,55733,1,0,0:0:0:0:
64,192,55733,128,0,55994:0:0:0:0:
320,192,55994,1,0,0:0:0:0:
448,192,55994,1,0,0:0:0:0:
192,192,56124,1,0,0:0:0:0:
64,192,56255,1,0,0:0:0:0:
320,192,56255,1,0,0:0:0:0:
448,192,56255,128,0,56777:0:0:0:0:
320,192,56646,1,0,0:0:0:0:
192,192,56777,1,0,0:0:0:0:
64,192,56777,1,0,0:0:0:0:
320,192,56907,1,0,0:0:0:0:
64,192,56950,1,0,0:0:0:0:
448,192,57037,1,0,0:0:0:0:
320,192,57124,1,0,0:0:0:0:
192,192,57168,1,0,0:0:0:0:
320,192,57298,1,0,0:0:0:0:
448,192,57298,1,0,0:0:0:0:
64,192,57298,1,0,0:0:0:0:
192,192,57472,1,0,0:0:0:0:
448,192,57559,1,0,0:0:0:0:
64,192,57646,1,0,0:0:0:0:
320,192,57690,1,0,0:0:0:0:
64,192,57820,1,0,0:0:0:0:
448,192,57820,1,0,0:0:0:0:
192,192,57820,1,0,0:0:0:0:
320,192,58081,1,0,0:0:0:0:
64,192,58211,1,0,0:0:0:0:
192,192,58277,1,0,0:0:0:0:
448,192,58342,1,0,0:0:0:0:
320,192,58342,1,0,0:0:0:0:
64,192,58342,128,0,58733:0:0:0:0:
192,192,58603,1,0,0:0:0:0:
448,192,58733,128,0,58863:0:0:0:0:
320,192,58863,1,0,0:0:0:0:
64,192,58863,1,0,0:0:0:0:
192,192,59124,1,0,0:0:0:0:
448,192,59124,1,0,0:0:0:0:
320,192,59255,1,0,0:0:0:0:
64,192,59385,1,0,0:0:0:0:
192,192,59385,1,0,0:0:0:0:
448,192,59385,128,0,59907:0:0:0:0:
320,192,59646,1,0,0:0:0:0:
64,192,59777,1,0,0:0:0:0:
192,192,59907,128,0,60298:0:0:0:0:
320,192,59907,1,0,0:0:0:0:
448,192,60168,1,0,0:0:0:0:
64,192,60168,1,0,0:0:0:0:
320,192,60298,1,0,0:0:0:0:
448,192,60429,1,0,0:0:0:0:
192,192,60429,1,0,0:0:0:0:
64,192,60429,128,0,60950:0:0:0:0:
320,192,60690,1,0,0:0:0:0:
192,192,60820,128,0,60950:0:0:0:0:
448,192,60950,1,0,0:0:0:0:
320,192,60950,1,0,0:0:0:0:
64,192,61211,1,0,0:0:0:0:
192,192,61211,1,0,0:0:0:0:
448,192,61472,1,0,0:0:0:0:
320,192,61472,1,0,0:0:0:0:
64,192,61472,1,0,0:0:0:0:
192,192,61733,1,0,0:0:0:0:
320,192,61733,1,0,0:0:0:0:
192,192,61994,1,0,0:0:0:0:
64,192,61994,1,0,0:0:0:0:
320,192,61994,1,0,0:0:0:0:
448,192,61994,1,0,0:0:0:0:
192,192,62255,1,0,0:0:0:0:
64,192,62255,1,0,0:0:0:0:
320,192,62385,1,0,0:0:0:0:
448,192,62385,1,0,0:0:0:0:
448,192,62516,1,0,0:0:0:0:
192,192,62516,1,0,0:0:0:0:
64,192,62516,1,0,0:0:0:0:
320,192,62516,1,0,0:0:0:0:
192,192,62777,1,0,0:0:0:0:
64,192,63037,1,0,0:0:0:0:
320,192,63037,1,0,0:0:0:0:
448,192,63037,1,0,0:0:0:0:
192,192,63168,1,0,0:0:0:0:
448,192,63298,1,0,0:0:0:0:
320,192,63429,1,0,0:0:0:0:
192,192,63559,1,0,0:0:0:0:
64,192,63559,1,0,0:0:0:0:
320,192,63690,1,0,0:0:0:0:
448,192,63690,1,0,0:0:0:0:
192,192,63820,1,0,0:0:0:0:
64,192,63950,1,0,0:0:0:0:
320,192,63950,1,0,0:0:0:0:
448,192,63950,1,0,0:0:0:0:
64,192,64211,1,0,0:0:0:0:
192,192,64211,1,0,0:0:0:0:
448,192,64211,1,0,0:0:0:0:
320,192,64342,128,0,64603:0:0:0:0:
64,192,64603,1,0,0:0:0:0:
192,192,64603,1,0,0:0:0:0:
320,192,64863,1,0,0:0:0:0:
448,192,65124,1,0,0:0:0:0:
192,192,65124,1,0,0:0:0:0:
64,192,65124,1,0,0:0:0:0:
320,192,65255,1,0,0:0:0:0:
64,192,65385,1,0,0:0:0:0:
192,192,65516,1,0,0:0:0:0:
64,192,65646,1,0,0:0:0:0:
320,192,65646,1,0,0:0:0:0:
448,192,65777,1,0,0:0:0:0:
192,192,65777,1,0,0:0:0:0:
320,192,66037,1,0,0:0:0:0:
448,192,66037,1,0,0:0:0:0:
64,192,66037,1,0,0:0:0:0:
192,192,66298,1,0,0:0:0:0:
448,192,66298,1,0,0:0:0:0:
64,192,66298,1,0,0:0:0:0:
320,192,66429,1,0,0:0:0:0:
192,192,66559,1,0,0:0:0:0:
448,192,66690,1,0,0:0:0:0:
64,192,66690,128,0,66950:0:0:0:0:
320,192,66690,1,0,0:0:0:0:
192,192,66950,1,0,0:0:0:0:
320,192,66950,128,0,67211:0:0:0:0:
448,192,66950,1,0,0:0:0:0:
64,192,67211,1,0,0:0:0:0:
192,192,67211,128,0,67472:0:0:0:0:
448,192,67472,1,0,0:0:0:0:
64,192,67472,1,0,0:0:0:0:
320,192,67472,128,0,67733:0:0:0:0:
192,192,67733,1,0,0:0:0:0:
448,192,67733,128,0,67994:0:0:0:0:
320,192,67994,1,0,0:0:0:0:
192,192,67994,1,0,0:0:0:0:
64,192,67994,128,0,68255:0:0:0:0:
192,192,68255,128,0,68516:0:0:0:0:
448,192,68255,1,0,0:0:0:0:
64,192,68516,1,0,0:0:0:0:
320,192,68516,1,0,0:0:0:0:
448,192,68516,1,0,0:0:0:0:
192,192,68777,1,0,0:0:0:0:
64,192,68777,1,0,0:0:0:0:
320,192,68777,1,0,0:0:0:0:
192,192,69037,1,0,0:0:0:0:
64,192,69037,1,0,0:0:0:0:
320,192,69037,1,0,0:0:0:0:
320,192,69298,1,0,0:0:0:0:
448,192,69298,1,0,0:0:0:0:
64,192,69298,1,0,0:0:0:0:
64,192,69559,1,0,0:0:0:0:
320,192,69559,1,0,0:0:0:0:
448,192,69559,1,0,0:0:0:0:
192,192,69820,1,0,0:0:0:0:
320,192,69820,1,0,0:0:0:0:
448,192,69820,1,0,0:0:0:0:
320,192,70081,1,0,0:0:0:0:
448,192,70081,1,0,0:0:0:0:
64,192,70211,1,0,0:0:0:0:
192,192,70211,1,0,0:0:0:0:
448,192,70277,1,0,0:0:0:0:
320,192,70309,1,0,0:0:0:0:
192,192,70342,1,0,0:0:0:0:
64,192,70374,1,0,0:0:0:0:
448,192,70407,1,0,0:0:0:0:
320,192,70440,1,0,0:0:0:0:
192,192,70472,1,0,0:0:0:0:
64,192,70505,1,0,0:0:0:0:
448,192,70537,1,0,0:0:0:0:
320,192,70570,1,0,0:0:0:0:
192,192,70603,1,0,0:0:0:0:
64,192,70635,1,0,0:0:0:0:
448,192,70668,1,0,0:0:0:0:
320,192,70700,1,0,0:0:0:0:
192,192,70733,1,0,0:0:0:0:
64,192,70766,1,0,0:0:0:0:
448,192,70798,1,0,0:0:0:0:
320,192,70831,1,0,0:0:0:0:
192,192,70863,1,0,0:0:0:0:
64,192,70863,1,0,0:0:0:0:
448,192,70994,1,0,0:0:0:0:
320,192,71124,1,0,0:0:0:0:
64,192,71124,1,0,0:0:0:0:
192,192,71255,1,0,0:0:0:0:
64,192,71385,1,0,0:0:0:0:
448,192,71385,1,0,0:0:0:0:
320,192,71385,1,0,0:0:0:0:
192,192,71516,1,0,0:0:0:0:
320,192,71646,1,0,0:0:0:0:
448,192,71646,1,0,0:0:0:0:
64,192,71777,1,0,0:0:0:0:
192,192,71907,1,0,0:0:0:0:
64,192,71907,1,0,0:0:0:0:
448,192,71907,1,0,0:0:0:0:
320,192,72037,1,0,0:0:0:0:
192,192,72037,1,0,0:0:0:0:
64,192,72168,1,0,0:0:0:0:
448,192,72168,1,0,0:0:0:0:
320,192,72298,1,0,0:0:0:0:
192,192,72298,1,0,0:0:0:0:
192,192,72429,1,0,0:0:0:0:
64,192,72429,1,0,0:0:0:0:
448,192,72429,1,0,0:0:0:0:
320,192,72559,1,0,0:0:0:0:
192,192,72690,1,0,0:0:0:0:
64,192,72690,1,0,0:0:0:0:
448,192,72820,1,0,0:0:0:0:
320,192,72820,1,0,0:0:0:0:
448,192,72950,1,0,0:0:0:0:
192,192,72950,1,0,0:0:0:0:
64,192,72950,1,0,0:0:0:0:
320,192,73081,1,0,0:0:0:0:
192,192,73211,1,0,0:0:0:0:
448,192,73211,1,0,0:0:0:0:
64,192,73342,1,0,0:0:0:0:
192,192,73472,1,0,0:0:0:0:
320,192,73472,1,0,0:0:0:0:
448,192,73472,1,0,0:0:0:0:
320,192,73603,1,0,0:0:0:0:
64,192,73733,1,0,0:0:0:0:
192,192,73733,1,0,0:0:0:0:
448,192,73863,1,0,0:0:0:0:
320,192,73994,1,0,0:0:0:0:
192,192,73994,1,0,0:0:0:0:
64,192,73994,1,0,0:0:0:0:
192,192,74124,1,0,0:0:0:0:
448,192,74124,1,0,0:0:0:0:
320,192,74255,1,0,0:0:0:0:
64,192,74255,1,0,0:0:0:0:
192,192,74385,1,0,0:0:0:0:
64,192,74385,1,0,0:0:0:0:
448,192,74385,1,0,0:0:0:0:
320,192,74516,1,0,0:0:0:0:
192,192,74646,1,0,0:0:0:0:
64,192,74646,1,0,0:0:0:0:
448,192,74646,1,0,0:0:0:0:
320,192,74777,1,0,0:0:0:0:
192,192,74907,1,0,0:0:0:0:
448,192,74907,1,0,0:0:0:0:
320,192,75037,1,0,0:0:0:0:
448,192,75037,1,0,0:0:0:0:
64,192,75037,1,0,0:0:0:0:
192,192,75168,1,0,0:0:0:0:
320,192,75298,1,0,0:0:0:0:
448,192,75298,1,0,0:0:0:0:
192,192,75429,1,0,0:0:0:0:
64,192,75559,1,0,0:0:0:0:
448,192,75559,1,0,0:0:0:0:
320,192,75559,1,0,0:0:0:0:
192,192,75690,1,0,0:0:0:0:
448,192,75820,1,0,0:0:0:0:
64,192,75820,1,0,0:0:0:0:
320,192,75950,1,0,0:0:0:0:
64,192,76081,1,0,0:0:0:0:
448,192,76081,1,0,0:0:0:0:
192,192,76081,1,0,0:0:0:0:
320,192,76211,1,0,0:0:0:0:
192,192,76211,1,0,0:0:0:0:
64,192,76342,1,0,0:0:0:0:
448,192,76342,1,0,0:0:0:0:
320,192,76472,1,0,0:0:0:0:
192,192,76472,1,0,0:0:0:0:
64,192,76603,1,0,0:0:0:0:
320,192,76603,1,0,0:0:0:0:
448,192,76603,1,0,0:0:0:0:
192,192,76733,1,0,0:0:0:0:
448,192,76733,1,0,0:0:0:0:
320,192,76863,1,0,0:0:0:0:
64,192,76863,1,0,0:0:0:0:
192,192,76994,1,0,0:0:0:0:
448,192,76994,1,0,0:0:0:0:
448,192,77124,1,0,0:0:0:0:
64,192,77124,1,0,0:0:0:0:
320,192,77124,128,0,77385:0:0:0:0:
64,192,77385,128,0,77646:0:0:0:0:
192,192,77385,1,0,0:0:0:0:
192,192,77646,128,0,77907:0:0:0:0:
320,192,77646,1,0,0:0:0:0:
448,192,77646,1,0,0:0:0:0:
448,192,77907,128,0,78103:0:0:0:0:
320,192,77907,1,0,0:0:0:0:
64,192,77972,1,0,0:0:0:0:
192,192,78037,1,0,0:0:0:0:
320,192,78103,1,0,0:0:0:0:
192,192,78168,1,0,0:0:0:0:
64,192,78168,1,0,0:0:0:0:
448,192,78168,1,0,0:0:0:0:
192,192,78429,1,0,0:0:0:0:
320,192,78429,1,0,0:0:0:0:
64,192,78429,1,0,0:0:0:0:
320,192,78690,1,0,0:0:0:0:
448,192,78690,1,0,0:0:0:0:
192,192,78690,1,0,0:0:0:0:
64,192,78863,1,0,0:0:0:0:
192,192,78863,1,0,0:0:0:0:
320,192,78950,1,0,0:0:0:0:
448,192,78950,1,0,0:0:0:0:
192,192,79211,1,0,0:0:0:0:
64,192,79211,1,0,0:0:0:0:
448,192,79211,128,0,79472:0:0:0:0:
320,192,79211,128,0,79342:0:0:0:0:
192,192,79342,128,0,79472:0:0:0:0:
64,192,79472,128,0,79603:0:0:0:0:
320,192,79472,128,0,79603:0:0:0:0:
448,192,79603,128,0,79733:0:0:0:0:
192,192,79603,128,0,79733:0:0:0:0:
320,192,79733,128,0,79994:0:0:0:0:
64,192,79733,1,0,0:0:0:0:
64,192,79863,128,0,79994:0:0:0:0:
192,192,79994,128,0,80255:0:0:0:0:
448,192,79994,128,0,80124:0:0:0:0:
320,192,80124,1,0,0:0:0:0:
64,192,80255,128,0,80516:0:0:0:0:
320,192,80255,128,0,80385:0:0:0:0:
448,192,80255,1,0,0:0:0:0:
192,192,80385,128,0,80516:0:0:0:0:
320,192,80516,128,0,80777:0:0:0:0:
448,192,80516,128,0,80646:0:0:0:0:
192,192,80646,1,0,0:0:0:0:
448,192,80777,128,0,80907:0:0:0:0:
192,192,80777,128,0,80907:0:0:0:0:
64,192,80777,1,0,0:0:0:0:
320,192,80907,128,0,81037:0:0:0:0:
448,192,81037,128,0,81233:0:0:0:0:
192,192,81037,1,0,0:0:0:0:
64,192,81037,128,0,81168:0:0:0:0:
320,192,81168,1,0,0:0:0:0:
192,192,81168,128,0,81298:0:0:0:0:
64,192,81298,1,0,0:0:0:0:
448,192,81298,128,0,81494:0:0:0:0:
320,192,81298,128,0,81494:0:0:0:0:
448,192,81559,1,0,0:0:0:0:
320,192,81559,128,0,81755:0:0:0:0:
192,192,81559,128,0,81755:0:0:0:0:
320,192,81820,1,0,0:0:0:0:
64,192,81820,128,0,82016:0:0:0:0:
192,192,81820,128,0,82016:0:0:0:0:
192,192,82081,1,0,0:0:0:0:
64,192,82081,128,0,82277:0:0:0:0:
448,192,82081,128,0,82277:0:0:0:0:
320,192,82211,1,0,0:0:0:0:
192,192,82277,1,0,0:0:0:0:
64,192,82342,1,0,0:0:0:0:
448,192,82342,128,0,82603:0:0:0:0:
320,192,82603,128,0,82777:0:0:0:0:
192,192,82603,1,0,0:0:0:0:
64,192,82777,1,0,0:0:0:0:
192,192,82777,1,0,0:0:0:0:
320,192,82863,1,0,0:0:0:0:
448,192,82863,1,0,0:0:0:0:
320,192,83037,1,0,0:0:0:0:
448,192,83037,1,0,0:0:0:0:
64,192,83124,1,0,0:0:0:0:
192,192,83124,1,0,0:0:0:0:
320,192,83298,1,0,0:0:0:0:
192,192,83298,1,0,0:0:0:0:
64,192,83385,1,0,0:0:0:0:
448,192,83385,1,0,0:0:0:0:
320,192,83385,1,0,0:0:0:0:
192,192,83516,1,0,0:0:0:0:
64,192,83646,1,0,0:0:0:0:
448,192,83646,1,0,0:0:0:0:
320,192,83777,1,0,0:0:0:0:
192,192,83907,1,0,0:0:0:0:
64,192,83907,1,0,0:0:0:0:
448,192,83907,1,0,0:0:0:0:
320,192,84037,1,0,0:0:0:0:
192,192,84103,1,0,0:0:0:0:
64,192,84168,1,0,0:0:0:0:
448,192,84168,1,0,0:0:0:0:
192,192,84298,1,0,0:0:0:0:
448,192,84342,1,0,0:0:0:0:
64,192,84429,1,0,0:0:0:0:
320,192,84429,1,0,0:0:0:0:
192,192,84559,1,0,0:0:0:0:
320,192,84690,1,0,0:0:0:0:
448,192,84690,1,0,0:0:0:0:
192,192,84820,1,0,0:0:0:0:
448,192,84863,1,0,0:0:0:0:
320,192,84863,1,0,0:0:0:0:
192,192,84950,1,0,0:0:0:0:
64,192,84950,1,0,0:0:0:0:
448,192,84950,1,0,0:0:0:0:
320,192,85081,1,0,0:0:0:0:
192,192,85211,1,0,0:0:0:0:
448,192,85211,1,0,0:0:0:0:
64,192,85342,1,0,0:0:0:0:
192,192,85385,1,0,0:0:0:0:
320,192,85429,1,0,0:0:0:0:
192,192,85472,1,0,0:0:0:0:
448,192,85472,128,0,86385:0:0:0:0:
64,192,85472,128,0,86385:0:0:0:0:
64,192,86516,128,0,86777:0:0:0:0:
192,192,86516,128,0,86777:0:0:0:0:
320,192,86516,128,0,86777:0:0:0:0:
448,192,86516,128,0,86777:0:0:0:0:
64,192,86907,128,0,87168:0:0:0:0:
192,192,86907,128,0,87168:0:0:0:0:
320,192,86907,128,0,87168:0:0:0:0:
448,192,86907,128,0,87168:0:0:0:0:
64,192,87298,128,0,87559:0:0:0:0:
192,192,87298,128,0,87559:0:0:0:0:
320,192,87298,128,0,87559:0:0:0:0:
448,192,87298,128,0,87559:0:0:0:0:
64,192,87820,128,0,88472:0:0:0:0:
192,192,87820,128,0,88472:0:0:0:0:
320,192,87820,128,0,88472:0:0:0:0:
448,192,87820,128,0,88472:0:0:0:0:
64,192,88537,1,0,0:0:0:0:
192,192,88537,1,0,0:0:0:0:
320,192,88570,1,0,0:0:0:0:
448,192,88603,1,0,0:0:0:0:
64,192,88603,1,0,0:0:0:0:
192,192,88635,1,0,0:0:0:0:
320,192,88668,1,0,0:0:0:0:
448,192,88668,1,0,0:0:0:0:
