osu file format v14

[General]
AudioFilename: audio.mp3
AudioLeadIn: 0
PreviewTime: 70034
Countdown: 0
SampleSet: Soft
StackLeniency: 0.7
Mode: 3
LetterboxInBreaks: 0
SpecialStyle: 0
WidescreenStoryboard: 0

[Editor]
DistanceSpacing: 1
BeatDivisor: 8
GridSize: 8
TimelineZoom: 1.3

[Metadata]
Title:Iwanai kedo ne. (TV Size)
TitleUnicode:言わないけどね。 (TV Size)
Artist:Ohara Yuiko
ArtistUnicode:大原ゆい子
Creator:TheNewBungping
Version:Tofu's Koi
Source:からかい上手の高木さん
Tags:karakai jouzu no takagi-san skilled teaser op opening tofu1222 dr_Marc
BeatmapID:1518944
BeatmapSetID:718691

[Difficulty]
HPDrainRate:8
CircleSize:4
OverallDifficulty:8
ApproachRate:5
SliderMultiplier:1.4
SliderTickRate:1

[Events]
//Background and Video events
Video,0,"Video.mp4"
0,0,"bg_takagi.jpg",0,0
//Break Periods
//Storyboard Layer 0 (Background)
//Storyboard Layer 1 (Fail)
//Storyboard Layer 2 (Pass)
//Storyboard Layer 3 (Foreground)
//Storyboard Sound Samples
Sample,12904,0,"C#7S_Db7S_s.wav",100
Sample,13165,0,"C7S_s.wav",100
Sample,13426,0,"A#6S_Bb6S_s.wav",100
Sample,13686,0,"C7S_s.wav",100
Sample,13947,0,"G#6S_Ab6S_s.wav",100
Sample,14599,0,"C#7S_Db7S_s.wav",100
Sample,14795,0,"G#7S_Ab7S_s.wav",100
Sample,14860,0,"D#7S_Eb7S_s.wav",100
Sample,14926,0,"C#7S_Db7S_s.wav",100
Sample,14991,0,"G#6S_Ab6S_s.wav",100
Sample,54773,0,"F6S_s.wav",100
Sample,54903,0,"F6S_s.wav",100
Sample,55164,0,"D#7S_Eb7S_s.wav",100
Sample,56208,0,"D#6S_Eb6S_s.wav",100
Sample,56730,0,"A#5S_Bb5S_s.wav",100
Sample,56903,0,"D#6S_Eb6S_s.wav",100
Sample,57077,0,"G6S_s.wav",100
Sample,57251,0,"A#6S_Bb6S_s.wav",100
Sample,57425,0,"D#7S_Eb7S_s.wav",100
Sample,57599,0,"G7S_s.wav",100
Sample,57773,0,"A#7S_Bb7S_s.wav",100
Sample,74990,0,"C7S_s.wav",100
Sample,77860,0,"C#7S_Db7S_s.wav",100
Sample,78121,0,"C7S_s.wav",100
Sample,78382,0,"C#7S_Db7S_s.wav",100
Sample,78643,0,"D#7S_Eb7S_s.wav",100
Sample,82295,0,"C#7S_Db7S_s.wav",100
Sample,82556,0,"C7S_s.wav",100
Sample,82816,0,"A#6S_Bb6S_s.wav",100
Sample,83077,0,"C7S_s.wav",100
Sample,83338,0,"G#6S_Ab6S_s.wav",100
Sample,83990,0,"G#7S_Ab7S_s.wav",100
Sample,84056,0,"D#7S_Eb7S_s.wav",100
Sample,84121,0,"C#7S_Db7S_s.wav",100
Sample,84251,0,"G#6S_Ab6S_s.wav",100
Sample,88425,0,"G#7S_Ab7S_s.wav",100
Sample,88490,0,"C8S_s.wav",100
Sample,88556,0,"F8S_s.wav",100

[TimingPoints]
1426,521.739130434783,4,2,1,25,1,0
17599,-100,4,2,1,60,0,0
20730,521.739130434783,4,2,1,40,1,0
54121,-100,4,2,1,30,0,0
62469,-100,4,2,1,40,0,0
66643,-100,4,2,1,50,0,0
70816,-100,4,2,1,60,0,1
83338,-100,4,2,1,40,0,0

[HitObjects]
64,192,1426,5,0,0:0:0:0:
320,192,1426,1,0,0:0:0:0:
448,192,1426,128,0,1947:0:0:0:0:
192,192,1686,1,0,0:0:0:0:
64,192,1817,1,0,0:0:0:0:
320,192,1947,1,0,0:0:0:0:
64,192,2208,1,0,0:0:0:0:
192,192,2469,1,0,0:0:0:0:
320,192,2469,1,0,0:0:0:0:
448,192,2730,1,0,0:0:0:0:
64,192,2991,1,0,0:0:0:0:
320,192,3252,1,0,0:0:0:0:
64,192,3512,128,0,4034:0:0:0:0:
192,192,3512,1,0,0:0:0:0:
448,192,3512,1,0,0:0:0:0:
320,192,3773,1,0,0:0:0:0:
448,192,3904,1,0,0:0:0:0:
192,192,4034,1,0,0:0:0:0:
320,192,4295,1,0,0:0:0:0:
64,192,4556,1,0,0:0:0:0:
448,192,4556,1,0,0:0:0:0:
320,192,4686,1,0,0:0:0:0:
448,192,4947,1,0,0:0:0:0:
64,192,5078,1,0,0:0:0:0:
192,192,5078,1,0,0:0:0:0:
320,192,5339,1,0,0:0:0:0:
64,192,5599,1,0,0:0:0:0:
192,192,5599,128,0,6121:0:0:0:0:
448,192,5599,1,0,0:0:0:0:
320,192,5860,1,0,0:0:0:0:
448,192,5991,1,0,0:0:0:0:
64,192,6121,1,0,0:0:0:0:
448,192,6382,128,0,6643:0:0:0:0:
64,192,6643,1,0,0:0:0:0:
192,192,6643,1,0,0:0:0:0:
320,192,6643,128,0,7165:0:0:0:0:
448,192,6904,1,0,0:0:0:0:
64,192,7165,1,0,0:0:0:0:
192,192,7426,1,0,0:0:0:0:
64,192,7686,128,0,8208:0:0:0:0:
320,192,7686,1,0,0:0:0:0:
448,192,7686,1,0,0:0:0:0:
192,192,7947,1,0,0:0:0:0:
448,192,8078,1,0,0:0:0:0:
320,192,8208,1,0,0:0:0:0:
192,192,8469,1,0,0:0:0:0:
64,192,8730,1,0,0:0:0:0:
320,192,8991,1,0,0:0:0:0:
64,192,9252,1,0,0:0:0:0:
192,192,9252,1,0,0:0:0:0:
448,192,9252,128,0,9512:0:0:0:0:
320,192,9512,1,0,0:0:0:0:
64,192,9773,128,0,10295:0:0:0:0:
192,192,9773,1,0,0:0:0:0:
448,192,9773,1,0,0:0:0:0:
320,192,10034,1,0,0:0:0:0:
192,192,10165,1,0,0:0:0:0:
448,192,10295,1,0,0:0:0:0:
192,192,10556,128,0,10817:0:0:0:0:
64,192,10817,1,0,0:0:0:0:
320,192,10817,1,0,0:0:0:0:
448,192,10817,128,0,11339:0:0:0:0:
320,192,11599,1,0,0:0:0:0:
64,192,11860,128,0,12382:0:0:0:0:
192,192,11860,1,0,0:0:0:0:
448,192,11860,1,0,0:0:0:0:
320,192,12121,1,0,0:0:0:0:
448,192,12252,1,0,0:0:0:0:
192,192,12382,1,0,0:0:0:0:
320,192,12643,1,0,0:0:0:0:
192,192,12904,1,0,0:0:0:0:
448,192,12904,1,0,0:0:0:0:
64,192,12904,1,0,0:0:0:0:
64,192,13165,1,0,0:0:0:0:
320,192,13426,1,0,0:0:0:0:
192,192,13426,1,0,0:0:0:0:
320,192,13686,1,0,0:0:0:0:
192,192,13947,1,0,0:0:0:0:
448,192,13947,128,0,14469:0:0:0:0:
64,192,13947,1,0,0:0:0:0:
320,192,14208,1,0,0:0:0:0:
64,192,14469,1,0,0:0:0:0:
192,192,14599,1,0,0:0:0:0:
448,192,14795,1,0,0:0:0:0:
320,192,14860,1,0,0:0:0:0:
192,192,14926,1,0,0:0:0:0:
448,192,14991,1,0,0:0:0:0:
64,192,14991,1,0,0:0:0:0:
320,192,15252,1,0,0:0:0:0:
192,192,15512,1,0,0:0:0:0:
320,192,15773,1,0,0:0:0:0:
64,192,16034,128,0,17599:0:0:0:0:
192,192,16034,1,0,0:0:0:0:
448,192,16034,1,0,0:0:0:0:
320,192,16817,1,0,0:0:0:0:
192,192,17078,1,0,0:0:0:0:
448,192,17339,128,0,17599:0:0:0:0:
192,192,17599,1,0,0:0:0:0:
320,192,17599,1,0,0:0:0:0:
448,192,17773,1,0,0:0:0:0:
64,192,17860,1,0,0:0:0:0:
192,192,18121,1,8,0:0:0:0:
320,192,18121,1,4,0:0:0:0:
448,192,18121,1,0,0:0:0:0:
448,192,18382,1,2,0:2:0:0:
64,192,18512,1,8,0:0:0:0:
192,192,18512,1,0,0:0:0:0:
320,192,18512,1,0,0:0:0:0:
320,192,18773,1,2,0:2:0:0:
64,192,18904,128,8,19426:0:0:0:0:
192,192,18904,1,0,0:0:0:0:
448,192,18904,1,0,0:0:0:0:
320,192,19426,1,0,0:0:0:0:
64,192,19686,1,8,0:0:0:0:
192,192,19686,1,0,0:0:0:0:
448,192,19686,1,0,0:0:0:0:
64,192,19849,1,8,0:0:0:0:
192,192,19849,1,0,0:0:0:0:
448,192,19849,1,0,0:0:0:0:
320,192,20078,1,8,0:0:0:0:
192,192,20143,1,8,0:0:0:0:
64,192,20208,1,8,0:0:0:0:
320,192,20382,1,2,0:0:0:0:
448,192,20382,1,0,0:0:0:0:
64,192,20469,1,2,0:0:0:0:
192,192,20469,1,0,0:0:0:0:
64,192,20730,1,2,0:0:0:0:
320,192,20730,1,4,0:0:0:0:
448,192,20730,1,0,0:0:0:0:
320,192,20990,1,0,0:0:0:0:
64,192,21251,1,8,0:0:0:0:
192,192,21251,1,0,0:0:0:0:
448,192,21251,1,0,0:0:0:0:
320,192,21512,1,0,0:0:0:0:
64,192,21643,1,0,0:0:0:0:
448,192,21643,1,0,0:0:0:0:
192,192,21773,1,0,0:0:0:0:
320,192,21947,1,0,0:0:0:0:
448,192,21947,1,0,0:0:0:0:
64,192,22034,1,2,0:0:0:0:
192,192,22034,1,0,0:0:0:0:
64,192,22295,1,8,0:0:0:0:
320,192,22295,1,0,0:0:0:0:
448,192,22295,1,0,0:0:0:0:
192,192,22425,1,0,0:0:0:0:
448,192,22556,1,0,0:0:0:0:
64,192,22730,1,0,0:0:0:0:
192,192,22730,1,0,0:0:0:0:
320,192,22816,1,2,0:0:0:0:
448,192,22816,1,0,0:0:0:0:
64,192,23077,1,2,0:0:0:0:
192,192,23077,1,0,0:0:0:0:
64,192,23338,1,8,0:0:0:0:
320,192,23338,1,0,0:0:0:0:
448,192,23338,1,0,0:0:0:0:
192,192,23599,1,0,0:0:0:0:
64,192,23730,1,2,0:0:0:0:
448,192,23730,1,0,0:0:0:0:
320,192,23860,1,0,0:0:0:0:
64,192,24034,1,0,0:0:0:0:
192,192,24034,1,0,0:0:0:0:
320,192,24121,1,2,0:0:0:0:
448,192,24121,1,0,0:0:0:0:
64,192,24382,1,8,0:0:0:0:
192,192,24382,1,0,0:0:0:0:
448,192,24382,1,0,0:0:0:0:
320,192,24643,1,0,0:0:0:0:
64,192,24773,1,0,0:0:0:0:
192,192,24773,1,0,0:0:0:0:
320,192,24903,1,2,0:0:0:0:
448,192,24903,1,0,0:0:0:0:
192,192,25164,1,2,0:0:0:0:
320,192,25164,1,0,0:0:0:0:
64,192,25425,1,8,0:0:0:0:
192,192,25425,1,0,0:0:0:0:
448,192,25425,1,0,0:0:0:0:
320,192,25686,1,0,0:0:0:0:
64,192,25816,1,2,0:0:0:0:
448,192,25816,1,0,0:0:0:0:
192,192,25947,1,0,0:0:0:0:
320,192,26077,1,0,0:0:0:0:
448,192,26077,1,0,0:0:0:0:
64,192,26208,1,2,0:0:0:0:
192,192,26208,1,0,0:0:0:0:
64,192,26469,1,8,0:0:0:0:
320,192,26469,1,0,0:0:0:0:
448,192,26469,1,0,0:0:0:0:
192,192,26730,1,0,0:0:0:0:
320,192,26860,1,0,0:0:0:0:
64,192,26990,128,8,27512:0:0:0:0:
192,192,26990,1,4,0:0:0:0:
448,192,26990,1,0,0:0:0:0:
320,192,27382,1,0,0:0:0:0:
448,192,27382,1,0,0:0:0:0:
192,192,27512,1,0,0:0:0:0:
64,192,27773,1,8,0:0:0:0:
320,192,27773,1,4,0:0:0:0:
448,192,27773,128,0,28295:0:0:0:0:
64,192,28164,1,0,0:0:0:0:
192,192,28164,1,0,0:0:0:0:
320,192,28295,1,2,0:0:0:0:
64,192,28556,1,8,0:0:0:0:
192,192,28556,1,0,0:0:0:0:
448,192,28556,1,0,0:0:0:0:
64,192,28719,1,8,0:0:0:0:
192,192,28719,1,0,0:0:0:0:
448,192,28719,1,0,0:0:0:0:
64,192,29077,1,2,0:0:0:0:
192,192,29077,1,4,0:0:0:0:
320,192,29077,1,0,0:0:0:0:
64,192,29338,1,2,0:0:0:0:
448,192,29338,1,0,0:0:0:0:
192,192,29599,1,8,0:0:0:0:
320,192,29599,1,0,0:0:0:0:
448,192,29599,1,0,0:0:0:0:
64,192,29860,1,0,0:0:0:0:
192,192,29990,1,2,0:0:0:0:
320,192,29990,1,0,0:0:0:0:
448,192,30121,1,0,0:0:0:0:
64,192,30295,1,0,0:0:0:0:
192,192,30295,1,0,0:0:0:0:
320,192,30382,1,2,0:0:0:0:
448,192,30382,1,0,0:0:0:0:
64,192,30643,1,8,0:0:0:0:
192,192,30643,1,0,0:0:0:0:
320,192,30643,1,0,0:0:0:0:
448,192,30903,1,0,0:0:0:0:
320,192,31034,1,0,0:0:0:0:
64,192,31164,1,2,0:0:0:0:
192,192,31164,1,0,0:0:0:0:
320,192,31425,1,2,0:0:0:0:
448,192,31425,1,0,0:0:0:0:
64,192,31686,1,8,0:0:0:0:
192,192,31686,1,0,0:0:0:0:
320,192,31686,1,0,0:0:0:0:
448,192,31947,1,0,0:0:0:0:
192,192,32077,1,2,0:0:0:0:
320,192,32077,1,0,0:0:0:0:
64,192,32208,1,0,0:0:0:0:
320,192,32382,1,0,0:0:0:0:
448,192,32382,1,0,0:0:0:0:
64,192,32469,1,2,0:0:0:0:
192,192,32469,1,0,0:0:0:0:
192,192,32730,1,8,0:0:0:0:
320,192,32730,1,0,0:0:0:0:
448,192,32730,1,0,0:0:0:0:
64,192,32990,1,0,0:0:0:0:
192,192,33121,1,0,0:0:0:0:
320,192,33251,1,2,0:0:0:0:
448,192,33251,1,0,0:0:0:0:
64,192,33512,1,2,0:0:0:0:
192,192,33512,1,0,0:0:0:0:
192,192,33773,1,8,0:0:0:0:
320,192,33773,1,0,0:0:0:0:
448,192,33773,1,0,0:0:0:0:
64,192,34034,1,0,0:0:0:0:
192,192,34164,1,2,0:0:0:0:
320,192,34164,1,0,0:0:0:0:
448,192,34295,1,0,0:0:0:0:
64,192,34469,1,0,0:0:0:0:
192,192,34469,1,0,0:0:0:0:
320,192,34556,1,2,0:0:0:0:
448,192,34556,1,0,0:0:0:0:
64,192,34816,1,8,0:0:0:0:
192,192,34816,1,0,0:0:0:0:
320,192,34816,1,0,0:0:0:0:
448,192,35077,1,0,0:0:0:0:
320,192,35208,1,0,0:0:0:0:
64,192,35338,128,4,35860:0:0:0:0:
192,192,35338,1,8,0:0:0:0:
448,192,35338,1,0,0:0:0:0:
320,192,35730,1,2,0:0:0:0:
448,192,35730,1,0,0:0:0:0:
192,192,35860,1,0,0:0:0:0:
64,192,36121,1,8,0:0:0:0:
320,192,36121,1,4,0:0:0:0:
448,192,36121,128,0,36643:0:0:0:0:
64,192,36643,1,2,0:0:0:0:
192,192,36643,1,0,0:0:0:0:
64,192,36903,1,8,0:0:0:0:
320,192,36903,1,0,0:0:0:0:
448,192,36903,1,0,0:0:0:0:
64,192,37066,1,8,0:0:0:0:
320,192,37066,1,0,0:0:0:0:
448,192,37066,1,0,0:0:0:0:
64,192,37425,1,2,0:0:0:0:
192,192,37425,1,4,0:0:0:0:
448,192,37425,1,0,0:0:0:0:
192,192,37686,1,0,0:0:0:0:
64,192,37947,1,8,0:0:0:0:
320,192,37947,1,0,0:0:0:0:
448,192,37947,1,0,0:0:0:0:
192,192,38208,1,0,0:0:0:0:
320,192,38338,1,2,0:0:0:0:
448,192,38338,1,0,0:0:0:0:
64,192,38469,1,0,0:0:0:0:
320,192,38643,1,0,0:0:0:0:
448,192,38643,1,0,0:0:0:0:
64,192,38730,1,2,0:0:0:0:
192,192,38730,1,0,0:0:0:0:
64,192,38990,1,8,0:0:0:0:
320,192,38990,1,0,0:0:0:0:
448,192,38990,1,0,0:0:0:0:
192,192,39251,1,0,0:0:0:0:
320,192,39382,1,0,0:0:0:0:
448,192,39382,1,0,0:0:0:0:
64,192,39512,1,2,0:0:0:0:
192,192,39512,1,0,0:0:0:0:
192,192,39773,1,2,0:0:0:0:
320,192,39773,1,0,0:0:0:0:
64,192,40034,1,8,0:0:0:0:
192,192,40034,1,0,0:0:0:0:
448,192,40034,1,0,0:0:0:0:
320,192,40295,1,0,0:0:0:0:
64,192,40425,1,2,0:0:0:0:
192,192,40425,1,0,0:0:0:0:
448,192,40556,1,0,0:0:0:0:
64,192,40730,1,0,0:0:0:0:
192,192,40730,1,0,0:0:0:0:
320,192,40816,1,2,0:0:0:0:
448,192,40816,1,0,0:0:0:0:
64,192,41077,1,8,0:0:0:0:
192,192,41077,1,0,0:0:0:0:
448,192,41077,1,0,0:0:0:0:
320,192,41338,1,0,0:0:0:0:
64,192,41469,1,0,0:0:0:0:
192,192,41469,1,0,0:0:0:0:
320,192,41599,1,2,0:0:0:0:
448,192,41599,1,0,0:0:0:0:
192,192,41860,1,2,0:0:0:0:
320,192,41860,1,0,0:0:0:0:
64,192,42121,1,8,0:0:0:0:
192,192,42121,1,0,0:0:0:0:
448,192,42121,1,0,0:0:0:0:
320,192,42382,1,0,0:0:0:0:
64,192,42512,1,2,0:0:0:0:
192,192,42512,1,0,0:0:0:0:
448,192,42643,1,0,0:0:0:0:
64,192,42816,1,0,0:0:0:0:
192,192,42816,1,0,0:0:0:0:
320,192,42903,1,2,0:0:0:0:
448,192,42903,1,0,0:0:0:0:
64,192,43164,1,8,0:0:0:0:
192,192,43164,1,0,0:0:0:0:
448,192,43164,1,0,0:0:0:0:
320,192,43425,1,0,0:0:0:0:
192,192,43556,1,0,0:0:0:0:
64,192,43686,1,2,0:0:0:0:
320,192,43686,1,0,0:0:0:0:
448,192,43686,128,0,44208:0:0:0:0:
64,192,44077,1,2,0:0:0:0:
192,192,44077,1,0,0:0:0:0:
320,192,44208,1,8,0:0:0:0:
64,192,44469,128,8,44990:0:0:0:0:
192,192,44469,1,0,0:0:0:0:
448,192,44469,1,0,0:0:0:0:
320,192,44860,1,8,0:0:0:0:
448,192,44860,1,0,0:0:0:0:
192,192,44990,1,2,0:0:0:0:
320,192,45251,1,8,0:0:0:0:
448,192,45251,1,0,0:0:0:0:
64,192,45512,1,2,0:0:0:0:
192,192,45512,1,0,0:0:0:0:
64,192,45773,128,4,46034:0:0:0:0:
320,192,45773,1,8,0:0:0:0:
448,192,45773,1,0,0:0:0:0:
192,192,46034,1,2,0:0:0:0:
320,192,46034,1,0,0:0:0:0:
64,192,46295,1,8,0:0:0:0:
192,192,46295,1,0,0:0:0:0:
448,192,46295,128,0,46556:0:0:0:0:
64,192,46556,1,2,0:0:0:0:
320,192,46556,1,0,0:0:0:0:
192,192,46816,128,8,47077:0:0:0:0:
320,192,46816,1,0,0:0:0:0:
448,192,46816,1,0,0:0:0:0:
64,192,47077,1,2,0:0:0:0:
448,192,47077,1,0,0:0:0:0:
64,192,47338,1,8,0:0:0:0:
192,192,47338,1,0,0:0:0:0:
320,192,47338,128,0,47599:0:0:0:0:
192,192,47599,1,2,0:0:0:0:
448,192,47599,1,0,0:0:0:0:
64,192,47860,128,8,48121:0:0:0:0:
320,192,47860,1,4,0:0:0:0:
448,192,47860,1,0,0:0:0:0:
192,192,48121,1,2,0:0:0:0:
320,192,48121,1,0,0:0:0:0:
64,192,48382,1,8,0:0:0:0:
192,192,48382,1,0,0:0:0:0:
448,192,48382,128,0,48643:0:0:0:0:
64,192,48643,1,2,0:0:0:0:
320,192,48643,1,0,0:0:0:0:
192,192,48903,128,8,49164:0:0:0:0:
320,192,48903,1,0,0:0:0:0:
448,192,48903,1,0,0:0:0:0:
64,192,49164,1,2,0:0:0:0:
448,192,49164,1,0,0:0:0:0:
64,192,49425,1,8,0:0:0:0:
192,192,49425,1,0,0:0:0:0:
320,192,49425,128,0,49686:0:0:0:0:
448,192,49556,1,8,0:0:0:0:
64,192,49686,1,2,0:0:0:0:
192,192,49686,1,0,0:0:0:0:
64,192,49947,128,2,50208:0:0:0:0:
320,192,49947,1,4,0:0:0:0:
448,192,49947,1,0,0:0:0:0:
192,192,50208,1,2,0:0:0:0:
320,192,50208,1,0,0:0:0:0:
64,192,50469,1,8,0:0:0:0:
192,192,50469,1,0,0:0:0:0:
448,192,50469,1,0,0:0:0:0:
320,192,50893,1,8,0:0:0:0:
64,192,50990,1,2,0:0:0:0:
192,192,50990,1,4,0:0:0:0:
448,192,50990,128,0,51251:0:0:0:0:
192,192,51251,1,2,0:0:0:0:
320,192,51251,1,0,0:0:0:0:
64,192,51512,1,8,0:0:0:0:
320,192,51512,1,0,0:0:0:0:
448,192,51512,1,0,0:0:0:0:
192,192,51773,1,0,0:0:0:0:
320,192,51903,1,0,0:0:0:0:
64,192,52034,128,2,52425:0:0:0:0:
192,192,52034,1,4,0:0:0:0:
448,192,52034,1,0,0:0:0:0:
320,192,52425,1,2,0:0:0:0:
448,192,52425,1,0,0:0:0:0:
192,192,52556,1,0,0:0:0:0:
64,192,52816,1,8,0:0:0:0:
320,192,52816,1,4,0:0:0:0:
448,192,52816,128,0,53338:0:0:0:0:
64,192,53251,1,8,0:0:0:0:
192,192,53251,1,0,0:0:0:0:
320,192,53338,1,2,0:0:0:0:
64,192,53599,1,8,0:0:0:0:
192,192,53599,1,0,0:0:0:0:
320,192,53773,1,8,0:0:0:0:
448,192,53773,1,0,0:0:0:0:
64,192,53860,1,2,0:0:0:0:
192,192,53860,1,0,0:0:0:0:
64,192,54121,1,4,0:0:0:0:
320,192,54121,1,0,0:0:0:0:
448,192,54121,1,0,0:0:0:0:
64,192,54512,1,0,0:0:0:0:
192,192,54512,1,0,0:0:0:0:
320,192,54643,1,0,0:0:0:0:
64,192,54773,1,0,0:0:0:0:
192,192,54838,1,0,0:0:0:0:
448,192,54903,1,0,0:0:0:0:
320,192,54903,1,0,0:0:0:0:
64,192,55164,1,8,0:0:0:0:
448,192,55164,1,0,0:0:0:0:
192,192,55164,1,0,0:0:0:0:
448,192,55556,1,0,0:0:0:0:
64,192,55686,1,0,0:0:0:0:
320,192,55816,1,0,0:0:0:0:
64,192,55947,1,0,0:0:0:0:
192,192,55947,1,0,0:0:0:0:
448,192,56012,1,0,0:0:0:0:
320,192,56077,1,0,0:0:0:0:
192,192,56143,1,0,0:0:0:0:
320,192,56208,1,0,0:0:0:0:
448,192,56208,1,0,0:0:0:0:
64,192,56208,1,0,0:0:0:0:
64,192,56599,1,0,0:0:0:0:
192,192,56599,1,0,0:0:0:0:
320,192,56730,1,0,0:0:0:0:
448,192,56903,1,0,0:0:0:0:
64,192,56990,1,0,0:0:0:0:
192,192,56990,1,0,0:0:0:0:
320,192,57077,1,0,0:0:0:0:
64,192,57251,1,8,0:0:0:0:
448,192,57251,1,0,0:0:0:0:
192,192,57251,1,0,0:0:0:0:
320,192,57425,1,0,0:0:0:0:
64,192,57512,1,2,0:0:0:0:
192,192,57512,1,0,0:0:0:0:
448,192,57599,1,0,0:0:0:0:
64,192,57773,1,8,0:0:0:0:
320,192,57773,1,0,0:0:0:0:
192,192,57773,1,0,0:0:0:0:
320,192,58034,1,2,0:0:0:0:
448,192,58034,1,0,0:0:0:0:
64,192,58295,1,4,0:0:0:0:
192,192,58295,1,0,0:0:0:0:
448,192,58295,1,0,0:0:0:0:
320,192,58686,1,2,0:0:0:0:
448,192,58686,1,0,0:0:0:0:
192,192,58816,1,0,0:0:0:0:
64,192,59077,1,2,0:0:0:0:
448,192,59077,1,0,0:0:0:0:
192,192,59208,1,0,0:0:0:0:
64,192,59338,1,8,0:0:0:0:
320,192,59338,1,0,0:0:0:0:
448,192,59338,1,0,0:0:0:0:
192,192,59469,1,0,0:0:0:0:
320,192,59599,1,0,0:0:0:0:
448,192,59730,1,0,0:0:0:0:
64,192,59860,1,0,0:0:0:0:
192,192,59990,1,0,0:0:0:0:
320,192,60121,1,0,0:0:0:0:
448,192,60121,1,0,0:0:0:0:
64,192,60186,1,0,0:0:0:0:
192,192,60251,1,0,0:0:0:0:
320,192,60316,1,0,0:0:0:0:
64,192,60382,1,0,0:0:0:0:
192,192,60382,1,0,0:0:0:0:
448,192,60382,1,0,0:0:0:0:
320,192,60773,1,0,0:0:0:0:
448,192,60773,1,0,0:0:0:0:
192,192,60903,1,0,0:0:0:0:
64,192,61164,1,0,0:0:0:0:
192,192,61164,1,0,0:0:0:0:
320,192,61295,1,0,0:0:0:0:
64,192,61425,1,8,0:0:0:0:
192,192,61425,1,0,0:0:0:0:
448,192,61425,1,0,0:0:0:0:
320,192,61556,1,0,0:0:0:0:
64,192,61686,1,2,0:0:0:0:
448,192,61686,1,0,0:0:0:0:
192,192,61816,1,0,0:0:0:0:
64,192,61947,1,4,0:0:0:0:
320,192,61947,1,8,0:0:0:0:
448,192,61947,1,2,0:2:0:0:
192,192,62208,1,8,0:0:0:0:
320,192,62208,1,0,0:0:0:0:
448,192,62338,1,8,0:0:0:0:
64,192,62469,1,4,0:0:0:0:
192,192,62469,1,2,0:0:0:0:
320,192,62469,1,0,0:0:0:0:
192,192,62730,1,2,0:0:0:0:
448,192,62730,1,0,0:0:0:0:
64,192,62990,1,8,0:0:0:0:
320,192,62990,1,0,0:0:0:0:
448,192,62990,1,0,0:0:0:0:
192,192,63121,1,0,0:0:0:0:
448,192,63251,1,0,0:0:0:0:
320,192,63382,1,0,0:0:0:0:
64,192,63512,1,2,0:0:0:0:
192,192,63512,1,0,0:0:0:0:
320,192,63643,1,2,0:0:0:0:
448,192,63643,1,0,0:0:0:0:
64,192,63903,1,8,0:0:0:0:
192,192,63903,1,0,0:0:0:0:
320,192,63903,1,0,0:0:0:0:
64,192,64164,1,8,0:0:0:0:
192,192,64164,1,0,0:0:0:0:
448,192,64164,1,0,0:0:0:0:
320,192,64425,1,0,0:0:0:0:
64,192,64556,1,2,0:0:0:0:
192,192,64556,1,0,0:0:0:0:
448,192,64556,1,0,0:0:0:0:
192,192,64816,1,2,0:0:0:0:
320,192,64816,1,0,0:0:0:0:
64,192,65077,1,8,0:0:0:0:
320,192,65077,1,0,0:0:0:0:
448,192,65077,1,0,0:0:0:0:
192,192,65338,1,0,0:0:0:0:
320,192,65469,1,0,0:0:0:0:
64,192,65599,1,2,0:0:0:0:
192,192,65599,1,0,0:0:0:0:
320,192,65730,1,2,0:0:0:0:
448,192,65730,1,0,0:0:0:0:
64,192,65990,1,8,0:0:0:0:
192,192,65990,1,0,0:0:0:0:
448,192,65990,1,0,0:0:0:0:
64,192,66251,1,8,0:0:0:0:
192,192,66251,1,0,0:0:0:0:
320,192,66251,1,0,0:0:0:0:
448,192,66512,1,0,0:0:0:0:
64,192,66643,1,2,0:0:0:0:
192,192,66643,1,4,0:0:0:0:
320,192,66643,1,0,0:0:0:0:
64,192,66903,1,8,0:0:0:0:
320,192,66903,1,0,0:0:0:0:
448,192,66903,1,0,0:0:0:0:
192,192,67164,1,2,0:0:0:0:
448,192,67164,1,0,0:0:0:0:
64,192,67425,1,8,0:0:0:0:
192,192,67425,1,0,0:0:0:0:
320,192,67425,1,0,0:0:0:0:
64,192,67686,1,2,0:0:0:0:
448,192,67686,1,0,0:0:0:0:
192,192,67947,1,8,0:0:0:0:
320,192,67947,1,0,0:0:0:0:
448,192,67947,1,0,0:0:0:0:
64,192,68208,1,2,0:0:0:0:
320,192,68208,1,0,0:0:0:0:
64,192,68469,1,8,0:0:0:0:
192,192,68469,1,0,0:0:0:0:
448,192,68469,1,0,0:0:0:0:
64,192,68730,1,2,0:0:0:0:
320,192,68730,1,4,0:1:0:0:
448,192,68730,1,0,0:0:0:0:
64,192,68990,1,2,0:0:0:0:
192,192,68990,1,0,0:0:0:0:
448,192,68990,1,0,0:0:0:0:
64,192,69251,1,2,0:0:0:0:
192,192,69251,1,0,0:0:0:0:
320,192,69251,1,0,0:0:0:0:
192,192,69512,1,2,0:0:0:0:
320,192,69512,1,0,0:0:0:0:
448,192,69512,1,0,0:0:0:0:
64,192,69773,1,2,0:0:0:0:
320,192,69773,1,0,0:0:0:0:
448,192,69773,1,0,0:0:0:0:
192,192,70034,1,0,0:0:0:0:
320,192,70208,1,0,0:0:0:0:
64,192,70295,1,0,0:0:0:0:
448,192,70469,1,0,0:0:0:0:
192,192,70556,1,0,0:0:0:0:
320,192,70730,1,0,0:0:0:0:
64,192,70816,1,4,0:0:0:0:
192,192,70816,1,2,0:0:0:0:
448,192,70816,1,0,0:0:0:0:
192,192,71077,1,2,0:0:0:0:
320,192,71077,1,0,0:0:0:0:
64,192,71338,1,8,0:0:0:0:
320,192,71338,1,0,0:0:0:0:
448,192,71338,1,0,0:0:0:0:
192,192,71599,1,2,0:0:0:0:
320,192,71599,1,0,0:0:0:0:
64,192,71860,1,8,0:0:0:0:
448,192,71860,1,0,0:0:0:0:
192,192,71990,1,0,0:0:0:0:
320,192,72121,1,2,0:0:0:0:
448,192,72121,1,0,0:0:0:0:
64,192,72251,1,0,0:0:0:0:
192,192,72382,1,8,0:0:0:0:
320,192,72382,1,0,0:0:0:0:
448,192,72512,1,0,0:0:0:0:
64,192,72643,1,2,0:0:0:0:
192,192,72643,1,0,0:0:0:0:
448,192,72773,1,0,0:0:0:0:
64,192,72903,1,2,0:0:0:0:
192,192,72903,1,4,0:0:0:0:
320,192,72903,1,0,0:0:0:0:
64,192,73164,1,2,0:0:0:0:
448,192,73164,1,0,0:0:0:0:
192,192,73425,1,8,0:0:0:0:
320,192,73425,1,0,0:0:0:0:
448,192,73425,1,0,0:0:0:0:
64,192,73686,1,2,0:0:0:0:
448,192,73686,1,0,0:0:0:0:
64,192,73947,1,8,0:0:0:0:
192,192,73947,1,0,0:0:0:0:
320,192,74077,1,0,0:0:0:0:
192,192,74208,1,2,0:0:0:0:
64,192,74338,1,8,0:0:0:0:
320,192,74338,1,0,0:0:0:0:
448,192,74338,1,0,0:0:0:0:
64,192,74599,1,8,0:0:0:0:
192,192,74599,1,0,0:0:0:0:
448,192,74599,1,0,0:0:0:0:
320,192,74730,1,0,0:0:0:0:
192,192,74860,1,0,0:0:0:0:
64,192,74990,1,2,0:0:0:0:
320,192,74990,1,4,0:0:0:0:
448,192,74990,1,0,0:0:0:0:
192,192,75251,1,2,0:0:0:0:
448,192,75251,1,0,0:0:0:0:
64,192,75512,1,8,0:0:0:0:
192,192,75512,1,0,0:0:0:0:
320,192,75512,1,0,0:0:0:0:
192,192,75773,1,2,0:0:0:0:
448,192,75773,1,0,0:0:0:0:
64,192,76034,1,8,0:0:0:0:
448,192,76034,1,0,0:0:0:0:
192,192,76164,1,0,0:0:0:0:
320,192,76295,1,2,0:0:0:0:
64,192,76425,1,8,0:0:0:0:
192,192,76425,1,0,0:0:0:0:
448,192,76425,1,0,0:0:0:0:
64,192,76686,1,8,0:0:0:0:
320,192,76686,1,0,0:0:0:0:
448,192,76686,1,0,0:0:0:0:
192,192,76816,1,0,0:0:0:0:
320,192,76947,1,0,0:0:0:0:
64,192,77077,128,2,77338:0:0:0:0:
192,192,77077,1,4,0:0:0:0:
448,192,77077,1,0,0:0:0:0:
192,192,77338,128,2,77599:0:0:0:0:
448,192,77338,1,0,0:0:0:0:
64,192,77599,1,8,0:0:0:0:
320,192,77599,1,0,0:0:0:0:
448,192,77599,128,0,77860:0:0:0:0:
64,192,77860,1,2,0:0:0:0:
320,192,77860,128,0,78121:0:0:0:0:
64,192,78121,1,8,0:0:0:0:
448,192,78121,1,0,0:0:0:0:
192,192,78121,1,0,0:0:0:0:
192,192,78382,1,8,0:0:0:0:
448,192,78382,1,0,0:0:0:0:
320,192,78382,1,0,0:0:0:0:
64,192,78643,1,8,0:0:0:0:
448,192,78643,1,0,0:0:0:0:
192,192,78643,1,0,0:0:0:0:
320,192,78773,1,8,0:0:0:0:
64,192,78903,1,2,0:0:0:0:
448,192,78903,1,0,0:0:0:0:
192,192,79034,1,0,0:0:0:0:
64,192,79164,1,2,0:0:0:0:
320,192,79164,1,4,0:0:0:0:
448,192,79164,1,0,0:0:0:0:
192,192,79425,1,2,0:0:0:0:
320,192,79425,1,0,0:0:0:0:
64,192,79686,1,8,0:0:0:0:
192,192,79686,1,0,0:0:0:0:
448,192,79686,1,0,0:0:0:0:
64,192,79947,1,2,0:0:0:0:
320,192,79947,1,0,0:0:0:0:
192,192,80208,1,8,0:0:0:0:
320,192,80208,1,0,0:0:0:0:
448,192,80208,1,0,0:0:0:0:
64,192,80469,1,2,0:0:0:0:
448,192,80469,1,0,0:0:0:0:
64,192,80730,1,8,0:0:0:0:
192,192,80730,1,0,0:0:0:0:
320,192,80730,1,0,0:0:0:0:
192,192,80990,1,2,0:0:0:0:
448,192,80990,1,0,0:0:0:0:
320,192,81121,1,0,0:0:0:0:
64,192,81251,1,8,0:0:0:0:
192,192,81251,1,0,0:0:0:0:
448,192,81251,1,0,0:0:0:0:
64,192,81512,1,8,0:0:0:0:
320,192,81512,1,0,0:0:0:0:
448,192,81512,1,0,0:0:0:0:
64,192,81773,1,8,0:0:0:0:
192,192,81773,1,0,0:0:0:0:
320,192,81773,1,0,0:0:0:0:
192,192,82034,1,8,0:0:0:0:
320,192,82034,1,0,0:0:0:0:
448,192,82034,1,0,0:0:0:0:
64,192,82295,1,2,0:0:0:0:
320,192,82295,1,4,0:0:0:0:
448,192,82295,1,0,0:0:0:0:
192,192,82556,1,0,0:0:0:0:
64,192,82556,1,0,0:0:0:0:
320,192,82686,1,8,0:0:0:0:
448,192,82686,1,0,0:0:0:0:
64,192,82816,1,8,0:0:0:0:
192,192,82816,1,0,0:0:0:0:
320,192,82947,1,8,0:0:0:0:
448,192,82947,1,0,0:0:0:0:
64,192,83077,1,8,0:0:0:0:
192,192,83077,1,0,0:0:0:0:
320,192,83208,1,8,0:0:0:0:
64,192,83338,1,2,0:0:0:0:
192,192,83338,1,4,0:0:0:0:
448,192,83338,1,0,0:0:0:0:
64,192,83599,1,2,0:0:0:0:
320,192,83599,1,0,0:0:0:0:
192,192,83860,1,8,0:0:0:0:
320,192,83860,1,0,0:0:0:0:
448,192,83860,1,0,0:0:0:0:
64,192,83990,1,0,0:0:0:0:
192,192,84056,1,0,0:0:0:0:
320,192,84121,1,0,0:0:0:0:
448,192,84251,1,0,0:0:0:0:
64,192,84251,1,0,0:0:0:0:
192,192,84382,1,0,0:0:0:0:
320,192,84512,1,0,0:0:0:0:
448,192,84512,1,0,0:0:0:0:
64,192,84643,1,2,0:0:0:0:
192,192,84643,1,0,0:0:0:0:
64,192,84903,1,8,0:0:0:0:
320,192,84903,1,0,0:0:0:0:
448,192,84903,1,0,0:0:0:0:
192,192,85077,1,2,0:0:0:0:
64,192,85164,1,2,0:0:0:0:
448,192,85164,1,0,0:0:0:0:
320,192,85251,1,0,0:0:0:0:
192,192,85338,1,0,0:0:0:0:
64,192,85425,1,2,0:0:0:0:
320,192,85425,128,4,86469:0:1:0:0:
448,192,85425,1,0,0:0:0:0:
64,192,86469,1,8,0:0:0:0:
192,192,86469,1,0,0:0:0:0:
448,192,86469,1,0,0:0:0:0:
192,192,86860,1,8,0:0:0:0:
320,192,86860,1,0,0:0:0:0:
448,192,86860,1,0,0:0:0:0:
64,192,87251,1,8,0:0:0:0:
192,192,87251,1,0,0:0:0:0:
320,192,87251,1,0,0:0:0:0:
64,192,87773,1,2,0:0:0:0:
320,192,87773,1,4,0:0:0:0:
448,192,87773,128,0,88556:0:0:0:0:
64,192,88425,1,0,0:0:0:0:
192,192,88490,1,0,0:0:0:0:
320,192,88556,1,0,0:0:0:0:
