osu file format v14

[General]
AudioFilename: 727.mp3
AudioLeadIn: 0
PreviewTime: 136164
Countdown: 0
SampleSet: Soft
StackLeniency: 0.7
Mode: 0
LetterboxInBreaks: 0
WidescreenStoryboard: 0

[Editor]
Bookmarks: 26805,55995,62481,82751,94914,162616,190589,190691,190792,190893,190995,198697
DistanceSpacing: 0.7
BeatDivisor: 4
GridSize: 8
TimelineZoom: 2.999999

[Metadata]
Title:Aoi Kisetsu
TitleUnicode:青い季節
Artist:Ohara Sakurako
ArtistUnicode:大原櫻子
Creator:Hishiro Chizuru
Version:Tomorrow
Source:
Tags:amb1d3x japanese pop ひらり hirari 小名川高弘 Takahiro Konagawa いしわたり淳治 Junji Ishiwatari blue season
BeatmapID:3086337
BeatmapSetID:1506791

[Difficulty]
HPDrainRate:5
CircleSize:5
OverallDifficulty:8
ApproachRate:8
SliderMultiplier:1.6
SliderTickRate:1

[Events]
//Background and Video events
0,0,"when you fkn see it.png",0,0
//Break Periods
//Storyboard Layer 0 (Background)
//Storyboard Layer 1 (Fail)
//Storyboard Layer 2 (Pass)
//Storyboard Layer 3 (Foreground)
//Storyboard Layer 4 (Overlay)
//Storyboard Sound Samples

[TimingPoints]
860,405.405405405405,4,2,69,60,1,0
860,-111.111111111111,4,2,69,60,0,0
13832,-125,4,2,69,50,0,0
26805,-125,4,2,69,50,0,0
39778,-166.666666666667,4,2,69,50,0,0
40387,-250,4,2,69,50,0,0
41400,-166.666666666667,4,2,69,50,0,0
42008,-250,4,2,69,50,0,0
43022,-166.666666666667,4,2,69,50,0,0
43630,-250,4,2,69,50,0,0
44643,-166.666666666667,4,2,69,50,0,0
45251,-250,4,2,69,50,0,0
46265,-125,4,2,69,60,0,0
54778,-250,4,2,69,60,0,0
55184,-250,4,2,69,40,0,0
55995,-100,4,2,69,70,0,1
80724,-133.333333333333,4,2,69,60,0,0
94914,-125,4,2,69,50,0,0
106265,-100,4,2,69,50,0,0
107887,-125,4,2,69,50,0,0
120859,-166.666666666667,4,2,69,50,0,0
121468,-250,4,2,69,50,0,0
122481,-166.666666666667,4,2,69,50,0,0
123089,-250,4,2,69,50,0,0
124103,-166.666666666667,4,2,69,50,0,0
124711,-250,4,2,69,50,0,0
125724,-166.666666666667,4,2,69,50,0,0
126332,-250,4,2,69,50,0,0
127346,-125,4,2,69,60,0,0
136265,-250,4,2,69,60,0,0
137076,-100,4,2,69,70,0,1
161805,-100,4,2,69,70,0,1
162616,-111.111111111111,4,2,69,60,0,0
173359,-133.333333333333,4,2,69,50,0,0
185724,-133.333333333333,4,2,69,55,0,0
192211,-100,4,2,69,60,0,0
196873,-200,4,2,69,60,0,0
197887,-200,4,2,69,45,0,0
205285,-200,4,2,69,5,0,0
206603,-200,4,2,69,55,0,0
206704,-200,4,2,69,5,0,0
207819,-200,4,2,69,55,0,0
208427,-111.111111111111,4,2,69,60,0,0
211670,-100,4,2,69,70,0,1
230015,-100,4,2,7,40,0,1
230724,-100,4,2,27,50,0,1
231535,-100,4,2,7,60,0,1
232346,-100,4,2,27,70,0,1
232549,-100,4,2,69,70,0,1
232751,-133.333333333333,4,2,69,50,0,0
245724,-133.333333333333,4,2,69,40,0,0
247954,-200,4,2,69,60,0,0
249170,-200,4,2,69,5,0,0

[Colours]
Combo1 : 255,255,147
Combo2 : 255,155,155
Combo3 : 206,231,255
Combo4 : 255,185,255
Combo5 : 255,226,138
Combo6 : 166,255,166

[HitObjects]
0,45,657,5,2,0:2:0:0:
0,45,758,1,2,0:2:0:0:
0,45,860,2,0,B|59:21|76:80|139:54,1,143.999995605469,6|8,1:2|0:2,0:0:0:0:
387,186,2076,5,8,0:2:0:0:
402,99,2278,2,0,P|344:101|299:172,1,143.999995605469,6|0,1:2|0:2,0:0:0:0:
387,186,2887,1,8,0:2:0:0:
101,192,3697,5,10,0:2:0:0:
148,251,3900,1,0,1:2:0:0:
33,213,4103,1,6,1:2:0:0:
33,213,4305,1,2,0:2:0:0:
21,319,4508,2,0,P|54:304|70:273,1,71.9999978027344,10|0,0:2|0:2,0:0:0:0:
193,304,4914,2,0,P|175:273|147:250,1,71.9999978027344,2|0,0:2|0:2,0:0:0:0:
122,354,5319,1,10,0:2:0:0:
272,256,5522,6,0,B|334:233|356:294|412:265,1,143.999995605469,6|0,1:2|1:2,0:0:0:0:
416,137,6130,2,0,P|392:163|386:198,1,71.9999978027344,10|0,0:2|1:2,0:0:0:0:
472,319,6535,1,2,0:2:0:0:
472,319,6738,1,8,3:0:0:0:
505,215,6941,1,10,0:2:0:0:
328,131,7143,5,4,3:0:0:0:
328,131,7245,1,4,3:0:0:0:
328,131,7346,2,0,L|169:150,1,143.999995605469,6|0,1:2|1:2,0:0:0:0:
185,148,7954,1,0,0:2:0:0:
123,198,8157,2,0,P|107:161|115:122,1,71.9999978027344,2|0,1:2|0:2,0:0:0:0:
193,230,8562,1,8,0:2:0:0:
338,59,8765,5,2,0:2:0:0:
398,97,8968,2,0,P|419:165|398:232,1,143.999995605469,0|0,1:2|1:2,0:0:0:0:
398,232,9576,1,2,0:2:0:0:
317,282,9778,2,0,P|368:299|388:326,1,71.9999978027344,2|0,1:2|0:2,0:0:0:0:
250,382,10184,2,0,P|293:370|332:338,1,71.9999978027344,10|0,0:2|0:2,0:0:0:0:
114,200,10589,5,4,1:2:0:0:
171,247,10792,2,0,L|161:318,1,71.9999978027344,2|0,0:2|1:2,0:0:0:0:
118,204,11197,1,2,0:2:0:0:
227,145,11400,1,0,1:2:0:0:
140,116,11603,1,2,0:2:0:0:
53,87,11805,1,10,0:2:0:0:
211,55,12008,5,0,1:2:0:0:
211,55,12109,1,0,1:2:0:0:
211,55,12211,2,0,B|280:28|300:97|374:66,1,143.999995605469,2|0,1:2|1:2,0:0:0:0:
468,25,12819,1,0,3:2:0:0:
393,7,13022,1,2,1:2:0:0:
354,78,13224,1,2,3:2:0:0:
441,165,13427,2,0,P|438:129|427:94,1,71.9999978027344,10|0,0:2|0:2,0:0:0:0:
287,232,13832,6,0,P|350:229|395:280,1,128,6|0,1:2|1:2,0:0:0:0:
392,273,14441,1,2,0:2:0:0:
311,362,14643,2,0,P|317:328|319:290,1,64,2|0,1:2|0:2,0:0:0:0:
235,181,15049,1,10,0:2:0:0:
173,228,15251,5,2,0:2:0:0:
173,228,15353,1,2,0:2:0:0:
173,228,15454,2,0,P|116:216|102:150,1,128,2|0,1:2|1:2,0:0:0:0:
100,154,16062,1,0,0:2:0:0:
94,287,16265,2,0,P|67:320|39:329,1,64,2|0,1:2|0:2,0:0:0:0:
0,273,16670,2,0,P|26:239|54:230,1,64,10|0,0:2|0:2,0:0:0:0:
235,181,17076,6,0,P|195:144|210:76,1,128,2|0,1:2|1:2,0:0:0:0:
325,88,17684,1,2,0:2:0:0:
325,88,17887,2,0,P|287:111|264:116,1,64,0|2,1:2|0:2,0:0:0:0:
143,49,18292,1,8,0:2:0:0:
76,98,18495,5,2,0:2:0:0:
76,98,18596,1,2,0:2:0:0:
76,98,18697,2,0,P|93:132|88:235,1,128,2|0,1:2|1:2,0:0:0:0:
93,220,19305,1,0,0:2:0:0:
82,309,19508,2,0,P|125:302|145:286,1,64,2|0,1:2|0:2,0:0:0:0:
235,197,19914,2,0,P|194:205|174:221,1,64,10|0,0:2|0:2,0:0:0:0:
309,374,20319,6,0,P|350:344|423:352,1,128,2|0,1:2|1:2,0:0:0:0:
424,353,20927,1,2,0:2:0:0:
491,289,21130,2,0,P|503:261|505:219,1,64,0|0,1:2|0:2,0:0:0:0:
461,171,21535,1,10,0:2:0:0:
461,171,21738,1,2,0:2:0:0:
302,196,21941,6,0,P|362:208|387:264,1,128,2|0,1:2|1:2,0:0:0:0:
274,312,22549,2,0,P|311:278|319:260,2,64,2|0|2,0:2|1:2|0:2,0:0:0:0:
391,267,23157,1,8,0:2:0:0:
391,267,23359,1,2,0:2:0:0:
243,141,23562,6,0,B|182:125|181:172|115:156,1,128,2|0,1:2|1:2,0:0:0:0:
120,157,24170,1,2,0:2:0:0:
201,268,24373,2,0,P|215:239|218:207,1,64,2|0,1:2|0:2,0:0:0:0:
140,93,24778,1,8,0:2:0:0:
140,93,24981,1,2,0:2:0:0:
275,9,25184,6,0,L|409:25,1,128,2|0,1:2|1:2,0:0:0:0:
442,109,25792,1,2,3:2:0:0:
512,65,25995,1,0,1:2:0:0:
406,28,26197,1,2,3:2:0:0:
379,166,26400,1,10,0:2:0:0:
265,103,26603,5,0,1:2:0:0:
265,103,26704,1,0,1:2:0:0:
265,103,26805,2,0,P|220:134|209:216,1,128,6|8,1:2|0:2,0:0:0:0:
205,202,27414,1,2,0:2:0:0:
256,250,27616,1,2,1:2:0:0:
245,319,27819,1,2,0:2:0:0:
169,331,28022,1,10,0:2:0:0:
323,304,28224,5,2,0:2:0:0:
323,304,28326,1,2,0:2:0:0:
323,304,28427,2,0,B|394:294|387:346|466:330,1,128,2|8,1:2|0:2,0:0:0:0:
444,333,29035,1,0,0:2:0:0:
474,210,29238,2,0,P|449:236|438:264,1,64,2|0,1:2|0:2,0:0:0:0:
411,170,29643,2,0,P|386:196|375:224,1,64,10|0,0:2|0:2,0:0:0:0:
505,16,30049,6,0,P|461:57|387:40,1,128,0|8,1:2|0:2,0:0:0:0:
307,25,30657,2,0,P|325:50|331:82,1,64,2|0,0:2|1:2,0:0:0:0:
258,107,31062,2,0,P|239:81|233:49,1,64,2|8,0:2|0:2,0:0:0:0:
59,33,31468,5,2,0:2:0:0:
59,33,31569,1,2,0:2:0:0:
59,33,31670,2,0,P|119:64|131:140,1,128,2|8,1:2|0:2,0:0:0:0:
40,171,32278,1,0,0:2:0:0:
40,171,32481,2,0,P|44:140|58:111,1,64,2|0,1:2|0:2,0:0:0:0:
140,260,32887,2,0,P|135:228|121:199,1,64,10|0,0:2|0:2,0:0:0:0:
32,356,33292,6,0,B|91:334|100:384|183:357,1,128,2|8,1:2|0:2,0:0:0:0:
256,317,33900,2,0,P|229:366|228:385,2,64,2|0|0,0:2|1:2|0:2,0:0:0:0:
308,377,34508,1,10,0:2:0:0:
308,377,34711,1,2,0:2:0:0:
328,236,34914,6,0,P|348:279|424:291,1,128,2|10,1:2|0:2,0:0:0:0:
442,176,35522,2,0,P|409:199|397:227,2,64,2|0|0,0:2|1:2|0:2,0:0:0:0:
344,129,36130,1,10,0:2:0:0:
344,129,36332,1,2,0:2:0:0:
250,249,36535,6,0,L|122:233,1,128,2|8,1:2|0:2,0:0:0:0:
29,130,37143,2,0,P|42:160|48:190,1,64,2|0,0:2|1:2,0:0:0:0:
101,90,37549,2,0,P|114:120|120:150,1,64,2|8,0:2|0:2,0:0:0:0:
240,96,37954,5,2,0:2:0:0:
240,96,38055,1,2,0:2:0:0:
240,96,38157,2,0,P|316:153|312:201,1,128,2|8,1:2|0:2,0:0:0:0:
242,170,38765,1,2,0:2:0:0:
339,61,38968,1,0,1:2:0:0:
405,102,39170,1,8,3:0:0:0:
446,39,39373,1,8,3:0:0:0:
512,78,39576,1,4,3:0:0:0:
428,206,39778,6,0,P|472:221|492:265,1,95.9999970703126,6|0,1:2|0:2,0:0:0:0:
375,262,40387,2,0,P|394:305|439:320,1,95.9999970703126,2|8,1:2|0:2,0:0:0:0:
285,222,41197,5,2,0:2:0:0:
285,222,41400,2,0,P|249:247|232:314,1,95.9999970703126,2|0,1:2|0:2,0:0:0:0:
167,372,42008,2,0,P|163:328|113:280,1,95.9999970703126,2|8,1:2|0:2,0:0:0:0:
117,29,43022,6,0,P|72:44|53:88,1,95.9999970703126,2|0,1:2|0:2,0:0:0:0:
169,85,43630,2,0,P|149:127|105:142,1,95.9999970703126,2|8,1:2|0:2,0:0:0:0:
281,17,44441,5,2,0:2:0:0:
281,17,44643,2,0,P|329:40|352:93,1,95.9999970703126,2|0,1:2|0:2,0:0:0:0:
428,143,45251,2,0,P|419:111|432:76,1,64,2|0,1:2|1:2,0:0:0:0:
427,82,45859,1,8,0:2:0:0:
333,207,46062,5,8,0:2:0:0:
333,207,46164,1,8,0:2:0:0:
333,207,46265,2,0,P|366:229|385:269,1,64,6|0,1:2|0:2,0:0:0:0:
315,309,46670,2,0,P|282:287|263:247,1,64,2|0,1:2|0:2,0:0:0:0:
173,117,47076,6,0,L|165:180,1,64,2|0,1:2|0:2,0:0:0:0:
84,140,47481,2,0,L|76:203,1,64,2|0,1:2|0:2,0:0:0:0:
74,219,47785,1,2,0:2:0:0:
72,234,47887,6,0,B|132:221|133:279|208:260,1,128,2|8,1:2|0:2,0:0:0:0:
192,262,48495,1,0,0:2:0:0:
86,308,48697,1,2,1:2:0:0:
86,308,48900,2,0,P|69:334|70:378,1,64,2|8,0:2|0:2,0:0:0:0:
285,301,49305,5,2,0:2:0:0:
285,301,49407,1,2,0:2:0:0:
285,301,49508,2,0,P|262:241|265:172,1,128,2|8,1:2|0:2,0:0:0:0:
406,163,50116,1,0,0:2:0:0:
406,163,50319,2,0,P|375:183|342:183,1,64,2|0,1:2|0:2,0:0:0:0:
317,111,50724,2,0,P|347:90|380:90,1,64,10|0,0:2|0:2,0:0:0:0:
195,8,51130,5,2,1:2:0:0:
195,8,51535,2,0,P|181:41|177:81,1,64,10|0,0:2|0:2,0:0:0:0:
256,177,51941,2,0,P|234:148|201:124,1,64,2|0,1:2|0:2,0:0:0:0:
79,145,52346,2,0,P|114:140|151:124,1,64,10|0,0:2|0:2,0:0:0:0:
72,314,52751,6,0,P|56:253|9:203,2,128,6|0|0,1:2|1:2|1:2,0:0:0:0:
48,378,53765,1,2,3:2:0:0:
142,334,53968,1,10,0:2:0:0:
229,384,54170,1,2,3:2:0:0:
349,265,54373,5,8,0:2:0:0:
275,219,54576,1,0,1:2:0:0:
425,163,54778,2,0,P|445:195|455:229,2,64,4|2|2,1:2|0:2|0:2,0:0:0:0:
216,62,55995,6,0,P|208:119|161:153,1,120,6|0,1:2|0:2,0:0:0:0:
74,55,56400,2,0,P|124:65|145:92,1,80,10|2,0:2|0:2,0:0:0:0:
82,133,56704,1,8,0:2:0:0:
82,133,56805,1,0,1:2:0:0:
248,186,57008,1,2,1:2:0:0:
248,186,57211,1,8,0:2:0:0:
85,303,57414,6,0,P|163:306|219:360,1,160,2|0,1:2|1:2,0:0:0:0:
219,360,58022,1,8,0:2:0:0:
310,287,58224,1,0,1:2:0:0:
290,291,58326,1,0,1:2:0:0:
270,295,58427,1,2,1:2:0:0:
388,276,58630,1,0,1:2:0:0:
276,214,58832,1,8,0:2:0:0:
388,276,59035,1,0,0:2:0:0:
461,148,59238,6,0,P|411:131|379:48,1,120,2|0,1:2|0:2,0:0:0:0:
483,4,59643,2,0,P|481:43|455:72,1,80,8|2,0:2|0:2,0:0:0:0:
412,10,59947,1,8,0:2:0:0:
412,10,60049,1,0,1:2:0:0:
310,119,60251,1,2,1:2:0:0:
310,119,60454,1,8,0:2:0:0:
158,0,60657,6,0,P|132:30|121:152,1,160,2|2,1:2|1:2,0:0:0:0:
122,147,61265,1,8,0:2:0:0:
68,267,61468,1,2,1:2:0:0:
78,250,61569,1,0,1:2:0:0:
83,231,61670,2,0,P|45:192|4:193,1,80,2|0,1:2|1:2,0:0:0:0:
205,130,62076,1,10,0:2:0:0:
205,130,62278,1,2,0:2:0:0:
289,294,62481,6,0,P|318:234|391:224,1,120,6|0,1:2|0:2,0:0:0:0:
442,304,62887,2,0,P|398:315|360:294,1,80,10|2,0:2|0:2,0:0:0:0:
365,218,63191,1,8,0:2:0:0:
365,218,63292,1,0,1:2:0:0:
323,361,63495,1,2,1:2:0:0:
323,361,63697,1,8,0:2:0:0:
213,228,63900,6,0,B|140:203|136:272|60:248,1,160,2|0,1:2|1:2,0:0:0:0:
213,228,64508,1,10,0:2:0:0:
86,178,64711,1,2,1:2:0:0:
78,162,64813,1,0,1:2:0:0:
70,146,64914,1,0,1:2:0:0:
16,307,65116,1,2,1:2:0:0:
176,371,65319,2,0,P|188:333|177:296,1,80,10|0,0:2|0:2,0:0:0:0:
168,72,65724,6,0,P|211:133|286:121,1,160,2|8,1:2|0:2,0:0:0:0:
384,83,66332,1,2,1:2:0:0:
368,95,66434,1,0,1:2:0:0:
359,112,66535,1,0,1:2:0:0:
392,178,66738,1,0,1:2:0:0:
308,52,66941,1,8,0:2:0:0:
217,224,67143,6,0,P|275:223|313:270,1,120,6|0,1:2|0:2,0:0:0:0:
266,321,67549,2,0,P|215:317|193:289,1,80,2|10,1:2|0:2,0:0:0:0:
312,267,67954,1,2,1:2:0:0:
64,261,68157,6,0,P|90:293|96:351,1,80,2|0,1:2|1:2,0:0:0:0:
87,347,68461,1,8,0:2:0:0:
69,356,68562,1,8,0:2:0:0:
150,146,68765,5,8,0:2:0:0:
150,146,68866,1,8,0:2:0:0:
150,146,68968,2,0,P|170:90|145:33,1,120,6|0,1:2|0:2,0:0:0:0:
25,78,69373,2,0,P|60:95|99:91,1,80,10|0,0:2|0:2,0:0:0:0:
77,22,69677,1,8,0:2:0:0:
77,22,69778,1,0,1:2:0:0:
53,169,69981,1,2,1:2:0:0:
53,169,70184,1,8,0:2:0:0:
243,89,70387,6,0,B|324:63|330:127|411:104,1,160,2|2,1:2|1:2,0:0:0:0:
397,107,70995,1,10,0:2:0:0:
272,206,71197,1,2,1:2:0:0:
276,182,71299,1,0,1:2:0:0:
281,158,71400,1,0,1:2:0:0:
341,248,71603,1,0,1:2:0:0:
223,298,71805,1,10,0:2:0:0:
285,162,72008,1,2,0:2:0:0:
464,319,72211,6,0,P|406:321|339:379,1,120,2|0,1:2|0:2,0:0:0:0:
294,306,72616,2,0,P|283:343|250:365,1,80,10|0,0:2|0:2,0:0:0:0:
223,298,72920,1,8,0:2:0:0:
223,298,73022,1,0,1:2:0:0:
359,358,73224,1,2,1:2:0:0:
421,215,73427,1,8,0:2:0:0:
281,158,73630,6,0,B|206:141|210:209|117:184,1,160,6|0,1:2|1:2,0:0:0:0:
128,186,74238,1,8,0:2:0:0:
5,157,74441,1,2,1:2:0:0:
20,138,74542,1,0,1:2:0:0:
43,134,74643,2,0,P|51:182|23:222,1,80,2|0,1:2|0:2,0:0:0:0:
124,96,75049,1,8,0:2:0:0:
259,236,75251,5,8,0:2:0:0:
259,236,75353,1,8,0:2:0:0:
259,236,75454,2,0,P|241:190|278:83,1,160,14|10,0:2|0:2,0:0:0:0:
272,88,76062,1,0,0:2:0:0:
166,0,76265,2,0,P|175:40|207:72,1,80,10|0,0:2|1:2,0:0:0:0:
378,182,76670,2,0,P|369:142|337:110,1,80,10|0,0:2|1:2,0:0:0:0:
270,318,77076,5,10,0:2:0:0:
336,370,77278,1,0,1:2:0:0:
270,318,77481,1,10,0:2:0:0:
322,252,77684,1,0,1:2:0:0:
270,318,77887,1,10,0:2:0:0:
204,266,78090,1,0,1:2:0:0:
270,318,78292,1,10,0:2:0:0:
218,384,78495,1,0,1:2:0:0:
89,153,78697,6,0,B|181:121|153:194|268:163,1,160,14|8,0:2|0:2,0:0:0:0:
242,168,79305,1,2,0:2:0:0:
278,61,79508,2,0,P|239:66|214:96,1,80,10|0,0:2|1:2,0:0:0:0:
131,296,79914,2,0,P|145:259|132:223,1,80,10|0,0:2|3:2,0:0:0:0:
62,87,80319,2,0,P|24:81|0:51,1,80,10|0,0:2|1:2,0:0:0:0:
278,61,80724,6,0,P|339:84|302:234,1,240.000009155274,6|0,1:2|3:2,0:0:0:0:
298,229,81637,1,0,3:2:0:0:
282,219,81738,1,0,3:2:0:0:
275,202,81839,1,0,3:2:0:0:
280,184,81941,6,0,P|331:168|378:232,2,120.000004577637,6|0|0,1:2|1:2|1:2,0:0:0:0:
231,255,82954,1,0,0:2:0:0:
146,211,83157,1,10,0:2:0:0:
83,290,83359,5,2,0:2:0:0:
83,290,83461,1,2,0:2:0:0:
83,290,83562,2,0,P|56:256|37:167,2,120.000004577637,2|0|0,1:2|1:2|1:2,0:0:0:0:
146,211,84576,1,8,3:0:0:0:
231,255,84778,1,4,3:0:0:0:
280,184,84981,1,4,3:0:0:0:
374,295,85184,5,6,1:2:0:0:
431,251,85387,2,0,L|502:259,2,60.0000022888184,2|0|0,0:2|1:2|0:2,0:0:0:0:
309,339,85995,2,0,L|249:331,1,60.0000022888184,2|0,1:2|0:2,0:0:0:0:
374,295,86400,1,10,0:2:0:0:
280,184,86603,6,0,P|256:131|285:81,1,120.000004577637,2|0,0:2|0:2,0:0:0:0:
392,111,87211,2,0,P|346:129|328:140,1,60.0000022888184,2|12,1:2|0:2,0:0:0:0:
209,57,87616,2,0,P|178:45|148:24,1,60.0000022888184,2|8,1:2|3:0,0:0:0:0:
129,187,88022,2,0,P|96:210|77:240,1,60.0000022888184,2|4,1:2|3:0,0:0:0:0:
12,4,88427,6,0,P|63:32|75:113,2,120.000004577637,6|0|0,1:2|1:2|1:2,0:0:0:0:
12,4,89441,1,0,0:2:0:0:
4,86,89643,1,10,0:2:0:0:
155,30,89846,5,2,0:2:0:0:
155,30,89947,1,2,0:2:0:0:
155,30,90049,2,0,L|278:41,2,120.000004577637,2|0|0,1:2|1:2|1:2,0:0:0:0:
155,30,91062,1,8,3:0:0:0:
259,109,91265,1,2,1:2:0:0:
331,7,91468,1,4,3:0:0:0:
434,156,91670,5,6,1:2:0:0:
482,86,91873,2,0,L|410:77,2,60.0000022888184,2|0|0,0:2|1:2|0:2,0:0:0:0:
426,215,92481,2,0,L|433:155,1,60.0000022888184,2|0,1:2|0:2,0:0:0:0:
500,253,92887,1,0,1:2:0:0:
350,327,93089,6,0,B|290:318|300:366|213:344,1,120.000004577637,10|0,0:2|0:2,0:0:0:0:
137,307,93697,1,2,1:2:0:0:
207,281,93900,1,0,3:2:0:0:
90,214,94103,5,10,0:2:0:0:
141,311,94305,1,0,3:2:0:0:
233,196,94508,1,0,1:2:0:0:
228,173,94609,1,0,1:2:0:0:
223,150,94711,1,0,1:2:0:0:
166,16,94914,6,0,P|226:71|279:55,1,128,6|0,1:2|1:2,0:0:0:0:
374,14,95522,1,2,0:2:0:0:
374,14,95724,2,0,P|339:47|334:74,1,64,2|0,1:2|0:2,0:0:0:0:
379,120,96130,1,10,0:2:0:0:
309,218,96332,5,2,0:2:0:0:
309,218,96434,1,2,0:2:0:0:
309,218,96535,2,0,P|330:246|338:285,1,64,0|0,1:2|0:2,0:0:0:0:
222,384,96941,2,0,P|224:317|284:263,1,128,8|0,0:2|1:2,0:0:0:0:
262,272,97549,1,0,0:2:0:0:
153,331,97751,2,0,P|124:343|83:338,1,64,10|0,0:2|0:2,0:0:0:0:
312,349,98157,6,0,P|384:340|405:274,1,128,2|8,1:2|0:2,0:0:0:0:
440,182,98765,1,2,0:2:0:0:
440,182,98968,2,0,P|443:227|468:258,1,64,0|0,1:2|0:2,0:0:0:0:
380,130,99373,2,0,P|360:170|366:209,1,64,10|0,0:2|0:2,0:0:0:0:
180,248,99778,6,0,P|176:208|159:166,1,64,2|0,1:2|0:2,0:0:0:0:
119,302,100184,1,8,0:2:0:0:
119,302,100387,1,2,0:2:0:0:
172,181,100589,2,0,P|180:211|183:243,1,64,2|0,1:2|0:2,0:0:0:0:
44,189,100995,2,0,P|66:165|92:147,1,64,10|0,0:2|0:2,0:0:0:0:
5,2,101400,6,0,P|48:57|118:49,1,128,2|8,1:2|0:2,0:0:0:0:
203,15,102008,1,2,0:2:0:0:
203,15,102211,2,0,P|176:63|178:89,1,64,0|0,1:2|0:2,0:0:0:0:
259,71,102616,1,10,0:2:0:0:
259,71,102819,1,2,0:2:0:0:
177,180,103022,6,0,P|257:170|299:218,1,128,2|8,1:2|0:2,0:0:0:0:
232,303,103630,1,2,0:2:0:0:
232,303,103832,2,0,P|231:263|224:225,1,64,2|0,1:2|0:2,0:0:0:0:
172,346,104238,1,10,0:2:0:0:
172,346,104441,1,2,0:2:0:0:
342,272,104643,6,0,B|405:256|406:306|477:284,1,128,2|8,1:2|0:2,0:0:0:0:
484,177,105251,1,2,0:2:0:0:
484,177,105454,2,0,P|441:217|435:236,2,64,0|0|8,1:2|0:2|0:2,0:0:0:0:
378,163,106062,1,2,0:2:0:0:
301,313,106265,6,0,B|310:333|301:362|301:362|343:386|435:340|397:209|301:198|263:234|230:253|221:286|230:327,1,400,6|0,1:2|3:2,0:0:0:0:
143,341,107481,1,8,0:2:0:0:
164,354,107582,1,8,0:2:0:0:
178,375,107684,1,8,0:2:0:0:
18,341,107887,6,0,P|63:297|64:235,1,128,6|8,1:2|0:2,0:0:0:0:
19,139,108495,1,2,0:2:0:0:
19,139,108697,2,0,P|44:157|75:165,1,64,2|2,1:2|0:2,0:0:0:0:
140,132,109103,1,10,0:2:0:0:
236,225,109305,5,2,0:2:0:0:
236,225,109407,1,2,0:2:0:0:
236,225,109508,2,0,P|263:187|360:177,1,128,2|8,1:2|0:2,0:0:0:0:
459,188,110116,1,0,0:2:0:0:
458,188,110319,2,0,P|432:206|401:209,1,64,2|0,1:2|0:2,0:0:0:0:
370,107,110724,2,0,P|395:88|426:85,1,64,10|0,0:2|0:2,0:0:0:0:
263,5,111130,6,0,P|280:52|211:105,1,128,0|8,1:2|0:2,0:0:0:0:
133,51,111738,2,0,P|179:36|210:51,1,64,2|0,0:2|1:2,0:0:0:0:
82,103,112143,2,0,P|36:118|5:103,1,64,2|8,0:2|0:2,0:0:0:0:
183,172,112549,5,2,0:2:0:0:
183,172,112650,1,2,0:2:0:0:
183,172,112751,2,0,P|172:201|169:243,1,64,2|0,1:2|0:0,0:0:0:0:
273,247,113157,2,0,P|248:266|225:301,1,64,8|0,0:2|0:2,0:0:0:0:
61,245,113562,2,0,P|85:264|108:299,1,64,2|0,1:2|0:2,0:0:0:0:
20,354,113968,2,0,P|50:358|88:377,1,64,10|0,0:2|0:2,0:0:0:0:
273,247,114373,6,0,B|343:231|332:283|408:270,1,128,2|8,1:2|0:2,0:0:0:0:
491,257,114981,2,0,P|477:286|471:333,2,64,2|0|0,0:2|1:2|0:2,0:0:0:0:
398,354,115589,1,10,0:2:0:0:
398,354,115792,1,2,0:2:0:0:
341,160,115995,6,0,P|288:180|230:139,1,128,2|10,1:2|0:2,0:0:0:0:
314,35,116603,2,0,P|293:81|293:98,2,64,2|0|0,0:2|1:2|0:2,0:0:0:0:
314,35,117211,1,10,0:2:0:0:
368,90,117414,1,2,0:2:0:0:
199,43,117616,6,0,P|169:86|91:92,1,128,2|8,1:2|0:2,0:0:0:0:
10,92,118224,2,0,P|29:123|37:161,1,64,2|0,0:2|1:2,0:0:0:0:
130,168,118630,2,0,P|111:199|103:237,1,64,2|8,0:2|0:2,0:0:0:0:
32,384,119035,5,2,0:2:0:0:
32,384,119137,1,2,0:2:0:0:
32,384,119238,1,2,1:2:0:0:
1,320,119441,1,0,0:0:0:0:
95,353,119643,1,8,0:2:0:0:
65,290,119846,1,2,1:2:0:0:
167,363,120049,5,8,0:2:0:0:
236,357,120251,1,0,3:2:0:0:
266,334,120454,1,2,3:2:0:0:
277,311,120657,1,0,3:2:0:0:
283,201,120859,6,0,P|308:244|357:252,1,95.9999970703126,6|0,1:2|0:2,0:0:0:0:
329,143,121468,2,0,P|374:154|396:195,1,95.9999970703126,2|8,1:2|0:2,0:0:0:0:
312,16,122278,5,2,0:2:0:0:
312,16,122481,2,0,P|294:47|226:61,1,95.9999970703126,2|0,1:2|0:2,0:0:0:0:
126,2,123089,2,0,P|150:2|181:37,1,64,2|0,1:2|0:0,0:0:0:0:
174,100,123697,1,8,0:2:0:0:
174,100,123900,1,8,3:0:0:0:
67,179,124103,6,0,P|97:195|119:264,1,95.9999970703126,2|0,1:2|0:2,0:0:0:0:
0,220,124711,2,0,P|15:265|55:292,1,95.9999970703126,2|8,1:2|0:2,0:0:0:0:
231,267,125522,5,2,0:2:0:0:
231,266,125724,2,0,P|276:278|299:319,1,95.9999970703126,2|0,1:2|0:2,0:0:0:0:
371,300,126332,2,0,P|375:331|363:360,1,64,2|0,1:2|1:2,0:0:0:0:
363,360,126941,1,8,0:2:0:0:
452,200,127143,5,8,0:2:0:0:
430,211,127245,1,8,0:2:0:0:
405,208,127346,2,0,P|381:167|390:142,1,64,6|0,1:2|0:2,0:0:0:0:
402,41,127751,2,0,P|426:82|417:107,1,64,2|0,1:2|0:2,0:0:0:0:
218,82,128157,6,0,L|289:73,1,64,2|0,1:2|0:2,0:0:0:0:
177,159,128562,2,0,L|105:150,1,64,2|0,1:2|0:2,0:0:0:0:
95,148,128866,1,2,0:2:0:0:
74,146,128968,6,0,P|38:198|36:261,1,128,2|8,1:2|0:2,0:0:0:0:
36,261,129576,1,0,0:2:0:0:
108,362,129778,1,2,1:2:0:0:
108,362,129981,2,0,P|110:322|88:290,1,64,2|8,0:2|0:2,0:0:0:0:
215,209,130387,5,2,0:2:0:0:
215,209,130488,1,2,0:2:0:0:
215,209,130589,2,0,B|280:195|274:241|347:221,1,128,2|8,1:2|0:2,0:0:0:0:
431,205,131197,1,0,0:2:0:0:
431,205,131400,2,0,P|405:243|403:275,1,64,2|0,1:2|0:2,0:0:0:0:
363,155,131805,2,0,P|340:120|318:106,1,64,10|0,0:2|0:2,0:0:0:0:
242,284,132211,5,2,1:2:0:0:
242,284,132616,2,0,P|246:251|259:198,1,64,10|0,0:2|0:2,0:0:0:0:
151,190,133022,2,0,P|136:150|117:123,1,64,2|0,1:2|0:2,0:0:0:0:
247,95,133427,2,0,P|262:64|294:38,1,64,10|0,0:2|0:2,0:0:0:0:
52,26,133832,6,0,P|133:36|160:79,1,128,6|0,1:2|1:2,0:0:0:0:
124,132,134441,1,8,3:0:0:0:
159,192,134643,1,0,1:2:0:0:
123,252,134846,1,4,3:0:0:0:
180,351,135049,1,10,0:2:0:0:
207,343,135150,1,0,0:0:0:0:
234,335,135251,1,2,3:2:0:0:
127,256,135454,5,8,0:2:0:0:
77,330,135657,1,0,1:2:0:0:
298,384,135859,1,4,1:2:0:0:
298,384,136265,6,0,P|304:355|312:317,1,64,2|2,0:2|0:2,0:0:0:0:
304,300,136772,1,2,0:2:0:0:
312,278,136873,1,2,0:2:0:0:
332,265,136974,1,2,0:2:0:0:
350,248,137076,6,0,P|358:191|304:144,1,120,6|0,1:2|0:2,0:0:0:0:
213,226,137481,2,0,P|261:227|292:206,1,80,10|2,0:2|0:2,0:0:0:0:
318,148,137785,1,8,0:2:0:0:
318,148,137887,1,0,1:2:0:0:
388,307,138089,1,2,1:2:0:0:
449,230,138292,1,8,0:2:0:0:
385,65,138495,6,0,L|226:84,1,160,2|0,1:2|1:2,0:0:0:0:
80,145,139103,1,8,0:2:0:0:
151,183,139305,1,0,1:2:0:0:
154,151,139407,1,0,1:2:0:0:
158,119,139508,1,2,1:2:0:0:
91,65,139711,1,0,1:2:0:0:
233,160,139914,1,8,0:2:0:0:
58,240,140116,5,2,1:2:0:0:
58,240,140218,1,0,1:0:0:0:
58,240,140319,2,0,P|127:246|153:285,1,120,2|0,1:2|0:2,0:0:0:0:
65,381,140724,2,0,P|85:332|80:292,1,80,8|2,0:2|0:2,0:0:0:0:
16,296,141028,1,8,0:2:0:0:
16,296,141130,1,0,1:2:0:0:
150,185,141332,1,2,1:2:0:0:
78,133,141535,1,8,0:2:0:0:
210,343,141738,6,0,L|369:324,1,160,2|2,1:2|1:2,0:0:0:0:
512,250,142346,1,8,0:2:0:0:
441,212,142548,1,2,1:2:0:0:
438,244,142650,1,0,1:2:0:0:
434,276,142751,1,2,1:2:0:0:
497,326,142954,1,0,1:2:0:0:
359,245,143157,1,10,0:2:0:0:
445,216,143359,1,2,0:2:0:0:
338,86,143562,6,0,P|287:59|230:74,1,120,6|0,1:2|0:2,0:0:0:0:
249,201,143968,2,0,P|276:168|282:131,1,80,10|2,0:2|0:2,0:0:0:0:
230,74,144272,1,8,0:2:0:0:
230,74,144373,1,0,1:2:0:0:
175,229,144576,1,2,1:2:0:0:
236,279,144778,1,8,0:2:0:0:
57,360,144981,6,0,P|77:310|38:204,1,160,2|0,1:2|1:2,0:0:0:0:
236,279,145589,2,0,P|187:299|168:343,1,80,10|2,0:2|1:2,0:0:0:0:
242,353,145893,1,8,0:2:0:0:
242,353,145995,1,0,1:2:0:0:
296,239,146197,1,2,1:2:0:0:
198,140,146400,2,0,L|118:149,1,80,10|0,0:2|0:2,0:0:0:0:
288,23,146805,6,0,P|303:78|358:95,1,120,2|0,1:2|0:0,0:0:0:0:
449,72,147211,2,0,P|426:104|416:143,1,80,8|2,0:2|1:2,0:0:0:0:
456,205,147515,1,8,0:2:0:0:
456,205,147616,1,0,1:2:0:0:
353,29,147819,1,0,1:2:0:0:
289,150,148022,1,8,0:2:0:0:
90,24,148224,6,0,P|146:35|173:87,1,120,6|0,1:2|0:2,0:0:0:0:
108,138,148630,2,0,P|70:130|52:95,1,80,2|10,1:2|0:0,0:0:0:0:
174,88,149035,1,2,1:2:0:0:
112,225,149238,5,2,1:2:0:0:
88,222,149339,1,0,1:0:0:0:
64,219,149441,1,0,1:2:0:0:
165,278,149643,1,8,0:2:0:0:
289,150,149846,5,8,0:2:0:0:
304,168,149947,1,8,0:2:0:0:
311,190,150049,2,0,P|304:247|343:291,1,120,6|0,1:2|0:2,0:0:0:0:
447,223,150454,2,0,P|409:213|372:226,1,80,10|0,0:2|0:2,0:0:0:0:
418,290,150758,1,8,0:2:0:0:
418,290,150859,1,0,1:2:0:0:
490,153,151062,1,2,1:2:0:0:
490,153,151265,1,8,0:2:0:0:
373,54,151468,6,0,B|301:34|300:98|213:69,1,160,2|2,1:2|1:2,0:0:0:0:
250,3,152076,1,10,0:2:0:0:
140,58,152278,1,2,1:2:0:0:
143,81,152380,1,0,1:2:0:0:
146,105,152481,1,0,1:2:0:0:
216,154,152684,1,0,1:2:0:0:
112,225,152887,2,0,L|32:215,1,80,10|2,0:2|0:2,0:0:0:0:
241,346,153292,6,0,P|268:274|333:269,1,120,2|0,1:2|0:2,0:0:0:0:
396,328,153697,2,0,P|364:344|320:341,1,80,10|0,0:2|0:2,0:0:0:0:
303,263,154001,1,8,0:2:0:0:
303,263,154103,1,0,1:2:0:0:
483,353,154305,1,2,1:2:0:0:
483,353,154508,1,8,0:2:0:0:
454,124,154711,6,0,P|452:185|369:220,1,160,6|0,1:2|1:2,0:0:0:0:
376,140,155319,1,8,0:2:0:0:
254,165,155522,1,2,1:2:0:0:
277,167,155623,1,0,1:2:0:0:
301,170,155724,1,2,1:2:0:0:
166,75,155927,5,8,0:2:0:0:
180,104,156028,1,8,0:0:0:0:
173,136,156129,1,8,0:2:0:0:
147,156,156231,1,8,0:0:0:0:
114,154,156332,2,0,P|121:104|126:97,1,40,0|0,1:2|1:2,0:0:0:0:
21,243,156535,6,0,P|87:246|133:336,1,160,14|10,0:2|0:2,0:0:0:0:
134,319,157143,1,0,0:2:0:0:
0,384,157346,2,0,P|32:337|61:317,1,80,10|0,0:2|1:2,0:0:0:0:
223,360,157751,1,10,0:2:0:0:
223,360,157954,1,0,1:2:0:0:
162,181,158157,6,0,P|133:210|119:254,1,80,10|0,0:2|1:2,0:0:0:0:
0,118,158562,2,0,P|34:137|57:169,1,80,10|0,0:2|1:2,0:0:0:0:
213,22,158968,5,10,0:2:0:0:
256,115,159170,1,0,1:2:0:0:
280,47,159373,1,10,0:2:0:0:
188,90,159576,1,0,1:2:0:0:
465,85,159778,6,0,P|414:126|427:231,1,160,14|8,0:2|0:2,0:0:0:0:
493,168,160387,1,2,0:2:0:0:
334,109,160589,1,10,0:2:0:0:
262,250,160792,1,0,1:2:0:0:
262,250,160893,1,0,1:0:0:0:
262,250,160995,2,0,P|271:271|277:299,3,40,10|0|0|0,0:2|3:0|3:2|1:0,0:0:0:0:
221,346,161400,6,0,L|141:336,1,80,10|0,0:2|1:2,0:0:0:0:
54,384,161805,2,0,P|101:356|63:230,1,200,6|0,1:2|0:2,0:0:0:0:
49,239,162414,1,2,1:2:0:0:
25,236,162515,1,2,1:2:0:0:
8,219,162616,1,10,0:2:0:0:
262,23,163022,5,10,0:2:0:0:
234,31,163123,1,8,0:2:0:0:
234,60,163224,1,8,0:2:0:0:
262,69,163326,1,8,0:2:0:0:
278,46,163427,1,10,0:2:0:0:
512,96,163832,5,2,1:2:0:0:
448,144,164035,2,0,L|376:135,1,71.9999978027344,10|0,0:2|0:2,0:0:0:0:
425,322,164441,6,0,P|461:245|532:248,1,143.999995605469,6|0,1:2|1:2,0:0:0:0:
503,316,165049,1,10,0:2:0:0:
366,377,165251,1,0,3:2:0:0:
366,377,165353,1,0,3:2:0:0:
366,377,165454,2,0,L|286:367,1,71.9999978027344,0|0,1:2|3:2,0:0:0:0:
137,346,165859,2,0,L|208:354,1,71.9999978027344,10|0,0:2|1:2,0:0:0:0:
226,349,166164,1,0,1:2:0:0:
238,336,166265,5,10,0:2:0:0:
229,304,166366,1,8,0:2:0:0:
242,274,166467,1,8,0:2:0:0:
232,242,166569,1,8,0:2:0:0:
249,215,166670,1,10,0:2:0:0:
0,96,167076,5,2,1:2:0:0:
64,144,167279,2,0,L|136:135,1,71.9999978027344,10|0,0:2|3:2,0:0:0:0:
223,24,167684,2,0,P|206:98|285:110,1,143.999995605469,6|0,1:2|1:2,0:0:0:0:
385,164,168292,2,0,P|335:138|328:99,1,71.9999978027344,10|0,0:2|0:2,0:0:0:0:
333,106,168596,1,8,0:2:0:0:
351,88,168697,1,0,1:2:0:0:
466,172,168900,1,0,3:2:0:0:
391,266,169103,1,10,0:2:0:0:
391,266,169204,1,8,0:2:0:0:
391,266,169305,1,0,1:2:0:0:
250,216,169508,5,10,0:2:0:0:
278,208,169609,1,8,0:2:0:0:
278,179,169710,1,8,0:2:0:0:
250,170,169812,1,8,0:2:0:0:
234,193,169913,1,10,0:2:0:0:
40,56,170319,5,0,1:2:0:0:
98,118,170522,2,0,L|87:205,1,71.9999978027344,14|0,0:2|1:2,0:0:0:0:
131,347,170927,6,2,B|105:284|105:284|28:298,1,143.999995605469,6|0,1:2|1:2,0:1:0:0:
30,297,171535,1,8,0:2:0:0:
225,224,171738,6,2,B|172:272|172:272|79:250,1,143.999995605469,2|0,1:2|1:2,0:1:0:0:
101,255,172346,1,0,1:2:0:0:
341,336,172549,6,2,B|290:289|290:289|213:323,1,143.999995605469,2|0,1:2|0:2,0:1:0:0:
221,319,173157,1,0,1:2:0:0:
301,182,173359,5,2,0:2:0:0:
358,143,173562,2,0,L|421:150,1,60.0000022888184,2|0,1:2|0:2,0:0:0:0:
305,186,173968,1,10,0:2:0:0:
248,92,174170,1,2,0:2:0:0:
179,151,174373,6,0,P|123:162|59:119,1,120.000004577637,2|8,1:2|0:2,0:0:0:0:
100,38,174981,2,0,P|124:74|133:103,1,60.0000022888184,2|0,0:2|1:2,0:0:0:0:
183,155,175387,2,0,P|159:191|150:220,2,60.0000022888184,2|8|0,0:2|0:2|0:2,0:0:0:0:
15,284,175995,6,0,P|73:279|117:318,1,120.000004577637,2|8,1:2|0:2,0:0:0:0:
48,355,176603,1,2,0:2:0:0:
195,286,176805,2,0,L|254:294,1,60.0000022888184,2|0,1:2|0:2,0:0:0:0:
272,289,177109,2,0,L|331:297,1,60.0000022888184,2|0,0:2|0:2,0:0:0:0:
351,295,177414,1,2,0:2:0:0:
499,245,177616,6,0,P|444:224|423:169,1,120.000004577637,2|8,1:2|0:2,0:0:0:0:
509,75,178224,2,0,P|501:103|479:123,1,60.0000022888184,2|0,0:2|1:2,0:0:0:0:
361,132,178630,2,0,P|334:118|319:93,1,60.0000022888184,2|8,0:2|0:2,0:0:0:0:
415,79,179035,1,2,0:2:0:0:
276,220,179238,6,0,P|265:182|171:149,1,120.000004577637,2|8,1:2|0:2,0:0:0:0:
186,302,179846,2,0,P|131:279|108:226,1,120.000004577637,2|0,0:2|0:2,0:0:0:0:
198,222,180454,1,10,0:2:0:0:
198,222,180657,1,2,0:2:0:0:
27,135,180859,6,0,P|92:119|115:61,1,120.000004577637,2|8,1:2|0:2,0:0:0:0:
41,60,181468,1,2,0:2:0:0:
159,7,181670,2,0,L|246:17,1,60.0000022888184,2|0,1:2|0:2,0:0:0:0:
230,26,181974,2,0,L|317:36,1,60.0000022888184,2|0,0:2|0:2,0:0:0:0:
302,47,182278,1,2,0:2:0:0:
493,6,182481,6,0,P|452:40|434:122,1,120.000004577637,2|8,1:2|0:2,0:0:0:0:
432,101,183089,1,0,0:2:0:0:
358,167,183292,2,0,P|401:191|426:271,1,120.000004577637,2|8,1:2|0:2,0:0:0:0:
427,254,183900,1,0,0:2:0:0:
288,356,184103,6,0,P|293:326|305:289,1,60.0000022888184,2|0,1:2|0:2,0:0:0:0:
199,241,184508,2,0,P|214:266|227:293,1,60.0000022888184,0|2,1:2|0:2,0:0:0:0:
123,346,184914,1,0,1:2:0:0:
197,381,185116,1,12,0:2:0:0:
277,239,185319,1,12,0:2:0:0:
155,175,185522,5,0,3:2:0:0:
132,178,185623,1,0,3:2:0:0:
108,181,185724,2,0,L|60:186,4,30.0000011444092,2|2|2|2|10,1:2|0:2|0:2|0:2|0:2,0:0:0:0:
216,126,186332,2,0,L|263:131,4,30.0000011444092,2|2|2|2|2,0:2|0:2|1:2|0:2|0:2,0:0:0:0:
152,73,186941,1,10,0:2:0:0:
152,73,187143,1,2,0:2:0:0:
297,207,187346,6,0,L|301:167,4,30.0000011444092,2|2|2|2|10,1:2|0:2|0:2|0:2|0:2,0:0:0:0:
372,113,187954,2,0,L|367:73,4,30.0000011444092,2|2|2|2|2,0:2|0:2|1:2|0:2|0:2,0:0:0:0:
451,170,188562,1,8,0:2:0:0:
451,170,188765,1,2,0:2:0:0:
406,304,188968,6,0,P|387:300|364:298,4,30.0000011444092,6|2|2|2|10,0:2|0:2|0:2|0:2|0:2,0:0:0:0:
288,380,189576,2,0,P|307:376|330:374,4,30.0000011444092,2|2|2|2|2,0:2|0:2|1:2|0:2|0:2,0:0:0:0:
227,313,190184,1,8,0:2:0:0:
227,313,190387,1,2,0:2:0:0:
303,216,190589,6,0,L|298:255,4,30.0000011444092,2|2|2|2|10,1:2|0:2|0:2|0:2|0:2,0:0:0:0:
249,153,191197,1,2,0:2:0:0:
179,220,191400,2,0,L|115:212,1,60.0000022888184,2|0,1:2|3:2,0:0:0:0:
95,220,191704,1,2,0:2:0:0:
74,218,191805,1,8,0:0:0:0:
52,216,191907,1,8,3:0:0:0:
31,213,192008,1,8,3:0:0:0:
158,71,192211,5,6,3:2:0:0:
224,123,192413,1,0,1:2:0:0:
158,71,192616,1,10,0:2:0:0:
106,137,192819,1,0,1:2:0:0:
158,71,193022,1,10,0:2:0:0:
92,19,193225,1,0,1:2:0:0:
158,71,193427,1,10,0:2:0:0:
210,5,193630,1,0,1:2:0:0:
236,230,193832,6,0,P|276:223|309:167,1,80,14|0,0:2|1:2,0:0:0:0:
373,65,194238,2,0,P|359:103|391:159,1,80,10|0,0:2|1:2,0:0:0:0:
447,266,194643,2,0,P|420:234|355:234,1,80,10|0,0:2|1:2,0:0:0:0:
381,301,194947,1,0,1:2:0:0:
381,301,195049,1,8,0:2:0:0:
503,203,195251,1,0,1:2:0:0:
288,90,195454,5,10,0:2:0:0:
285,106,195555,1,8,0:2:0:0:
282,123,195657,1,8,0:2:0:0:
204,128,195859,5,10,0:2:0:0:
208,96,195961,1,8,0:2:0:0:
212,65,196062,1,8,0:2:0:0:
116,6,196265,5,10,0:2:0:0:
106,85,196468,1,0,1:2:0:0:
96,164,196670,1,4,3:0:0:0:
42,278,196873,6,0,P|113:259|172:358,1,200,6|2,1:2|0:2,0:0:0:0:
173,352,198292,1,2,0:2:0:0:
256,192,198697,6,0,B|293:178|302:204|352:192,1,80,2|0,0:2|0:2,0:0:0:0:
422,169,199305,2,0,P|405:195|410:244,1,80,2|0,0:2|0:2,0:0:0:0:
409,242,200116,1,2,0:2:0:0:
409,242,200522,1,2,0:2:0:0:
371,46,200927,5,2,0:2:0:0:
308,83,201130,2,0,P|266:83|228:73,1,80,2|0,0:2|0:2,0:0:0:0:
170,112,201738,1,2,0:2:0:0:
51,62,201941,6,0,P|83:85|100:120,1,80,2|0,0:2|0:2,0:0:0:0:
138,185,202549,2,0,P|105:208|88:243,2,80,2|0|0,0:2|0:2|0:2,0:0:0:0:
138,184,203765,1,2,0:2:0:0:
138,184,204170,1,2,0:2:0:0:
203,236,204373,6,0,P|243:236|282:226,1,80,2|0,0:2|0:2,0:0:0:0:
331,178,204981,1,2,0:2:0:0:
397,261,205184,6,0,L|420:258,1,20,6|0,1:2|0:2,0:0:0:0:
407,265,206603,6,0,L|430:262,1,20,6|0,1:2|0:2,0:0:0:0:
333,328,207819,5,8,3:0:0:0:
270,303,208022,1,8,3:0:0:0:
217,344,208224,1,4,3:0:0:0:
125,276,208427,6,0,P|136:227|154:201,1,71.9999978027344,14|0,0:2|1:2,0:0:0:0:
21,147,208832,2,0,P|45:173|59:206,1,71.9999978027344,10|0,0:2|1:2,0:0:0:0:
107,72,209238,1,10,0:2:0:0:
178,80,209441,1,2,1:2:0:0:
249,89,209643,1,2,3:2:0:0:
378,27,209846,6,0,P|359:83|364:113,1,71.9999978027344,14|0,0:2|1:2,0:0:0:0:
403,150,210150,1,8,0:2:0:0:
403,150,210251,1,8,0:2:0:0:
311,196,210454,1,2,1:2:0:0:
419,285,210657,5,8,0:2:0:0:
432,289,210758,1,8,0:2:0:0:
446,290,210859,2,0,P|465:287|486:281,1,35.9999989013672,2|0,1:2|0:2,0:0:0:0:
360,347,211062,1,0,3:2:0:0:
339,352,211163,1,0,3:2:0:0:
316,352,211264,2,0,P|295:349|276:343,1,35.9999989013672,2|0,1:2|0:2,0:0:0:0:
214,168,211468,5,0,1:2:0:0:
200,196,211569,1,0,1:2:0:0:
173,211,211670,2,0,P|137:165|156:107,1,120,6|0,1:2|0:2,0:0:0:0:
270,105,212076,2,0,P|249:138|213:153,1,80,10|0,0:2|0:2,0:0:0:0:
153,109,212380,1,8,0:2:0:0:
153,109,212481,1,0,1:2:0:0:
311,196,212684,1,2,1:2:0:0:
311,196,212887,1,8,0:2:0:0:
490,46,213089,6,0,P|418:71|404:171,1,160,2|0,1:2|1:2,0:0:0:0:
475,127,213697,1,10,0:2:0:0:
349,34,213900,1,2,1:2:0:0:
317,37,214001,1,0,1:2:0:0:
285,41,214103,1,2,1:2:0:0:
221,95,214305,1,2,1:2:0:0:
155,1,214508,1,8,0:2:0:0:
155,1,214711,1,2,0:2:0:0:
8,97,214914,6,0,P|67:116|91:170,1,120,2|0,1:2|0:2,0:0:0:0:
168,197,215319,2,0,P|146:242|144:272,1,80,10|0,0:2|0:2,0:0:0:0:
193,326,215623,1,8,0:2:0:0:
193,326,215724,1,2,1:2:0:0:
73,270,215927,1,2,1:2:0:0:
255,202,216130,1,8,0:2:0:0:
397,314,216332,6,0,P|433:260|421:158,1,160,6|0,1:2|1:2,0:0:0:0:
397,314,216941,1,8,0:2:0:0:
429,90,217143,1,2,1:2:0:0:
398,100,217245,1,0,1:2:0:0:
368,112,217346,1,2,1:2:0:0:
252,24,217549,5,10,0:2:0:0:
267,55,217650,1,8,0:2:0:0:
260,89,217751,1,8,0:2:0:0:
232,111,217853,1,8,0:2:0:0:
196,109,217954,2,0,P|194:87|198:66,1,40,10|8,0:2|0:2,0:0:0:0:
50,175,218157,6,0,P|126:175|169:239,1,160,6|8,1:2|0:2,0:0:0:0:
169,239,218765,1,0,1:2:0:0:
78,326,218968,2,0,P|91:288|91:248,1,80,10|0,0:2|1:2,0:0:0:0:
246,272,219373,2,0,P|232:309|232:349,1,80,10|0,0:2|1:2,0:0:0:0:
477,228,219778,5,10,0:2:0:0:
491,311,219981,1,0,1:2:0:0:
408,326,220184,1,10,0:2:0:0:
394,243,220387,1,0,1:2:0:0:
499,319,220589,1,10,0:2:0:0:
386,235,220792,1,0,1:2:0:0:
322,354,220995,1,10,0:2:0:0:
151,205,221197,5,0,1:2:0:0:
151,205,221299,1,0,1:2:0:0:
151,205,221400,2,0,P|239:194|264:121,1,160,12|8,0:2|0:2,0:0:0:0:
265,136,222008,1,0,1:2:0:0:
204,285,222211,2,0,P|199:331|212:370,1,80,10|0,0:2|1:2,0:0:0:0:
187,136,222616,2,0,P|149:108|109:100,1,80,10|0,0:2|1:2,0:0:0:0:
348,213,223022,5,10,0:2:0:0:
348,213,223224,1,0,1:2:0:0:
406,150,223427,2,0,L|395:62,1,80,10|0,0:2|1:2,0:0:0:0:
344,26,223731,1,8,0:2:0:0:
344,26,223832,1,10,0:2:0:0:
465,64,224035,1,0,1:2:0:0:
290,108,224238,1,10,0:2:0:0:
348,30,224441,1,0,1:2:0:0:
413,294,224643,5,14,0:2:0:0:
494,230,224845,1,0,1:2:0:0:
413,294,225048,1,10,0:2:0:0:
348,213,225251,1,0,1:2:0:0:
413,294,225454,1,10,0:2:0:0:
331,359,225657,1,0,1:2:0:0:
413,294,225859,1,10,0:2:0:0:
477,376,226062,1,0,1:2:0:0:
261,273,226265,6,0,B|181:257|186:317|89:294,1,160,14|10,0:2|0:2,0:0:0:0:
261,273,226873,1,0,1:2:0:0:
134,226,227076,1,10,0:2:0:0:
60,353,227278,1,0,1:2:0:0:
223,336,227481,1,10,0:2:0:0:
43,177,227684,5,0,1:2:0:0:
43,177,227785,1,0,1:2:0:0:
43,177,227887,1,14,0:2:0:0:
186,130,228089,1,0,3:2:0:0:
136,61,228292,5,10,0:2:0:0:
270,128,228494,1,0,1:2:0:0:
305,42,228697,5,10,0:2:0:0:
352,184,228899,1,10,0:2:0:0:
218,298,229103,5,2,1:2:0:0:
224,344,229204,1,0,1:2:0:0:
269,352,229305,1,2,1:2:0:0:
290,310,229407,1,0,1:2:0:0:
258,277,229508,2,0,P|248:233|259:191,1,80,0|0,0:2|0:2,0:0:0:0:
454,132,229914,6,2,B|423:82|410:32|410:32|410:79|376:151|376:151|386:106|376:69|339:48|297:9|192:21|150:165|251:216|298:190|298:190|288:158|300:134|300:134|229:79|146:90|146:90|130:158|157:208|157:208|125:179|85:170,1,1040,14|2,0:2|3:2,0:1:0:0:
74,171,232650,1,0,3:2:0:0:
54,172,232751,6,0,P|39:253|72:302,2,120.000004577637,6|0|0,1:2|1:2|1:2,0:0:0:0:
54,172,233765,1,2,0:2:0:0:
8,341,233968,1,10,0:2:0:0:
133,277,234170,6,0,P|191:289|228:345,1,120.000004577637,2|0,0:2|0:2,0:0:0:0:
310,223,234778,2,0,P|290:245|282:274,1,60.0000022888184,2|0,1:2|0:2,0:0:0:0:
376,256,235184,2,0,P|356:278|348:307,1,60.0000022888184,2|0,1:2|0:2,0:0:0:0:
425,317,235589,1,2,1:2:0:0:
425,317,235792,1,8,3:0:0:0:
481,143,235995,5,2,1:2:0:0:
421,100,236197,2,0,L|349:108,2,60.0000022888184,2|0|0,0:2|1:2|0:2,0:0:0:0:
296,44,236805,2,0,P|296:73|283:100,1,60.0000022888184,2|0,1:2|0:2,0:0:0:0:
296,44,237211,1,8,0:2:0:0:
153,73,237414,6,0,P|209:128|214:181,1,120.000004577637,2|0,0:2|0:2,0:0:0:0:
107,209,238022,2,0,P|115:181|132:156,1,60.0000022888184,2|8,1:2|3:0,0:0:0:0:
20,86,238427,2,0,P|36:110|45:139,1,60.0000022888184,2|0,1:2|3:2,0:0:0:0:
1,202,238832,1,10,0:2:0:0:
205,268,239035,5,0,1:2:0:0:
205,268,239137,1,0,1:2:0:0:
205,268,239238,2,0,P|139:289|106:357,2,120.000004577637,6|0|0,1:2|1:2|1:2,0:0:0:0:
205,268,240251,1,2,0:2:0:0:
346,318,240454,1,10,0:2:0:0:
286,265,240657,6,0,P|275:202|307:146,1,120.000004577637,2|0,0:2|0:2,0:0:0:0:
187,86,241265,2,0,P|208:111|221:139,1,60.0000022888184,2|0,1:2|0:2,0:0:0:0:
269,21,241670,2,0,P|275:53|272:84,1,60.0000022888184,2|0,1:2|0:2,0:0:0:0:
359,53,242076,1,2,1:2:0:0:
359,53,242278,1,8,3:0:0:0:
449,195,242481,5,6,1:2:0:0:
411,252,242684,2,0,P|373:244|351:229,2,60.0000022888184,2|0|0,0:2|1:2|0:2,0:0:0:0:
306,289,243292,1,2,1:2:0:0:
453,199,243495,1,10,0:2:0:0:
312,133,243697,1,2,1:2:0:0:
220,323,243900,6,0,P|174:314|157:230,1,120.000004577637,14|0,0:2|3:2,0:0:0:0:
135,373,244508,1,2,1:2:0:0:
219,248,244711,1,0,1:2:0:0:
36,93,244914,5,10,0:2:0:0:
52,167,245116,1,8,0:2:0:0:
70,241,245319,2,0,L|62:283,3,30.0000011444092,2|0|0|0,1:2|1:2|1:2|1:2,0:0:0:0:
0,333,245724,5,10,0:2:0:0:
64,270,245927,1,2,0:2:0:0:
141,313,246130,1,2,0:2:0:0:
243,231,246332,2,0,P|217:282|235:338,1,120.000004577637,2|0,0:2|0:2,0:0:0:0:
235,338,246941,1,2,0:2:0:0:
395,242,247143,6,0,P|336:244|297:288,1,120.000004577637,2|0,0:2|0:2,0:0:0:0:
370,314,247751,1,2,0:2:0:0:
472,262,247954,6,0,P|471:216|438:181,1,80,2|8,0:0|3:0,0:0:0:0:
451,189,248562,1,4,3:0:0:0:
256,64,248968,5,6,1:2:0:0:
256,192,249069,12,0,257887,0:2:0:0:
