osu file format v14

[General]
AudioFilename: audio.mp3
AudioLeadIn: 0
PreviewTime: 34145
Countdown: 0
SampleSet: Soft
StackLeniency: 0.6
Mode: 0
LetterboxInBreaks: 0
EpilepsyWarning: 1
WidescreenStoryboard: 1

[Editor]
DistanceSpacing: 1.1
BeatDivisor: 4
GridSize: 4
TimelineZoom: 1.8

[Metadata]
Title:Lasting Memories (TV Size)
TitleUnicode:Lasting Memories (TV Size)
Artist:Ohara Rinne (CV: Tamura Yukari)
ArtistUnicode:御原凛音 (CV: 田村ゆかり)
Creator:Riana
Version:Normal
Source:ISLAND
Tags:frontwing アイランド japanese anime ep 3 rinne's song affirmation neoskylove taeyang kwaimsuckasfuk [_kuro_usagi_] [ kuro usagi ]
BeatmapID:1899211
BeatmapSetID:909473

[Difficulty]
HPDrainRate:4
CircleSize:3
OverallDifficulty:4
ApproachRate:5
SliderMultiplier:2.2
SliderTickRate:1

[Events]
//Background and Video events
0,0,"bgn.jpg",0,0
//Break Periods
//Storyboard Layer 0 (Background)
//Storyboard Layer 1 (Fail)
//Storyboard Layer 2 (Pass)
//Storyboard Layer 3 (Foreground)
//Storyboard Layer 4 (Overlay)
//Storyboard Sound Samples

[TimingPoints]
406,769.230769230769,4,2,33,30,1,0
15790,-100,4,2,33,40,0,0
34251,-100,4,2,33,60,0,0
80405,-100,4,2,33,40,0,0
108098,-100,4,2,33,65,0,1
114252,-100,4,2,33,50,0,0
122328,779.220779220779,4,2,33,40,1,0
122717,857.142857142857,4,2,33,30,1,0
123145,888.888888888889,4,2,33,30,1,0
130256,-100,4,2,33,5,0,0

[Colours]
Combo1 : 255,233,164
Combo2 : 255,191,128
Combo3 : 255,128,128
Combo4 : 255,255,128

[HitObjects]
331,217,3482,6,0,P|305:258|324:332,2,110,2|0|0,3:2|0:2|0:2,0:0:0:0:
438,160,4636,2,0,P|461:111|439:47,1,110,2|2,3:1|0:1,0:0:0:0:
24,67,6559,6,0,P|-2:108|25:177,1,110,2|0,3:2|0:2,0:0:0:0:
36,283,7329,2,0,P|85:260|148:286,1,110,2|0,0:2|0:2,0:0:0:0:
258,272,8098,2,0,P|308:297|366:278,2,110,2|0|8,3:2|0:2|0:3,0:0:0:0:
287,131,9636,6,0,P|241:138|173:45,1,165,2|0,3:2|0:0,0:0:0:0:
134,8,10405,2,0,P|83:14|36:78,1,110,0|2,0:2|0:1,0:0:0:0:
79,169,11175,2,0,P|117:231|112:281,1,110,2|0,0:1|0:2,0:0:0:0:
251,226,12713,6,0,P|291:212|349:237,2,73.3333333333333,2|2|2,3:2|0:2|0:2,0:0:0:0:
170,229,13482,2,0,P|177:187|210:155,2,73.3333333333333,2|2|2,3:1|0:2|0:2,0:0:0:0:
141,304,14252,1,2,3:2:0:0:
105,126,14829,6,0,P|146:84|208:64,1,110,0|0,0:2|0:2,0:0:0:0:
250,86,15405,2,0,P|290:94|311:86,1,55,0|0,0:2|0:2,0:0:0:0:
345,47,15790,2,0,P|335:95|385:157,2,110,2|0|0,3:2|0:2|0:2,0:0:0:0:
392,9,16752,1,0,0:2:0:0:
392,9,16944,1,2,0:1:0:0:
481,90,17329,1,2,0:1:0:0:
434,265,17905,5,0,0:2:0:0:
434,265,18098,2,0,P|490:275|525:255,2,82.5,0|2|0,3:2|0:2|0:2,0:0:0:0:
388,224,18867,2,0,P|398:176|348:114,2,110,2|0|0,3:2|0:2|0:2,0:0:0:0:
275,269,20021,2,0,P|228:257|211:242,1,55,2|0,0:1|0:0,0:0:0:0:
183,207,20405,2,0,P|90:193|-9:290,1,220,2|6,3:1|3:2,0:0:0:0:
218,369,21944,6,0,P|313:327|302:214,1,220,2|8,3:2|0:2,0:0:0:0:
131,60,23482,2,0,P|61:104|63:234,1,220,6|8,3:2|0:2,0:0:0:0:
295,292,25021,2,0,P|334:254|404:262,2,110,6|0|8,3:2|0:2|0:2,0:0:0:0:
399,353,26175,2,0,P|463:356|503:396,2,110,0|2|0,3:2|3:2|0:2,0:0:0:0:
395,231,27329,6,0,P|423:183|407:117,1,110,8|4,0:2|0:2,0:0:0:0:
380,81,27905,1,0,0:2:0:0:
380,81,28098,2,0,P|325:64|234:186,1,220,2|0,3:2|3:2,0:0:0:0:
275,284,29252,1,0,3:2:0:0:
396,285,29636,6,0,P|430:321|438:365,2,73.3333333333333,2|2|0,3:2|0:2|0:2,0:0:0:0:
397,204,30405,2,0,P|445:217|465:238,2,73.3333333333333,2|2|2,0:2|0:2|0:2,0:0:0:0:
325,165,31175,2,0,P|361:129|432:130,1,110,6|0,3:2|0:0,0:0:0:0:
479,228,31944,6,0,P|491:293|451:354,1,110,0|0,3:2|3:2,0:0:0:0:
361,376,32713,1,8,0:3:0:0:
246,339,33098,2,0,P|224:282|257:216,2,110,0|4|2,0:0|0:3|0:0,0:0:0:0:
325,247,34252,5,4,3:2:0:0:
410,161,34636,2,0,P|459:147|529:184,2,110,2|10|2,0:2|0:2|3:2,0:0:0:0:
325,247,35790,2,0,P|276:261|205:225,1,110,2|2,3:2|3:2,0:0:0:0:
151,143,36559,2,0,P|114:178|111:257,1,110,10|2,0:2|0:2,0:0:0:0:
162,340,37329,6,0,P|108:329|60:353,2,110,2|2|8,3:2|0:1|0:2,0:0:0:0:
209,377,38290,1,2,0:1:0:0:
209,377,38482,1,0,3:2:0:0:
315,319,38867,2,0,P|378:330|431:304,1,110,8|4,0:2|0:2,0:0:0:0:
399,194,39636,2,0,P|440:144|444:86,1,110,8|0,0:2|3:2,0:0:0:0:
325,103,40405,5,0,3:2:0:0:
272,212,40790,2,0,P|258:261|295:331,2,110,2|10|2,0:2|0:2|3:2,0:0:0:0:
362,131,41944,2,0,P|376:82|340:11,1,110,2|2,3:2|3:2,0:0:0:0:
236,31,42713,2,0,P|217:81|231:134,1,110,10|2,0:2|0:2,0:0:0:0:
137,210,43482,6,0,P|83:199|35:223,2,110,2|2|8,3:2|0:1|0:2,0:0:0:0:
177,255,44444,1,2,0:1:0:0:
177,255,44636,1,0,3:2:0:0:
277,322,45021,2,0,P|313:339|421:286,1,165,2|0,3:1|0:2,0:0:0:0:
425,230,45790,2,0,P|406:182|339:151,1,110,10|2,0:2|0:2,0:0:0:0:
305,122,46367,1,2,0:2:0:0:
305,122,46559,6,0,P|297:72|340:11,1,110,2|2,3:2|0:2,0:0:0:0:
381,0,47136,1,2,0:2:0:0:
463,85,47521,2,0,P|512:62|525:44,2,55,2|2|0,0:2|3:2|3:2,0:0:0:0:
408,112,48098,2,0,P|386:135|395:216,1,110,0|0,3:2|3:2,0:0:0:0:
379,329,48867,2,0,P|329:317|289:254,1,110,10|10,0:2|0:2,0:0:0:0:
250,230,49444,1,10,0:2:0:0:
250,230,49636,6,0,P|199:204|148:220,1,110,2|2,3:2|0:1,0:0:0:0:
40,267,50405,2,0,P|31:307|38:331,2,55,8|2|2,0:2|0:2|3:2,0:0:0:0:
71,215,50982,1,0,3:2:0:0:
71,215,51175,2,0,P|82:185|49:108,1,110,2|4,3:1|0:2,0:0:0:0:
141,26,51944,1,8,0:2:0:0:
261,12,52329,6,0,P|299:18|345:72,1,110,2|2,0:2|3:2,0:0:0:0:
411,170,53098,2,0,P|441:185|474:183,2,55,2|2|10,0:2|0:2|0:2,0:0:0:0:
290,186,53867,2,0,P|267:222|269:253,1,55,0|0,3:2|0:2,0:0:0:0:
276,292,54252,2,0,P|213:270|158:303,1,110,0|8,3:2|0:2,0:0:0:0:
69,343,55021,2,0,P|52:280|67:233,1,110,12|0,0:2|3:2,0:0:0:0:
94,120,55790,6,0,P|128:162|183:164,1,110,0|2,3:2|0:1,0:0:0:0:
234,136,56367,1,0,0:2:0:0:
234,136,56559,1,12,0:2:0:0:
317,48,56944,2,0,P|344:37|392:47,1,55,0|0,3:2|0:2,0:0:0:0:
424,12,57329,2,0,P|491:59|489:152,1,165,12|8,0:2|0:3,0:2:0:0:
462,186,58098,1,8,0:3:0:0:
429,302,58482,1,4,0:3:0:0:
308,314,58867,5,4,3:2:0:0:
238,213,59252,2,0,P|189:199|119:236,2,110,2|10|2,0:2|0:2|3:2,0:0:0:0:
282,255,60213,1,0,0:2:0:0:
323,301,60405,2,0,P|372:315|443:279,1,110,2|2,3:2|3:2,0:0:0:0:
473,184,61175,2,0,P|461:134|394:92,1,110,10|2,0:2|0:2,0:0:0:0:
296,86,61944,6,0,P|242:97|194:73,2,110,2|2|8,3:2|0:1|0:2,0:0:0:0:
343,49,62905,1,2,0:1:0:0:
343,49,63098,1,0,3:2:0:0:
360,168,63482,2,0,P|348:230|306:271,1,110,8|4,0:2|0:2,0:0:0:0:
198,259,64252,2,0,P|136:280|81:264,1,110,8|0,0:2|3:2,0:0:0:0:
135,157,65021,5,0,3:2:0:0:
220,71,65405,2,0,P|269:57|339:94,2,110,2|10|2,0:2|0:2|3:2,0:0:0:0:
176,113,66367,1,0,0:2:0:0:
135,159,66559,2,0,P|86:173|15:137,1,110,2|2,3:2|3:2,0:0:0:0:
32,33,67329,2,0,P|82:14|135:28,1,110,10|2,0:2|0:2,0:0:0:0:
201,128,68098,6,0,P|237:86|240:34,2,110,2|2|8,3:2|0:1|0:2,0:0:0:0:
142,144,69059,1,2,0:1:0:0:
142,144,69252,1,0,3:2:0:0:
109,261,69636,2,0,P|145:244|229:277,1,110,12|8,0:2|0:3,0:0:0:0:
281,355,70405,1,8,0:3:0:0:
401,363,70790,1,4,0:3:0:0:
455,255,71175,6,0,P|463:205|420:144,1,110,6|2,3:2|0:2,0:0:0:0:
377,141,71752,1,2,0:2:0:0:
377,141,71944,2,0,P|346:86|353:34,2,110,8|2|0,0:2|3:2|3:2,0:0:0:0:
327,251,73098,1,0,0:2:0:0:
226,318,73482,2,0,P|184:320|119:279,1,110,14|10,0:2|0:2,0:0:0:0:
209,200,74252,6,0,P|208:149|155:96,1,110,2|2,3:2|0:1,0:0:0:0:
112,101,74829,1,2,0:2:0:0:
112,101,75021,2,0,P|71:52|69:0,2,110,8|2|12,0:2|3:2|0:2,0:0:0:0:
212,168,76175,1,0,3:2:0:0:
332,171,76559,2,0,L|343:111,2,55,8|8|4,0:2|0:3|0:3,0:0:0:0:
317,291,77329,6,0,P|355:285|376:266,2,55,12|0|8,0:2|0:0|0:2,0:0:0:0:
263,264,77905,1,8,0:2:0:0:
216,152,78290,1,8,0:2:0:0:
216,152,78482,2,0,P|153:103|106:110,1,110,8|0,0:2|0:0,0:0:0:0:
71,129,79059,1,8,0:2:0:0:
71,129,79252,1,4,0:3:0:0:
86,248,79636,2,0,L|76:308,2,55,8|0|8,0:2|0:2|0:2,0:0:0:0:
194,194,80405,6,0,P|178:251|199:309,1,110,4|0,3:2|3:2,0:0:0:0:
299,354,81175,2,0,P|356:339|396:292,1,110,8|0,0:2|0:2,0:0:0:0:
403,244,81752,1,0,3:2:0:0:
403,244,81944,2,0,P|374:188|319:169,1,110,0|0,0:2|3:2,0:0:0:0:
214,144,82713,2,0,P|190:109|187:84,2,55,8|0|0,0:2|0:2|0:2,0:0:0:0:
152,248,83482,6,0,P|95:264|37:243,1,110,0|2,3:2|3:1,0:0:0:0:
3,143,84252,2,0,P|17:85|64:45,1,110,8|0,0:2|0:2,0:0:0:0:
102,39,84829,1,0,3:2:0:0:
102,39,85021,2,0,P|163:62|168:70,2,55,4|8|0,3:2|0:2|3:2,0:0:0:0:
158,145,85790,2,0,P|193:169|276:147,1,110,8|0,0:2|0:2,0:0:0:0:
364,105,86559,6,0,P|380:162|359:220,1,110,2|0,3:2|3:2,0:0:0:0:
310,316,87329,2,0,P|268:273|207:262,1,110,8|0,0:2|0:2,0:0:0:0:
162,280,87905,1,0,3:2:0:0:
162,280,88098,2,0,P|119:326|120:384,1,110,0|0,3:2|3:2,0:0:0:0:
45,272,88867,2,0,P|10:248|-15:245,2,55,8|0|8,0:2|0:2|0:2,0:0:0:0:
114,172,89636,6,0,P|125:125|170:78,1,110,4|2,3:2|3:1,0:0:0:0:
283,52,90405,2,0,P|288:13|281:-9,2,55,8|2|0,0:2|0:1|0:2,0:0:0:0:
267,110,90982,1,0,3:2:0:0:
267,110,91175,6,0,P|256:152|292:233,1,110,2|0,3:1|3:2,0:0:0:0:
375,146,91944,2,0,P|417:148|474:204,1,110,8|8,0:2|0:2,0:0:0:0:
483,248,92521,1,8,0:2:0:0:
483,248,92713,2,0,P|463:305|401:326,1,110,2|0,3:2|0:2,0:0:0:0:
360,320,93290,1,2,3:2:0:0:
360,320,93482,1,10,0:2:0:0:
241,292,93867,2,0,P|212:306|195:335,1,55,0|2,3:2|0:2,0:0:0:0:
151,361,94252,6,0,P|105:371|43:321,1,110,2|0,0:2|3:2,0:0:0:0:
27,285,94829,1,2,0:2:0:0:
27,285,95021,1,10,0:2:0:0:
211,213,95598,1,2,0:2:0:0:
211,213,95790,2,0,P|258:189|217:42,1,220,2|8,3:2|0:2,0:0:0:0:
168,49,96752,2,0,P|148:16|152:-21,2,55,2|0|0,0:1|3:2|0:2,0:0:0:0:
129,102,97329,6,0,P|71:116|20:74,2,110,2|2|8,0:1|3:2|0:2,0:0:0:0:
206,210,98482,2,0,P|234:233|243:259,1,55,8|8,0:2|0:2,0:0:0:0:
227,308,98867,2,0,P|291:295|340:333,1,110,4|10,3:2|0:2,0:0:0:0:
358,368,99444,1,2,0:2:0:0:
358,368,99636,1,10,0:2:0:0:
435,275,100021,2,0,P|446:243|442:212,1,55,8|8,0:3|0:3,0:0:0:0:
412,170,100405,6,0,P|348:157|299:195,1,110,0|2,3:2|3:2,0:0:0:0:
281,230,100982,1,2,0:2:0:0:
281,230,101175,1,10,0:2:0:0:
180,297,101559,2,0,P|148:308|117:304,1,55,0|0,0:2|0:2,0:0:0:0:
75,274,101944,2,0,P|62:210|100:161,1,110,0|2,3:2|3:1,0:0:0:0:
135,143,102521,1,2,3:2:0:0:
135,143,102713,1,10,0:2:0:0:
251,173,103098,2,0,P|284:179|314:169,1,55,8|8,0:2|0:2,0:0:0:0:
349,132,103482,6,0,P|353:186|445:252,2,165,4|2|8,3:2|3:2|0:2,0:0:0:0:
276,35,105021,6,0,P|219:19|161:40,1,110,4|0,3:2|3:2,0:0:0:0:
81,113,105790,2,0,P|65:169|86:228,1,110,8|0,0:2|0:2,0:0:0:0:
124,258,106367,1,0,3:2:0:0:
124,258,106559,2,0,P|126:320|88:364,1,110,2|0,0:0|3:2,0:0:0:0:
220,337,107329,2,0,P|244:372|247:397,2,55,8|0|0,0:2|0:0|0:2,0:0:0:0:
262,223,108098,6,0,P|319:172|359:175,1,110,4|0,3:2|0:2,0:0:0:0:
408,184,108675,1,0,3:2:0:0:
408,184,108867,2,0,P|464:178|497:136,1,110,12|0,0:2|3:2,0:0:0:0:
441,30,109636,2,0,P|372:26|333:59,1,110,12|0,0:2|3:2,0:0:0:0:
289,80,110213,1,0,0:2:0:0:
289,80,110405,2,0,P|220:84|182:61,1,110,12|0,0:2|3:2,0:0:0:0:
65,80,111175,6,0,P|48:40|50:17,2,55,12|0|2,0:2|0:2|0:1,0:0:0:0:
105,124,111752,1,4,3:2:0:0:
105,124,111944,2,0,P|125:163|105:248,1,110,8|0,0:2|0:2,0:0:0:0:
69,338,112713,2,0,P|134:315|178:340,1,110,2|8,0:1|0:3,0:0:0:0:
287,351,113482,2,0,P|352:374|396:349,1,110,12|4,0:2|0:3,0:0:0:0:
467,268,114252,6,0,P|472:194|435:153,2,110,4|0|8,3:2|0:2|0:2,0:0:0:0:
354,223,115405,1,0,0:2:0:0:
242,269,115790,1,8,0:2:0:0:
128,227,116175,2,0,P|123:153|160:112,2,110,8|0|4,0:2|0:2|0:3,0:0:0:0:
239,180,117329,6,0,P|313:175|354:212,2,110,4|2|4,3:2|0:1|3:2,0:0:0:0:
226,300,118482,1,0,0:2:0:0:
331,359,118867,1,8,0:2:0:0:
411,268,119252,2,0,P|485:263|526:300,2,110,8|0|4,0:3|0:0|0:3,0:0:0:0:
338,170,120405,6,0,P|289:145|236:156,2,110,4|0|12,3:2|0:2|0:2,0:0:0:0:
458,175,121559,1,2,3:2:0:0:
393,72,121944,1,2,3:2:0:0:
278,37,122329,1,8,0:2:0:0:
166,71,122717,2,0,P|129:87|112:103,2,55,12|8|4,0:2|0:3|0:3,0:0:0:0:
256,192,123589,12,0,130256,0:0:0:0:
