osu file format v14

[General]
AudioFilename: audio.mp3
AudioLeadIn: 0
PreviewTime: 34145
Countdown: 0
SampleSet: Soft
StackLeniency: 0.5
Mode: 0
LetterboxInBreaks: 0
EpilepsyWarning: 1
WidescreenStoryboard: 1

[Editor]
Bookmarks: 61380
DistanceSpacing: 1.1
BeatDivisor: 8
GridSize: 4
TimelineZoom: 1.200001

[Metadata]
Title:Lasting Memories (TV Size)
TitleUnicode:Lasting Memories (TV Size)
Artist:Ohara Rinne (CV: Tamura Yukari)
ArtistUnicode:御原凛音 (CV: 田村ゆかり)
Creator:Riana
Version:Insane
Source:ISLAND
Tags:frontwing アイランド japanese anime ep 3 rinne's song affirmation neoskylove taeyang kwaimsuckasfuk [_kuro_usagi_] [ kuro usagi ]
BeatmapID:1933436
BeatmapSetID:909473

[Difficulty]
HPDrainRate:6
CircleSize:3.5
OverallDifficulty:8
ApproachRate:8.5
SliderMultiplier:2.8
SliderTickRate:1

[Events]
//Background and Video events
0,0,"hi.jpg",0,0
//Break Periods
//Storyboard Layer 0 (Background)
//Storyboard Layer 1 (Fail)
//Storyboard Layer 2 (Pass)
//Storyboard Layer 3 (Foreground)
//Storyboard Layer 4 (Overlay)
//Storyboard Sound Samples

[TimingPoints]
406,769.230769230769,4,2,33,30,1,0
2520,-133.333333333333,4,2,33,30,0,0
3482,-200,4,2,33,30,0,0
5597,-133.333333333333,4,2,33,30,0,0
9636,-133.333333333333,4,2,33,30,0,0
11944,-166.666666666667,4,2,33,30,0,0
12713,-133.333333333333,4,2,33,30,0,0
15790,-133.333333333333,4,2,33,40,0,0
34251,-100,4,2,33,60,0,0
80405,-133.333333333333,4,2,33,40,0,0
108098,-66.6666666666667,4,2,33,65,0,1
114252,-100,4,2,33,50,0,0
122328,779.220779220779,4,2,33,40,1,0
122717,857.142857142857,4,2,33,30,1,0
123145,888.888888888889,4,2,33,30,1,0
130256,-100,4,2,33,5,0,0

[Colours]
Combo1 : 255,233,164
Combo2 : 176,176,255
Combo3 : 128,214,255
Combo4 : 185,255,255

[HitObjects]
176,28,2521,5,0,0:2:0:0:
176,28,2713,2,0,P|208:13|248:19,1,52.5000020027161,0|0,0:2|0:2,0:0:0:0:
254,91,3098,2,0,P|222:106|182:100,1,52.5000020027161,0|0,0:2|0:2,0:0:0:0:
142,164,3482,6,0,P|144:203|160:237,1,70,2|0,3:2|0:2,0:0:0:0:
224,279,4059,2,0,P|223:319|209:354,1,70,0|0,0:0|0:0,0:0:0:0:
147,384,4636,1,2,3:1:0:0:
87,332,4893,2,0,L|91:320,2,11.6666666666667,0|0|2,0:0|0:0|0:1,0:0:0:0:
227,126,5598,5,0,0:2:0:0:
227,126,5790,2,0,P|242:158|236:198,1,52.5000020027161,0|0,0:2|0:2,0:0:0:0:
164,204,6175,2,0,P|149:172|155:132,1,52.5000020027161,0|0,0:2|0:2,0:0:0:0:
201,30,6559,6,0,P|175:26|138:41,1,52.5000020027161,2|0,3:2|0:0,0:0:0:0:
91,95,6944,1,0,0:2:0:0:
91,95,7136,2,0,P|61:98|-8:51,1,105.000004005432,0|0,0:0|0:0,0:0:0:0:
69,14,7713,1,0,0:2:0:0:
118,176,7905,1,0,0:2:0:0:
118,176,8002,2,0,L|115:205,1,26.2500010013581,2|2,0:2|3:2,0:0:0:0:
239,128,8482,5,0,0:2:0:0:
248,293,8771,2,0,L|242:251,1,26.2500010013581,8|8,0:3|0:3,0:0:0:0:
304,194,9059,2,0,P|320:170|320:85,1,105.000004005432,0|0,0:2|0:2,0:0:0:0:
239,128,9636,6,0,P|196:114|157:55,1,105.000004005432,2|0,3:2|0:0,0:0:0:0:
106,0,10213,2,0,P|115:43|55:143,1,157.500006008148,0|2,0:0|0:1,0:0:0:0:
0,198,10982,6,0,P|6:243|107:296,1,157.500006008148,0|0,0:2|0:0,0:0:0:0:
95,297,11944,2,0,L|88:351,2,41.9999987182618,0|0|0,0:2|0:2|0:2,0:0:0:0:
140,197,12713,6,0,P|177:211|210:204,2,70.0000026702882,2|2|2,3:2|0:2|0:2,0:0:0:0:
271,124,13482,2,0,P|308:110|341:117,2,70.0000026702882,2|2|2,3:1|0:2|0:2,0:0:0:0:
388,192,14252,1,2,3:2:0:0:
226,303,14829,6,0,P|221:340|210:361,2,52.5000020027161,0|0|0,0:2|3:2|0:2,0:0:0:0:
178,236,15405,2,0,P|183:199|201:178,1,52.5000020027161,0|0,0:2|0:2,0:0:0:0:
338,266,15790,6,0,P|380:280|447:250,1,105.000004005432,2|0,3:2|0:2,0:0:0:0:
384,195,16367,1,0,0:2:0:0:
299,194,16559,2,0,P|277:207|263:229,2,52.5000020027161,0|0|2,0:2|0:2|0:1,0:0:0:0:
435,261,17329,1,2,0:1:0:0:
382,118,17905,5,0,0:2:0:0:
375,34,18098,2,0,P|409:5|444:2,2,78.7500030040742,2|2|0,3:2|0:2|0:2,0:0:0:0:
327,213,18867,2,0,P|387:136|271:55,1,262.500010013581,2|0,3:2|0:2,0:0:0:0:
147,135,20021,1,2,0:1:0:0:
147,135,20213,1,0,0:0:0:0:
297,136,20405,6,0,B|223:175|227:98|144:137,1,157.500006008148,2|0,3:1|0:2,0:0:0:0:
276,12,21175,1,6,3:2:0:0:
276,12,21367,2,0,P|263:47|263:72,1,52.5000020027161,0|0,0:0|0:2,0:0:0:0:
349,66,21752,1,0,0:0:0:0:
349,66,21944,6,0,B|420:96|420:29|501:71,1,157.500006008148,2|0,3:2|0:0,0:0:0:0:
447,237,22713,1,8,0:2:0:0:
447,237,22905,2,0,P|445:205|428:178,1,52.5000020027161,0|0,0:2|3:2,0:0:0:0:
362,237,23290,1,0,0:2:0:0:
362,237,23482,6,0,B|291:267|291:200|210:242,1,157.500006008148,6|0,3:2|0:2,0:0:0:0:
93,337,24252,1,8,0:2:0:0:
23,293,24444,2,0,P|13:251|19:226,1,52.5000020027161,0|0,0:2|0:2,0:0:0:0:
81,185,24829,1,0,0:2:0:0:
81,185,25021,2,0,P|95:128|74:86,2,105.000004005432,6|0|8,3:2|0:2|0:2,0:0:0:0:
187,107,26175,6,0,P|252:100|282:122,2,105.000004005432,0|2|0,3:2|3:2|0:2,0:0:0:0:
333,192,27329,2,0,P|311:248|322:296,1,105.000004005432,8|4,0:2|0:2,0:0:0:0:
458,291,27905,1,0,0:2:0:0:
458,291,28098,6,0,B|314:379|309:188|160:292,1,315.000012016297,2|0,3:2|3:2,0:0:0:0:
28,234,29636,6,0,L|43:153,2,70.0000026702882,2|2|0,3:2|0:2|0:2,0:0:0:0:
182,190,30405,2,0,L|105:217,2,70.0000026702882,2|2|2,0:2|0:2|0:2,0:0:0:0:
41,166,31175,1,6,3:2:0:0:
70,75,31431,2,0,L|97:98,1,35.0000013351441,2|0,0:2|0:0,0:0:0:0:
321,306,31944,6,0,P|288:265|284:213,1,105.000004005432,0|0,3:2|3:2,0:0:0:0:
356,159,32521,1,8,0:3:0:0:
356,159,32713,1,8,0:3:0:0:
356,159,33098,6,0,P|365:104|361:86,1,52.5000020027161,0|4,0:0|0:3,0:0:0:0:
292,64,33482,2,0,P|243:36|225:34,1,52.5000020027161,4|0,0:3|0:0,0:0:0:0:
175,90,33867,2,0,P|132:126|124:142,1,52.5000020027161,0|0,0:0|0:2,0:0:0:0:
55,372,34252,6,0,P|110:385|137:381,1,70,4|0,3:2|0:0,0:0:0:0:
88,202,34636,2,0,P|100:263|124:286,1,70,2|0,0:2|0:2,0:0:0:0:
249,143,35021,1,10,0:2:0:0:
103,267,35213,1,0,0:2:0:0:
370,302,35405,2,0,P|384:240|371:208,1,70,2|0,3:2|0:2,0:0:0:0:
451,56,35790,6,0,P|400:59|367:86,1,70,2|0,3:2|0:0,0:0:0:0:
274,246,36175,2,0,P|232:275|190:274,1,70,2|0,3:2|0:2,0:0:0:0:
148,107,36559,1,10,0:2:0:0:
318,150,36752,1,0,0:2:0:0:
179,379,36944,2,0,P|138:357|116:318,1,70,2|0,0:2|0:2,0:0:0:0:
318,150,37329,6,0,P|280:115|174:118,1,140,2|2,3:2|0:1,0:0:0:0:
126,173,37905,1,0,3:2:0:0:
274,246,38098,1,8,0:2:0:0:
243,12,38290,1,2,0:1:0:0:
126,173,38482,1,0,3:2:0:0:
318,150,38675,1,0,0:2:0:0:
122,49,38867,5,8,0:2:0:0:
198,293,39059,1,0,0:2:0:0:
318,150,39252,2,0,L|234:128,1,70,4|0,0:2|0:0,0:0:0:0:
497,122,39636,5,8,0:2:0:0:
403,384,39829,1,0,0:2:0:0:
317,246,40021,2,0,L|402:231,1,70,0|0,3:2|0:2,0:0:0:0:
497,122,40405,6,0,P|472:112|427:114,1,70,0|0,3:2|0:0,0:0:0:0:
316,108,40790,2,0,P|290:134|278:187,1,70,2|0,0:2|0:2,0:0:0:0:
466,203,41175,1,10,0:2:0:0:
316,108,41367,1,0,0:2:0:0:
202,239,41559,2,0,P|200:272|224:323,1,70,2|0,3:2|0:2,0:0:0:0:
397,260,41944,6,0,P|388:292|353:332,1,70,2|0,3:2|0:0,0:0:0:0:
316,108,42329,2,0,P|324:139|314:190,1,70,2|2,3:2|0:2,0:0:0:0:
144,62,42713,2,0,P|178:69|216:103,1,70,10|0,0:2|0:2,0:0:0:0:
371,246,43098,2,0,P|305:265|252:244,1,105,2|0,0:2|0:0,0:0:0:0:
271,256,43482,6,0,P|225:257|182:288,1,70,2|0,3:2|0:0,0:0:0:0:
147,363,43867,2,0,P|135:316|107:286,1,70,2|0,0:1|3:2,0:0:0:0:
0,239,44252,1,8,0:2:0:0:
85,221,44444,1,2,0:1:0:0:
59,360,44636,1,0,3:2:0:0:
122,299,44829,1,0,0:2:0:0:
31,85,45021,6,0,L|20:170,1,70,2|0,3:1|0:0,0:0:0:0:
218,163,45405,1,4,0:2:0:0:
218,163,45598,1,0,0:2:0:0:
147,363,45790,1,10,0:2:0:0:
357,257,45982,1,2,0:2:0:0:
131,226,46175,1,2,0:2:0:0:
286,334,46367,1,2,0:2:0:0:
218,163,46559,6,0,P|187:226|211:299,1,140,2|2,3:2|0:2,0:0:0:0:
352,315,47136,2,0,P|310:332|273:332,1,70,2|8,0:2|0:2,0:0:0:0:
295,175,47521,1,2,0:2:0:0:
352,315,47713,1,2,3:2:0:0:
204,290,47905,1,0,3:2:0:0:
494,176,48098,6,0,P|472:128|450:106,1,70,0|0,3:2|0:0,0:0:0:0:
383,193,48482,1,0,3:2:0:0:
383,193,48675,1,0,0:2:0:0:
191,24,48867,1,10,0:2:0:0:
223,305,49059,1,2,0:2:0:0:
252,117,49252,1,10,0:2:0:0:
78,192,49444,1,10,0:2:0:0:
293,245,49636,6,0,P|229:214|155:238,1,140,2|2,3:2|0:1,0:0:0:0:
0,299,50213,2,0,P|41:316|78:316,1,70,2|8,0:2|0:2,0:0:0:0:
88,313,50502,1,2,0:0:0:0:
105,303,50598,1,2,0:2:0:0:
86,54,50790,2,0,P|51:80|32:112,1,70,2|0,3:2|3:2,0:0:0:0:
291,246,51175,6,0,P|304:300|300:321,1,70,2|0,3:1|0:0,0:0:0:0:
165,231,51559,2,0,P|151:176|155:155,1,70,4|0,0:2|0:0,0:0:0:0:
387,40,51944,1,8,0:2:0:0:
291,246,52136,1,0,0:0:0:0:
224,34,52329,1,2,0:2:0:0:
329,118,52521,1,2,0:2:0:0:
100,208,52713,6,0,P|141:168|161:161,1,70,2|0,3:2|0:0,0:0:0:0:
293,286,53098,1,2,0:2:0:0:
104,326,53290,1,2,0:2:0:0:
145,75,53482,2,0,P|199:89|215:104,1,70,10|0,0:2|0:0,0:0:0:0:
213,335,53867,2,0,P|199:280|203:259,1,70,0|0,3:2|0:2,0:0:0:0:
362,63,54252,5,0,3:2:0:0:
321,292,54444,1,0,0:2:0:0:
209,97,54636,2,0,P|236:51|264:35,1,70,8|0,0:2|0:2,0:0:0:0:
213,335,55021,2,0,P|161:332|133:316,1,70,12|0,0:2|0:0,0:0:0:0:
416,231,55405,2,0,P|441:277|441:309,1,70,0|0,3:2|0:0,0:0:0:0:
177,179,55790,6,0,P|234:145|318:167,1,140,0|2,3:2|0:1,0:0:0:0:
395,258,56367,1,0,0:2:0:0:
419,24,56559,1,12,0:2:0:0:
256,238,56752,1,0,0:2:0:0:
472,119,56944,1,0,3:2:0:0:
250,4,57136,1,0,0:2:0:0:
442,293,57329,6,0,P|439:239|422:214,1,70,12|0,0:2|0:0,0:0:0:0:
227,133,57713,1,0,3:2:0:0:
334,276,57905,1,8,0:3:0:0:
419,24,58098,1,8,0:3:0:0:
419,24,58482,5,4,0:3:0:0:
471,166,58867,6,0,L|380:160,1,70,4|0,3:2|0:0,0:0:0:0:
296,124,59252,2,0,P|303:176|291:202,1,70,2|0,0:2|0:2,0:0:0:0:
68,188,59636,1,10,0:2:0:0:
145,10,59829,1,0,0:2:0:0:
235,248,60021,2,0,P|194:259|161:246,1,70,2|0,3:2|0:2,0:0:0:0:
68,188,60405,6,0,P|14:186|-11:197,1,70,2|0,3:2|0:0,0:0:0:0:
4,355,60790,2,0,P|44:362|89:348,1,70,2|0,3:2|0:2,0:0:0:0:
137,128,61175,1,10,0:2:0:0:
40,276,61367,1,0,0:2:0:0:
297,191,61559,2,0,P|312:157|305:100,1,70,2|0,0:2|0:2,0:0:0:0:
146,0,61944,6,0,P|119:42|155:146,1,140,2|2,3:2|0:1,0:0:0:0:
202,185,62521,1,0,3:2:0:0:
213,69,62713,1,8,0:2:0:0:
12,105,62905,1,2,0:1:0:0:
202,185,63098,1,0,3:2:0:0:
60,218,63290,1,0,0:2:0:0:
213,69,63482,5,8,0:2:0:0:
154,325,63675,1,0,0:2:0:0:
213,69,63867,2,0,L|199:-31,1,70,4|0,0:2|0:0,0:0:0:0:
252,312,64252,5,8,0:2:0:0:
331,129,64444,1,0,0:2:0:0:
252,312,64636,2,0,L|239:408,1,70,0|0,3:2|0:2,0:0:0:0:
145,129,65021,6,0,P|184:118|215:122,1,70,0|0,3:2|0:0,0:0:0:0:
359,212,65405,2,0,P|321:221|268:204,1,70,2|0,0:2|0:2,0:0:0:0:
306,35,65790,1,10,0:2:0:0:
466,142,65982,1,0,0:2:0:0:
210,290,66175,2,0,P|192:260|187:202,1,70,2|0,3:2|0:2,0:0:0:0:
152,58,66559,6,0,P|184:54|233:73,1,70,2|0,3:2|0:0,0:0:0:0:
37,183,66944,2,0,P|63:164|114:156,1,70,2|0,3:2|0:2,0:0:0:0:
53,358,67329,2,0,P|48:323|67:276,1,70,10|0,0:2|0:2,0:0:0:0:
291,216,67713,2,0,P|317:161|314:98,1,105,2|0,0:2|0:0,0:0:0:0:
318,117,68098,6,0,P|322:56|337:36,1,70,2|0,3:2|0:0,0:0:0:0:
473,119,68482,2,0,P|410:103|393:83,1,70,2|0,0:1|3:2,0:0:0:0:
252,46,68867,1,8,0:2:0:0:
407,100,69059,1,2,0:1:0:0:
427,6,69252,1,0,3:2:0:0:
318,117,69444,1,0,3:2:0:0:
188,207,69636,6,0,L|180:137,1,70,12|0,0:2|0:0,0:0:0:0:
370,366,70021,2,0,L|381:297,1,70,8|0,0:3|0:0,0:0:0:0:
180,315,70405,1,8,0:3:0:0:
469,271,70598,1,4,0:3:0:0:
259,86,70790,1,4,0:3:0:0:
291,304,70982,1,4,0:3:0:0:
481,131,71175,6,0,P|417:100|343:124,1,140,6|2,3:2|0:2,0:0:0:0:
207,165,71752,2,0,P|248:182|285:182,1,70,2|8,0:2|0:2,0:0:0:0:
310,17,72136,1,2,0:2:0:0:
155,67,72329,2,0,P|120:93|101:125,1,70,2|0,3:2|3:2,0:0:0:0:
216,378,72713,6,0,L|208:307,1,70,0|0,3:2|0:2,0:0:0:0:
101,294,73098,2,0,L|108:223,1,70,0|0,0:2|0:2,0:0:0:0:
348,91,73482,6,0,P|350:125|342:160,1,70,14|2,0:2|0:2,0:0:0:0:
208,308,73867,1,10,0:2:0:0:
133,114,74059,1,2,0:2:0:0:
426,271,74252,6,0,P|362:301|288:277,1,140,2|2,3:2|0:1,0:0:0:0:
152,236,74829,2,0,P|193:218|230:218,1,70,2|8,0:2|0:2,0:0:0:0:
255,384,75213,1,2,0:2:0:0:
100,334,75405,2,0,P|65:307|46:275,1,70,2|0,3:2|3:2,0:0:0:0:
295,168,75790,6,0,P|308:222|304:243,1,70,12|0,0:2|0:0,0:0:0:0:
85,164,76175,2,0,P|71:109|75:88,1,70,0|0,3:2|0:2,0:0:0:0:
106,59,76463,1,8,0:2:0:0:
106,59,76559,1,8,0:2:0:0:
217,216,76752,1,8,0:3:0:0:
215,6,76944,1,4,0:3:0:0:
85,164,77136,1,0,0:2:0:0:
348,88,77329,5,12,0:2:0:0:
244,309,77521,1,0,0:0:0:0:
131,36,77713,1,8,0:2:0:0:
246,342,77905,1,8,0:2:0:0:
246,342,78290,5,8,0:2:0:0:
453,169,78482,2,0,P|405:165|362:186,1,70,8|0,0:2|0:0,0:0:0:0:
319,247,78867,1,0,0:2:0:0:
440,359,79059,1,8,0:2:0:0:
421,258,79252,1,4,0:3:0:0:
425,260,79636,5,8,0:2:0:0:
180,375,79829,1,0,0:2:0:0:
313,120,80021,1,8,0:2:0:0:
106,60,80405,5,4,3:2:0:0:
106,60,80598,1,0,0:0:0:0:
197,44,80790,2,0,L|255:35,1,52.5000020027161,0|0,3:2|0:2,0:0:0:0:
397,68,81175,5,8,0:2:0:0:
373,220,81367,1,0,0:2:0:0:
261,129,81559,2,0,L|328:117,1,52.5000020027161,0|0,0:2|3:2,0:0:0:0:
468,240,81944,5,0,0:2:0:0:
468,240,82136,1,0,0:2:0:0:
373,220,82329,2,0,L|321:210,1,52.5000020027161,0|0,3:2|0:2,0:0:0:0:
162,126,82713,5,8,0:2:0:0:
94,265,82905,1,0,0:2:0:0:
237,255,83098,2,0,L|170:243,1,52.5000020027161,0|0,0:2|0:2,0:0:0:0:
339,69,83482,5,0,3:2:0:0:
208,134,83675,1,0,0:2:0:0:
321,210,83867,2,0,L|332:138,1,52.5000020027161,2|0,3:1|0:2,0:0:0:0:
339,69,84252,5,8,0:2:0:0:
162,126,84444,1,2,0:1:0:0:
339,69,84636,1,0,0:2:0:0:
339,69,84829,1,0,3:2:0:0:
185,245,85021,5,4,3:2:0:0:
178,33,85213,1,8,0:2:0:0:
380,147,85405,2,0,L|319:160,1,52.5000020027161,0|0,3:2|0:2,0:0:0:0:
458,198,85790,5,8,0:2:0:0:
282,247,85982,1,0,0:2:0:0:
339,69,86175,1,0,0:2:0:0:
339,69,86367,1,0,3:2:0:0:
462,143,86559,5,2,3:2:0:0:
282,247,86752,1,0,0:2:0:0:
276,33,86944,2,0,L|349:41,1,52.5000020027161,0|0,3:2|0:2,0:0:0:0:
372,268,87329,5,8,0:2:0:0:
185,224,87521,1,0,0:2:0:0:
372,268,87713,1,0,0:2:0:0:
372,268,87905,1,0,3:2:0:0:
105,165,88098,5,0,3:2:0:0:
216,320,88290,1,0,0:2:0:0:
307,146,88482,2,0,L|238:158,1,52.5000020027161,0|0,3:2|0:2,0:0:0:0:
418,182,88867,5,8,0:2:0:0:
230,370,89059,1,0,0:2:0:0:
230,370,89252,2,0,L|216:320,1,52.5000020027161,8|0,0:2|3:2,0:0:0:0:
471,197,89636,5,4,3:2:0:0:
336,41,89829,1,0,0:2:0:0:
283,238,90021,2,0,L|335:231,1,52.5000020027161,2|0,3:1|0:2,0:0:0:0:
262,138,90405,5,8,0:2:0:0:
445,192,90598,1,2,0:1:0:0:
336,41,90790,1,0,0:2:0:0:
336,231,90982,1,0,3:2:0:0:
446,76,91175,5,2,3:1:0:0:
291,150,91367,1,8,0:2:0:0:
439,244,91559,2,0,L|445:189,1,52.5000020027161,0|0,3:2|0:0,0:0:0:0:
128,92,91944,5,8,0:2:0:0:
291,150,92136,1,0,0:2:0:0:
162,251,92329,1,8,0:2:0:0:
162,251,92521,1,8,0:2:0:0:
277,384,92713,5,2,3:2:0:0:
95,306,92905,1,2,0:2:0:0:
335,230,93098,1,0,0:2:0:0:
136,384,93290,5,2,3:2:0:0:
157,115,93482,1,10,0:2:0:0:
285,275,93867,5,0,3:2:0:0:
0,243,94059,5,2,0:2:0:0:
210,187,94252,1,2,0:2:0:0:
0,243,94444,1,8,0:2:0:0:
78,121,94636,1,0,3:2:0:0:
229,366,94829,5,2,0:2:0:0:
256,111,95021,1,10,0:2:0:0:
73,291,95405,5,0,0:2:0:0:
293,277,95598,5,2,0:2:0:0:
283,42,95790,2,0,L|306:112,1,52.5000020027161,2|0,3:2|0:2,0:0:0:0:
342,209,96175,2,0,L|358:159,1,52.5000020027161,2|0,0:1|3:2,0:0:0:0:
232,148,96559,5,8,0:2:0:0:
250,275,96752,1,2,0:1:0:0:
253,292,96848,1,0,0:2:0:0:
255,307,96944,1,0,3:2:0:0:
132,179,97136,1,0,0:2:0:0:
358,158,97329,5,2,0:1:0:0:
255,307,97521,1,10,0:0:0:0:
205,64,97713,1,2,3:2:0:0:
357,164,97905,1,2,0:2:0:0:
112,226,98098,6,0,P|116:202|140:174,1,52.5000020027161,8|0,0:2|0:0,0:0:0:0:
275,99,98482,1,8,0:2:0:0:
239,293,98675,1,8,0:2:0:0:
133,180,98867,6,0,P|174:157|242:176,1,105.000004005432,4|10,3:2|0:2,0:0:0:0:
291,228,99444,1,2,0:2:0:0:
357,116,99636,2,0,P|349:157|331:180,1,52.5000020027161,10|0,0:2|0:0,0:0:0:0:
230,167,100021,1,8,0:3:0:0:
258,18,100213,1,8,0:3:0:0:
388,45,100405,6,0,P|361:40|320:53,2,52.5000020027161,0|4|2,3:2|0:3|3:2,0:0:0:0:
437,116,100982,1,2,0:2:0:0:
279,116,101175,2,0,P|287:157|305:180,1,52.5000020027161,10|0,0:2|0:0,0:0:0:0:
347,232,101559,2,0,P|344:258|333:281,1,52.5000020027161,0|0,0:2|0:2,0:0:0:0:
313,313,101848,5,0,0:2:0:0:
313,313,101944,2,0,P|259:326|211:310,1,105.000004005432,0|2,3:2|3:1,0:0:0:0:
188,230,102521,1,2,3:2:0:0:
85,288,102713,2,0,P|117:299|150:290,1,52.5000020027161,10|2,0:2|0:1,0:0:0:0:
165,106,103098,1,8,0:2:0:0:
29,208,103290,1,8,0:2:0:0:
165,106,103482,6,0,P|166:55|134:15,1,105.000004005432,4|10,3:2|0:0,0:0:0:0:
104,166,104059,2,0,L|115:242,1,52.5000020027161,2|0,3:2|0:0,0:0:0:0:
256,279,104444,1,8,0:3:0:0:
104,166,104636,1,8,0:2:0:0:
96,352,104829,1,0,0:2:0:0:
256,279,105021,5,4,3:2:0:0:
264,192,105213,1,0,0:2:0:0:
270,105,105405,2,0,L|260:53,1,52.5000020027161,0|0,3:2|0:2,0:0:0:0:
386,285,105790,5,8,0:2:0:0:
270,105,105982,1,0,0:2:0:0:
204,288,106175,2,0,L|271:276,1,52.5000020027161,0|0,0:2|3:2,0:0:0:0:
414,122,106559,5,2,0:0:0:0:
400,204,106752,1,2,0:2:0:0:
386,285,106944,2,0,L|377:336,1,52.5000020027161,0|0,3:2|0:0,0:0:0:0:
220,166,107329,5,8,0:2:0:0:
293,355,107521,1,0,0:0:0:0:
466,132,107713,2,0,L|399:120,1,52.5000020027161,0|0,0:2|0:2,0:0:0:0:
208,127,108098,5,4,3:2:0:0:
293,355,108290,1,0,0:2:0:0:
414,122,108482,1,0,0:2:0:0:
163,214,108675,1,0,3:2:0:0:
473,253,108867,5,12,0:2:0:0:
294,68,109059,1,0,0:2:0:0:
255,278,109252,1,0,3:2:0:0:
414,122,109444,1,0,0:2:0:0:
194,90,109636,5,12,0:2:0:0:
345,257,109829,1,0,0:2:0:0:
287,99,110021,1,0,3:2:0:0:
163,214,110213,1,0,0:2:0:0:
0,116,110405,6,0,P|48:96|109:108,1,105.000004005432,12|0,0:2|0:2,0:0:0:0:
213,300,110790,2,0,P|165:320|104:308,1,105.000004005432,0|0,3:2|0:2,0:0:0:0:
287,99,111175,5,12,0:2:0:0:
422,338,111367,1,0,0:2:0:0:
414,122,111559,1,2,0:1:0:0:
213,300,111752,1,4,3:2:0:0:
287,99,111944,5,8,0:2:0:0:
422,338,112136,1,4,3:2:0:0:
414,123,112329,1,0,0:2:0:0:
414,123,112521,1,4,3:2:0:0:
259,252,112713,5,2,0:1:0:0:
253,11,112905,1,8,0:2:0:0:
111,153,113098,6,0,P|170:128|229:150,1,105.000004005432,8|0,0:3|3:2,0:0:0:0:
355,234,113386,1,0,3:2:0:0:
355,234,113482,2,0,P|302:260|242:245,1,105.000004005432,12|8,0:2|0:3,0:0:0:0:
181,219,113771,1,8,0:3:0:0:
181,219,113867,1,4,0:3:0:0:
359,145,114059,5,0,3:3:0:0:
359,145,114155,1,0,3:3:0:0:
359,145,114252,2,0,P|398:152|429:182,1,70,4|0,3:2|0:2,0:0:0:0:
449,325,114636,2,0,P|463:288|452:246,1,70,0|0,0:2|0:2,0:0:0:0:
308,262,115021,6,0,L|239:248,1,70,8|0,0:2|0:2,0:0:0:0:
81,327,115405,2,0,L|149:313,1,70,0|8,0:2|0:2,0:0:0:0:
214,159,115790,6,0,P|182:145|147:150,1,70,8|0,0:2|0:2,0:0:0:0:
150,313,116175,1,8,0:2:0:0:
150,313,116367,1,8,0:3:0:0:
148,149,116559,1,0,0:2:0:0:
8,240,116752,1,4,0:3:0:0:
84,321,116944,2,0,P|118:326|150:312,1,70,4|0,0:3|3:2,0:0:0:0:
275,115,117329,6,0,P|282:154|312:185,1,70,4|0,3:2|0:2,0:0:0:0:
444,216,117713,2,0,P|406:202|364:213,1,70,2|0,0:1|0:2,0:0:0:0:
232,363,118098,6,0,L|301:377,1,70,4|0,3:2|0:2,0:0:0:0:
249,267,118482,2,0,L|181:282,1,70,0|8,0:2|0:2,0:0:0:0:
333,264,118867,6,0,P|329:299|312:329,1,70,8|0,0:2|0:2,0:0:0:0:
275,133,119252,2,0,P|303:153|319:183,1,70,8|0,0:3|0:0,0:0:0:0:
186,144,119636,1,8,0:3:0:0:
298,51,119829,1,4,0:3:0:0:
240,219,120021,1,4,0:3:0:0:
186,144,120213,1,2,0:2:0:0:
323,185,120405,6,0,P|387:192|448:123,1,140,4|0,3:2|0:2,0:0:0:0:
364,41,121175,2,0,P|354:82|365:117,1,70,12|0,0:2|0:0,0:0:0:0:
499,208,121559,2,0,P|505:242|495:275,1,70,2|0,3:2|0:0,0:0:0:0:
342,278,121944,6,0,L|206:292,1,105,2|0,3:2|0:2,0:0:0:0:
215,292,122329,1,8,0:2:0:0:
215,292,122717,6,0,P|185:325|182:360,2,70,12|8|4,0:2|0:3|0:3,0:0:0:0:
256,192,123589,12,0,130256,0:0:0:0:
