osu file format v14

[General]
AudioFilename: audio.mp3
AudioLeadIn: 0
PreviewTime: 216157
Countdown: 0
SampleSet: Soft
StackLeniency: 0.7
Mode: 3
LetterboxInBreaks: 0
SpecialStyle: 0
WidescreenStoryboard: 1

[Editor]
Bookmarks: 94230
DistanceSpacing: 2.8
BeatDivisor: 4
GridSize: 16
TimelineZoom: 2.9

[Metadata]
Title:Next To You (Elephante Remix)
TitleUnicode:Next To You (Elephante Remix)
Artist:Oh, Be Clever
ArtistUnicode:Oh, Be Clever
Creator:oleka
Version:Heartache
Source:
Tags:Logan636 Antalf English Electronic Electro Pop Electropop EDM Music Dance Progressive House Cory Scott Layton Brittney Shields Iamtheelephante I Am The Elephante Tim Wu
BeatmapID:2783051
BeatmapSetID:1343689

[Difficulty]
HPDrainRate:8
CircleSize:4
OverallDifficulty:8
ApproachRate:5
SliderMultiplier:1.4
SliderTickRate:1

[Events]
//Background and Video events
0,0,"guden.jpg",0,0
//Break Periods
//Storyboard Layer 0 (Background)
//Storyboard Layer 1 (Fail)
//Storyboard Layer 2 (Pass)
//Storyboard Layer 3 (Foreground)
//Storyboard Layer 4 (Overlay)
//Storyboard Sound Samples

[TimingPoints]
997,480,4,2,1,35,1,0
10601,-100,4,2,1,45,0,0
18277,-100,4,2,1,60,0,1
33637,-100,4,2,1,40,0,0
64357,-100,4,2,1,60,0,1
95077,-100,4,2,1,40,0,0
141637,-100,4,2,1,60,0,1
171877,-100,4,2,1,40,0,0
218437,-100,4,2,1,60,0,1
264037,-100,4,2,1,40,0,0

[HitObjects]
320,192,997,5,0,0:0:0:0:
320,192,1237,1,0,0:0:0:0:
320,192,1477,1,0,0:0:0:0:
320,192,1717,1,0,0:0:0:0:
320,192,1957,1,0,0:0:0:0:
320,192,2197,1,0,0:0:0:0:
320,192,2437,1,0,0:0:0:0:
320,192,2677,1,0,0:0:0:0:
192,192,2917,128,2,3277:0:0:0:0:
64,192,2917,1,0,0:0:0:0:
448,192,3037,128,0,3157:0:0:0:0:
320,192,3157,1,0,0:0:0:0:
448,192,3277,1,0,0:0:0:0:
64,192,3397,1,0,0:0:0:0:
320,192,3397,128,0,3637:0:0:0:70:clap.wav
192,192,3477,128,0,3637:0:0:0:0:
448,192,3637,1,0,0:0:0:0:
320,192,3757,1,0,0:0:0:0:
64,192,3877,1,2,0:0:0:0:
192,192,3877,1,0,0:0:0:0:
448,192,3997,1,0,0:0:0:0:
64,192,4117,128,0,4357:0:0:0:0:
192,192,4237,128,0,4357:0:0:0:0:
320,192,4357,1,0,0:0:0:70:clap.wav
448,192,4357,128,0,4717:0:0:0:0:
64,192,4477,128,0,4597:0:0:0:0:
192,192,4597,1,0,0:0:0:0:
64,192,4717,1,0,0:0:0:0:
448,192,4837,1,0,0:0:0:0:
320,192,4837,128,2,5197:0:0:0:0:
64,192,4957,128,0,5077:0:0:0:0:
192,192,5077,1,0,0:0:0:0:
64,192,5197,1,0,0:0:0:0:
192,192,5317,128,0,5557:0:0:0:70:clap.wav
448,192,5317,1,0,0:0:0:0:
320,192,5397,128,0,5557:0:0:0:0:
64,192,5557,1,0,0:0:0:0:
320,192,5677,1,0,0:0:0:0:
448,192,5797,1,0,0:0:0:0:
192,192,5797,1,2,0:0:0:0:
64,192,5917,1,0,0:0:0:0:
320,192,6037,128,0,6277:0:0:0:0:
192,192,6157,128,0,6277:0:0:0:0:
64,192,6277,128,0,6637:0:0:0:0:
448,192,6277,1,0,0:0:0:70:clap.wav
320,192,6397,1,0,0:0:0:0:
192,192,6517,128,0,6757:0:0:0:0:
448,192,6637,128,0,6877:0:0:0:0:
320,192,6757,1,0,0:0:0:0:
64,192,6757,1,2,0:0:0:0:
192,192,6877,1,0,0:0:0:0:
64,192,6997,1,0,0:0:0:0:
448,192,7117,1,0,0:0:0:0:
192,192,7237,128,0,7477:0:0:0:70:clap.wav
64,192,7237,1,0,0:0:0:0:
448,192,7317,128,0,7477:0:0:0:0:
320,192,7477,1,0,0:0:0:0:
448,192,7597,1,0,0:0:0:0:
64,192,7717,1,0,0:0:0:0:
192,192,7717,1,2,0:0:0:0:
448,192,7837,1,0,0:0:0:0:
64,192,7957,128,0,8197:0:0:0:0:
320,192,8077,128,0,8197:0:0:0:0:
192,192,8197,1,0,0:0:0:0:
448,192,8197,128,0,8557:0:0:0:70:clap.wav
64,192,8317,128,0,8437:0:0:0:0:
192,192,8437,1,0,0:0:0:0:
320,192,8557,1,0,0:0:0:0:
64,192,8677,128,2,9037:0:0:0:0:
192,192,8677,1,0,0:0:0:0:
448,192,8797,128,0,8917:0:0:0:0:
320,192,8917,1,0,0:0:0:0:
192,192,9037,1,0,0:0:0:0:
320,192,9157,128,0,9397:0:0:0:70:clap.wav
448,192,9157,1,0,0:0:0:0:
192,192,9237,128,0,9397:0:0:0:0:
64,192,9397,1,0,0:0:0:0:
448,192,9517,1,0,0:0:0:0:
192,192,9637,1,2,0:0:0:0:
320,192,9637,1,0,0:0:0:0:
64,192,9757,1,0,0:0:0:0:
448,192,9877,128,0,10117:0:0:0:0:
320,192,9877,1,0,0:0:0:0:
192,192,9997,128,0,10117:0:0:0:0:
320,192,10117,128,0,10237:0:0:0:0:
64,192,10117,128,0,10357:0:0:0:70:clap.wav
192,192,10237,1,0,0:0:0:0:
448,192,10357,128,0,10597:0:0:0:0:
320,192,10357,1,0,0:0:0:0:
192,192,10477,128,0,10597:0:0:0:0:
320,192,10597,1,0,0:0:0:0:
64,192,10597,128,8,10957:0:0:0:0:
448,192,10717,128,0,10837:0:0:0:0:
320,192,10837,1,0,0:0:0:0:
192,192,10957,1,0,0:0:0:0:
320,192,11077,128,8,11317:0:0:0:0:
448,192,11077,1,0,0:0:0:0:
192,192,11157,128,0,11317:0:0:0:0:
64,192,11317,1,0,0:0:0:0:
448,192,11437,1,0,0:0:0:0:
320,192,11557,1,0,0:0:0:0:
64,192,11557,1,8,0:0:0:0:
192,192,11677,1,0,0:0:0:0:
320,192,11797,128,0,12037:0:0:0:0:
192,192,11917,128,0,12037:0:0:0:0:
448,192,12037,1,8,0:0:0:0:
64,192,12037,128,0,12397:0:0:0:0:
320,192,12157,128,0,12277:0:0:0:0:
192,192,12277,1,0,0:0:0:0:
320,192,12397,1,0,0:0:0:0:
448,192,12517,128,8,12877:0:0:0:0:
64,192,12517,1,0,0:0:0:0:
192,192,12637,128,0,12757:0:0:0:0:
64,192,12757,1,0,0:0:0:0:
320,192,12877,1,0,0:0:0:0:
64,192,12997,1,0,0:0:0:0:
192,192,12997,128,8,13237:0:0:0:0:
320,192,13077,128,0,13237:0:0:0:0:
448,192,13237,1,0,0:0:0:0:
64,192,13357,1,0,0:0:0:0:
448,192,13477,1,8,0:0:0:0:
192,192,13477,1,0,0:0:0:0:
320,192,13597,1,0,0:0:0:0:
448,192,13717,128,0,13957:0:0:0:0:
320,192,13837,128,0,13957:0:0:0:0:
192,192,13957,1,0,0:0:0:0:
64,192,13957,128,8,14317:0:0:0:0:
448,192,14077,128,0,14197:0:0:0:0:
192,192,14197,1,0,0:0:0:0:
448,192,14317,1,0,0:0:0:0:
320,192,14437,1,0,0:0:0:0:
192,192,14437,128,8,14677:0:0:0:0:
448,192,14557,128,0,14677:0:0:0:0:
64,192,14677,1,0,0:0:0:0:
320,192,14677,1,8,0:0:0:0:
192,192,14797,1,0,0:0:0:0:
448,192,14917,1,0,0:0:0:0:
320,192,14917,128,8,15157:0:0:0:0:
192,192,14997,128,0,15157:0:0:0:0:
64,192,15157,1,0,0:0:0:0:
448,192,15157,1,8,0:0:0:0:
192,192,15277,1,0,0:0:0:0:
448,192,15397,1,0,0:0:0:0:
320,192,15397,1,8,0:0:0:0:
64,192,15517,1,0,0:0:0:0:
448,192,15637,1,0,0:0:0:0:
192,192,15637,128,8,15877:0:0:0:0:
320,192,15757,128,0,15877:0:0:0:0:
64,192,15877,1,8,0:0:0:0:
448,192,15877,128,0,16117:0:0:0:0:
192,192,15997,128,0,16117:0:0:0:0:
320,192,16117,1,8,0:0:0:0:
64,192,16117,1,0,0:0:0:0:
448,192,16237,1,0,0:0:0:0:
192,192,16357,1,0,0:0:0:0:
320,192,16357,128,8,16597:0:0:0:0:
64,192,16477,128,0,16597:0:0:0:0:
448,192,16597,1,0,0:0:0:0:
192,192,16597,1,8,0:0:0:0:
64,192,16717,1,0,0:0:0:0:
448,192,16837,1,8,0:0:0:0:
192,192,16837,128,0,17077:0:0:0:0:
320,192,16917,128,0,17077:0:0:0:0:
448,192,17077,1,0,0:0:0:0:
64,192,17077,1,8,0:0:0:0:
192,192,17197,1,0,0:0:0:0:
320,192,17317,1,0,0:0:0:0:
448,192,17317,1,2,0:0:0:0:
64,192,17437,1,0,0:0:0:0:
320,192,17437,1,8,0:0:0:0:
192,192,17677,1,2,0:0:0:0:
448,192,17677,1,0,0:0:0:0:
64,192,17797,1,0,0:0:0:0:
192,192,17797,1,8,0:0:0:0:
448,192,17917,1,0,0:0:0:0:
320,192,17917,1,8,0:0:0:0:
64,192,18037,1,0,0:0:0:0:
192,192,18037,1,8,0:0:0:0:
320,192,18157,1,8,0:0:0:0:
448,192,18157,1,0,0:0:0:0:
320,192,18277,128,4,18517:0:0:0:0:
64,192,18277,128,2,18757:0:0:0:0:
448,192,18397,1,0,0:0:0:0:
192,192,18517,128,0,18637:0:0:0:0:
448,192,18637,1,0,0:0:0:0:
320,192,18757,128,8,18997:0:0:0:0:
192,192,18757,128,0,18877:0:0:0:0:
64,192,18877,1,0,0:0:0:0:
448,192,18997,128,0,19237:0:0:0:0:
64,192,19117,1,0,0:0:0:0:
192,192,19237,1,2,0:0:0:0:
320,192,19237,1,0,0:0:0:0:
64,192,19357,1,0,0:0:0:0:
320,192,19477,128,0,19717:0:0:0:0:
192,192,19597,1,0,0:0:0:0:
64,192,19717,1,8,0:0:0:0:
448,192,19717,1,0,0:0:0:0:
320,192,19837,1,0,0:0:0:0:
64,192,19957,128,0,20197:0:0:0:0:
320,192,20077,1,0,0:0:0:0:
448,192,20197,128,2,20677:0:0:0:0:
192,192,20197,128,0,20437:0:0:0:0:
64,192,20317,1,0,0:0:0:0:
320,192,20437,128,0,20557:0:0:0:0:
192,192,20557,1,0,0:0:0:0:
320,192,20677,128,8,20917:0:0:0:0:
64,192,20677,128,0,20797:0:0:0:0:
448,192,20797,1,0,0:0:0:0:
192,192,20917,128,0,21157:0:0:0:0:
320,192,21037,1,0,0:0:0:0:
64,192,21157,1,0,0:0:0:0:
448,192,21157,1,2,0:0:0:0:
192,192,21277,1,0,0:0:0:0:
320,192,21397,128,0,21637:0:0:0:0:
64,192,21517,1,0,0:0:0:0:
448,192,21637,1,0,0:0:0:0:
192,192,21637,1,8,0:0:0:0:
320,192,21757,1,0,0:0:0:0:
64,192,21877,128,0,22117:0:0:0:0:
448,192,21997,1,0,0:0:0:0:
192,192,22117,128,2,22357:0:0:0:0:
320,192,22117,128,0,22597:0:0:0:0:
448,192,22237,1,0,0:0:0:0:
64,192,22357,128,0,22477:0:0:0:0:
192,192,22477,1,0,0:0:0:0:
448,192,22597,128,0,22717:0:0:0:0:
64,192,22597,128,8,22837:0:0:0:0:
192,192,22717,1,0,0:0:0:0:
320,192,22837,128,0,23077:0:0:0:0:
64,192,22957,1,0,0:0:0:0:
448,192,23077,1,0,0:0:0:0:
192,192,23077,1,2,0:0:0:0:
320,192,23197,1,0,0:0:0:0:
192,192,23317,128,0,23557:0:0:0:0:
64,192,23437,1,0,0:0:0:0:
448,192,23557,1,8,0:0:0:0:
320,192,23557,1,0,0:0:0:0:
192,192,23677,1,0,0:0:0:0:
64,192,23797,128,0,24037:0:0:0:0:
320,192,23917,1,0,0:0:0:0:
448,192,24037,128,0,24517:0:0:0:0:
192,192,24037,128,2,24277:0:0:0:0:
320,192,24157,1,0,0:0:0:0:
64,192,24277,128,0,24397:0:0:0:0:
192,192,24397,1,0,0:0:0:0:
64,192,24517,128,8,24637:0:0:0:0:
320,192,24517,128,0,24757:0:0:0:0:
448,192,24637,1,0,0:0:0:0:
192,192,24757,128,0,24997:0:0:0:0:
320,192,24877,1,0,0:0:0:0:
64,192,24997,1,0,0:0:0:0:
448,192,24997,1,2,0:0:0:0:
192,192,25117,1,0,0:0:0:0:
64,192,25237,128,8,25477:0:0:0:0:
320,192,25237,128,0,25357:0:0:0:0:
448,192,25357,1,0,0:0:0:0:
192,192,25477,128,8,25717:0:0:0:0:
320,192,25477,128,0,25597:0:0:0:0:
64,192,25597,1,0,0:0:0:0:
320,192,25717,128,2,25957:0:0:0:0:
64,192,25837,128,0,25957:0:0:0:0:
192,192,25957,128,4,26197:0:0:0:0:
448,192,25957,128,2,26437:0:0:0:0:
64,192,26077,1,0,0:0:0:0:
320,192,26197,128,0,26317:0:0:0:0:
192,192,26317,1,0,0:0:0:0:
320,192,26437,128,0,26557:0:0:0:0:
64,192,26437,128,8,26677:0:0:0:0:
448,192,26557,1,0,0:0:0:0:
320,192,26677,128,0,26917:0:0:0:0:
192,192,26797,1,0,0:0:0:0:
64,192,26917,1,0,0:0:0:0:
448,192,26917,1,2,0:0:0:0:
320,192,27037,1,0,0:0:0:0:
448,192,27157,128,0,27397:0:0:0:0:
64,192,27277,1,0,0:0:0:0:
320,192,27397,1,0,0:0:0:0:
192,192,27397,1,8,0:0:0:0:
448,192,27517,1,0,0:0:0:0:
64,192,27637,128,0,27877:0:0:0:0:
320,192,27757,1,0,0:0:0:0:
192,192,27877,128,2,28117:0:0:0:0:
448,192,27877,128,0,28357:0:0:0:0:
320,192,27997,1,0,0:0:0:0:
64,192,28117,128,0,28237:0:0:0:0:
192,192,28237,1,0,0:0:0:0:
320,192,28357,128,8,28597:0:0:0:0:
64,192,28357,128,0,28477:0:0:0:0:
448,192,28477,1,0,0:0:0:0:
192,192,28597,128,0,28837:0:0:0:0:
64,192,28717,1,0,0:0:0:0:
448,192,28837,1,0,0:0:0:0:
320,192,28837,1,2,0:0:0:0:
192,192,28957,1,0,0:0:0:0:
320,192,29077,128,0,29317:0:0:0:0:
64,192,29197,1,0,0:0:0:0:
192,192,29317,1,8,0:0:0:0:
448,192,29317,1,0,0:0:0:0:
64,192,29437,1,0,0:0:0:0:
192,192,29557,128,0,29797:0:0:0:0:
320,192,29677,1,0,0:0:0:0:
448,192,29797,128,2,30037:0:0:0:0:
64,192,29797,128,0,30277:0:0:0:0:
320,192,29917,1,0,0:0:0:0:
192,192,30037,128,0,30157:0:0:0:0:
448,192,30157,1,0,0:0:0:0:
192,192,30277,128,8,30517:0:0:0:0:
320,192,30277,128,0,30397:0:0:0:0:
64,192,30397,1,0,0:0:0:0:
448,192,30517,128,0,30757:0:0:0:0:
320,192,30637,1,0,0:0:0:0:
192,192,30757,1,0,0:0:0:0:
64,192,30757,1,2,0:0:0:0:
448,192,30877,1,0,0:0:0:0:
320,192,30997,128,0,31237:0:0:0:0:
192,192,31117,1,0,0:0:0:0:
64,192,31237,1,0,0:0:0:0:
448,192,31237,1,8,0:0:0:0:
320,192,31357,1,0,0:0:0:0:
192,192,31477,128,0,31717:0:0:0:0:
448,192,31597,1,0,0:0:0:0:
64,192,31717,128,2,31957:0:0:0:0:
320,192,31717,1,0,0:0:0:0:
192,192,31837,1,0,0:0:0:0:
448,192,31837,1,8,0:0:0:0:
448,192,32077,1,2,0:0:0:0:
320,192,32077,1,0,0:0:0:0:
320,192,32197,1,8,0:0:0:0:
64,192,32197,128,0,32377:0:0:0:0:
448,192,32437,1,0,0:0:0:0:
320,192,32437,1,8,0:0:0:0:
448,192,32557,1,0,0:0:0:0:
320,192,32557,1,8,0:0:0:0:
64,192,32677,128,0,32797:0:0:0:0:
448,192,32797,1,0,0:0:0:0:
64,192,32917,1,0,0:0:0:0:
448,192,33037,1,0,0:0:0:0:
192,192,33157,1,0,0:0:0:0:
448,192,33277,1,0,0:0:0:0:
64,192,33397,1,0,0:0:0:0:
320,192,33517,1,0,0:0:0:0:
192,192,33637,128,0,33877:0:0:0:0:
64,192,33637,1,0,0:0:0:0:
64,192,34117,128,0,34357:0:0:0:0:
320,192,34597,128,0,34837:0:0:0:0:
448,192,35077,128,0,35317:0:0:0:0:
320,192,35317,128,0,36997:0:0:0:0:
192,192,35797,128,0,36997:0:0:0:0:
448,192,36997,1,8,0:0:0:0:
64,192,36997,1,0,0:0:0:0:
64,192,37237,1,0,0:0:0:0:
192,192,37357,1,8,0:0:0:0:
320,192,37477,128,2,37957:0:0:0:0:
448,192,37477,1,0,0:0:0:0:
64,192,37717,128,0,37957:0:0:0:0:
192,192,37957,1,8,0:0:0:0:
448,192,37957,1,0,0:0:0:0:
192,192,38197,128,0,38437:0:0:0:0:
320,192,38437,1,2,0:0:0:0:
448,192,38437,1,0,0:0:0:0:
192,192,38677,128,0,38917:0:0:0:0:
64,192,38917,128,0,39277:0:0:0:0:
320,192,38917,128,8,39037:0:0:0:0:
448,192,39157,128,0,40597:0:0:0:0:
320,192,39277,128,0,39397:0:0:0:0:
64,192,39397,1,2,0:0:0:0:
192,192,39397,1,0,0:0:0:0:
192,192,39637,128,0,39877:0:0:0:0:
64,192,39877,1,0,0:0:0:0:
320,192,39877,1,8,0:0:0:0:
64,192,40117,128,0,40357:0:0:0:0:
320,192,40357,1,0,0:0:0:0:
192,192,40357,1,2,0:0:0:0:
64,192,40597,128,0,40837:0:0:0:0:
448,192,40837,1,8,0:0:0:0:
192,192,40837,1,0,0:0:0:0:
320,192,41077,128,0,41317:0:0:0:0:
192,192,41197,1,0,0:0:0:0:
64,192,41317,1,0,0:0:0:0:
448,192,41317,128,2,41557:0:0:0:0:
192,192,41557,128,0,41797:0:0:0:0:
320,192,41797,128,8,42037:0:0:0:0:
448,192,41797,1,0,0:0:0:0:
64,192,42037,128,0,42277:0:0:0:0:
192,192,42277,1,2,0:0:0:0:
448,192,42277,128,0,42517:0:0:0:0:
64,192,42517,128,0,42757:0:0:0:0:
192,192,42757,128,8,43117:0:0:0:0:
448,192,42757,1,0,0:0:0:0:
320,192,42997,128,0,43597:0:0:0:0:
448,192,43117,1,0,0:0:0:0:
64,192,43237,1,2,0:0:0:0:
192,192,43237,1,0,0:0:0:0:
64,192,43477,128,0,44197:0:0:0:0:
448,192,43717,1,8,0:0:0:0:
320,192,43717,1,0,0:0:0:0:
192,192,43957,128,0,44197:0:0:0:0:
448,192,44197,1,0,0:0:0:0:
320,192,44197,1,2,0:0:0:0:
192,192,44437,128,0,44677:0:0:0:0:
448,192,44677,1,0,0:0:0:0:
64,192,44677,1,8,0:0:0:0:
320,192,44917,128,0,45157:0:0:0:0:
192,192,45157,1,2,0:0:0:0:
64,192,45157,1,0,0:0:0:0:
320,192,45397,128,0,45637:0:0:0:0:
64,192,45637,128,0,45757:0:0:0:0:
448,192,45637,128,8,45877:0:0:0:0:
192,192,45877,128,0,46117:0:0:0:0:
448,192,46117,1,0,0:0:0:0:
64,192,46117,128,2,46477:0:0:0:0:
320,192,46357,128,0,46597:0:0:0:0:
192,192,46597,128,8,46957:0:0:0:0:
64,192,46597,1,0,0:0:0:0:
448,192,46837,128,0,48277:0:0:0:0:
64,192,46957,128,0,47077:0:0:0:0:
320,192,47077,128,2,47557:0:0:0:0:
192,192,47077,1,0,0:0:0:0:
64,192,47317,1,0,0:0:0:0:
192,192,47557,1,0,0:0:0:0:
64,192,47557,128,8,47797:0:0:0:0:
320,192,47797,128,0,48037:0:0:0:0:
192,192,48037,1,2,0:0:0:0:
64,192,48037,1,0,0:0:0:0:
64,192,48277,128,0,48517:0:0:0:0:
320,192,48517,1,0,0:0:0:0:
448,192,48517,1,8,0:0:0:0:
192,192,48757,128,0,48877:0:0:0:0:
64,192,48877,1,0,0:0:0:0:
320,192,48997,128,2,49357:0:0:0:0:
448,192,48997,128,0,49957:0:0:0:0:
64,192,49237,128,0,49357:0:0:0:0:
192,192,49357,128,0,49477:0:0:0:0:
320,192,49477,1,0,0:0:0:0:
64,192,49477,1,8,0:0:0:0:
192,192,49717,1,0,0:0:0:0:
320,192,49837,1,0,0:0:0:0:
64,192,49957,128,2,50317:0:0:0:0:
192,192,49957,128,0,50917:0:0:0:0:
320,192,50077,128,0,50197:0:0:0:0:
448,192,50197,128,0,50317:0:0:0:0:
320,192,50317,128,0,50437:0:0:0:0:
448,192,50437,1,8,0:0:0:0:
64,192,50437,1,0,0:0:0:0:
320,192,50557,1,0,0:0:0:0:
64,192,50677,1,0,0:0:0:0:
448,192,50797,1,0,0:0:0:0:
64,192,50917,128,0,51277:0:0:0:0:
320,192,50917,128,2,51877:0:0:0:0:
448,192,51037,128,0,51157:0:0:0:0:
192,192,51157,128,0,51277:0:0:0:0:
448,192,51277,128,0,51397:0:0:0:0:
64,192,51397,1,8,0:0:0:0:
192,192,51397,1,0,0:0:0:0:
448,192,51517,1,0,0:0:0:0:
64,192,51637,1,0,0:0:0:0:
192,192,51757,1,0,0:0:0:0:
448,192,51877,128,2,52237:0:0:0:0:
64,192,51877,128,0,52597:0:0:0:0:
192,192,51997,128,0,52117:0:0:0:0:
320,192,52117,128,0,52237:0:0:0:0:
192,192,52237,128,0,52357:0:0:0:0:
448,192,52357,1,0,0:0:0:0:
320,192,52357,1,8,0:0:0:0:
192,192,52477,1,0,0:0:0:0:
448,192,52597,1,0,0:0:0:0:
320,192,52717,1,0,0:0:0:0:
448,192,52837,128,0,53197:0:0:0:0:
192,192,52837,128,2,53797:0:0:0:0:
64,192,52957,128,0,53077:0:0:0:0:
320,192,53077,128,0,53197:0:0:0:0:
64,192,53197,128,0,53317:0:0:0:0:
448,192,53317,1,0,0:0:0:0:
320,192,53317,1,8,0:0:0:0:
64,192,53437,1,0,0:0:0:0:
320,192,53557,1,0,0:0:0:0:
448,192,53677,1,0,0:0:0:0:
320,192,53797,128,0,54157:0:0:0:0:
64,192,53797,128,2,54517:0:0:0:0:
448,192,53917,128,0,54037:0:0:0:0:
192,192,54037,128,0,54157:0:0:0:0:
448,192,54157,128,0,54277:0:0:0:0:
192,192,54277,1,8,0:0:0:0:
320,192,54277,128,0,54757:0:0:0:0:
448,192,54397,1,0,0:0:0:0:
192,192,54517,1,0,0:0:0:0:
64,192,54637,1,0,0:0:0:0:
448,192,54757,128,2,55957:0:0:0:0:
192,192,54757,128,0,55117:0:0:0:0:
320,192,54877,128,0,54997:0:0:0:0:
64,192,54997,128,0,55117:0:0:0:0:
320,192,55117,128,0,55237:0:0:0:0:
192,192,55237,1,0,0:0:0:0:
64,192,55237,1,8,0:0:0:0:
320,192,55357,1,0,0:0:0:0:
64,192,55477,1,0,0:0:0:0:
192,192,55597,1,0,0:0:0:0:
64,192,55717,1,0,0:0:0:0:
320,192,55717,1,2,0:0:0:0:
192,192,55837,1,0,0:0:0:0:
64,192,55957,128,0,56197:0:0:0:0:
192,192,56077,128,0,56197:0:0:0:0:
448,192,56197,128,0,56557:0:0:0:0:
320,192,56197,1,8,0:0:0:0:
192,192,56317,1,0,0:0:0:0:
64,192,56437,128,0,56677:0:0:0:0:
320,192,56557,128,0,56677:0:0:0:0:
192,192,56677,128,0,56917:0:0:0:0:
320,192,57157,128,0,57397:0:0:0:0:
192,192,57397,1,0,0:0:0:0:
64,192,57637,128,0,58117:0:0:0:0:
320,192,57877,128,0,58117:0:0:0:0:
192,192,58117,128,0,59317:0:0:0:0:
448,192,58357,128,0,59077:0:0:0:0:
64,192,58597,1,0,0:0:0:0:
64,192,58837,128,0,59077:0:0:0:0:
320,192,59077,1,0,0:0:0:0:
448,192,59317,128,0,59557:0:0:0:0:
448,192,59797,128,0,60037:0:0:0:0:
448,192,60277,128,0,60517:0:0:0:0:
64,192,60757,128,0,61117:0:0:0:0:
320,192,60997,128,0,61237:0:0:0:0:
64,192,61237,128,0,61717:0:0:0:0:
448,192,61477,128,0,61717:0:0:0:0:
320,192,61837,128,0,62077:0:0:0:0:
192,192,62197,128,0,62437:0:0:0:0:
448,192,62437,1,2,0:0:0:0:
320,192,62437,1,0,0:0:0:0:
64,192,62557,1,8,0:0:0:0:
320,192,62557,1,0,0:0:0:0:
64,192,62797,1,0,0:0:0:0:
192,192,62797,1,2,0:0:0:0:
448,192,62917,1,8,0:0:0:0:
192,192,62917,128,0,63157:0:0:0:0:
64,192,63037,128,0,63157:0:0:0:0:
448,192,63157,1,0,0:0:0:0:
320,192,63157,1,8,0:0:0:0:
448,192,63277,1,0,0:0:0:0:
320,192,63277,1,8,0:0:0:0:
192,192,63397,1,2,0:0:0:0:
64,192,63397,128,0,63637:0:0:0:0:
448,192,63517,128,8,63637:0:0:0:0:
320,192,63517,1,0,0:0:0:0:
448,192,63757,1,0,0:0:0:0:
192,192,63757,1,2,0:0:0:0:
64,192,63877,128,0,63997:0:0:0:0:
192,192,63877,1,8,0:0:0:0:
448,192,63997,1,0,0:0:0:0:
320,192,63997,1,8,0:0:0:0:
192,192,64117,1,8,0:0:0:0:
64,192,64117,1,0,0:0:0:0:
320,192,64237,1,8,0:0:0:0:
448,192,64237,1,0,0:0:0:0:
192,192,64357,128,0,64597:0:0:0:0:
64,192,64357,128,2,65317:0:0:0:0:
320,192,64357,128,4,64837:0:0:0:0:
448,192,64597,128,0,64717:0:0:0:0:
448,192,64837,128,8,65197:0:0:0:0:
192,192,64837,128,0,65797:0:0:0:0:
320,192,65077,128,0,65197:0:0:0:0:
320,192,65317,128,2,65677:0:0:0:0:
448,192,65317,128,0,66277:0:0:0:0:
64,192,65557,128,0,65677:0:0:0:0:
64,192,65797,128,8,66157:0:0:0:0:
320,192,65797,128,0,66157:0:0:0:0:
192,192,66037,128,0,66277:0:0:0:0:
64,192,66277,128,0,66637:0:0:0:0:
320,192,66277,128,2,67237:0:0:0:0:
192,192,66517,128,0,66637:0:0:0:0:
64,192,66757,1,0,0:0:0:0:
192,192,66757,1,8,0:0:0:0:
64,192,66997,128,0,67117:0:0:0:0:
192,192,67237,128,0,67717:0:0:0:0:
448,192,67237,128,2,68197:0:0:0:0:
64,192,67477,128,0,67597:0:0:0:0:
320,192,67717,128,8,68677:0:0:0:0:
64,192,67717,128,0,68077:0:0:0:0:
192,192,67957,128,0,68077:0:0:0:0:
64,192,68197,128,2,69157:0:0:0:0:
192,192,68197,128,0,68557:0:0:0:0:
448,192,68437,128,0,68557:0:0:0:0:
448,192,68677,128,8,69037:0:0:0:0:
192,192,68677,128,0,69037:0:0:0:0:
320,192,68917,128,0,69157:0:0:0:0:
448,192,69157,128,2,70117:0:0:0:0:
192,192,69157,128,0,69517:0:0:0:0:
64,192,69397,128,0,69517:0:0:0:0:
320,192,69637,1,0,0:0:0:0:
64,192,69637,1,8,0:0:0:0:
320,192,69877,128,0,70117:0:0:0:0:
192,192,70117,1,2,0:0:0:0:
64,192,70117,1,0,0:0:0:0:
320,192,70357,128,0,70477:0:0:0:0:
448,192,70597,1,0,0:0:0:0:
64,192,70597,128,8,71437:0:0:0:0:
448,192,70837,128,0,70957:0:0:0:0:
320,192,71077,128,2,72037:0:0:0:0:
192,192,71077,1,0,0:0:0:0:
448,192,71317,128,0,71437:0:0:0:0:
64,192,71557,128,8,72037:0:0:0:0:
192,192,71557,1,0,0:0:0:0:
448,192,71797,128,0,71917:0:0:0:0:
448,192,72037,128,2,72997:0:0:0:0:
192,192,72037,128,0,72517:0:0:0:0:
64,192,72277,128,0,72397:0:0:0:0:
64,192,72517,128,8,72877:0:0:0:0:
320,192,72517,128,0,73477:0:0:0:0:
192,192,72757,128,0,72877:0:0:0:0:
192,192,72997,128,2,73357:0:0:0:0:
64,192,72997,128,0,73957:0:0:0:0:
448,192,73237,128,0,73357:0:0:0:0:
448,192,73477,128,8,73837:0:0:0:0:
192,192,73477,128,0,73837:0:0:0:0:
320,192,73717,128,0,73957:0:0:0:0:
448,192,73957,128,0,74317:0:0:0:0:
192,192,73957,128,2,74917:0:0:0:0:
320,192,74197,128,0,74317:0:0:0:0:
448,192,74437,1,8,0:0:0:0:
320,192,74437,1,0,0:0:0:0:
448,192,74677,128,0,74797:0:0:0:0:
320,192,74917,128,0,75397:0:0:0:0:
64,192,74917,128,2,75877:0:0:0:0:
448,192,75157,128,0,75277:0:0:0:0:
192,192,75397,128,0,76357:0:0:0:0:
448,192,75397,128,8,75757:0:0:0:0:
320,192,75637,128,0,75757:0:0:0:0:
448,192,75877,128,0,76837:0:0:0:0:
320,192,75877,128,2,76237:0:0:0:0:
64,192,76117,128,0,76237:0:0:0:0:
64,192,76357,128,8,76717:0:0:0:0:
320,192,76357,128,0,76717:0:0:0:0:
192,192,76597,128,0,76837:0:0:0:0:
64,192,76837,128,0,77797:0:0:0:0:
320,192,76837,128,2,77197:0:0:0:0:
448,192,77077,128,0,77197:0:0:0:0:
192,192,77317,1,0,0:0:0:0:
448,192,77317,1,8,0:0:0:0:
192,192,77557,128,0,77797:0:0:0:0:
448,192,77797,1,0,0:0:0:0:
320,192,77797,1,2,0:0:0:0:
320,192,77917,1,8,0:0:0:0:
64,192,77917,1,0,0:0:0:0:
192,192,78157,1,2,0:0:0:0:
64,192,78157,1,0,0:0:0:0:
448,192,78277,1,8,0:0:0:0:
192,192,78277,1,0,0:0:0:0:
192,192,78517,1,8,0:0:0:0:
64,192,78517,1,0,0:0:0:0:
192,192,78637,1,8,0:0:0:0:
64,192,78637,1,0,0:0:0:0:
448,192,78757,1,2,0:0:0:0:
320,192,78757,1,0,0:0:0:0:
192,192,78877,1,8,0:0:0:0:
448,192,78877,1,0,0:0:0:0:
192,192,79117,1,0,0:0:0:0:
64,192,79117,1,2,0:0:0:0:
448,192,79237,128,8,79477:0:0:0:0:
64,192,79237,1,0,0:0:0:0:
320,192,79237,1,0,0:0:0:0:
192,192,79477,128,0,79717:0:0:0:0:
320,192,79717,128,4,79957:0:0:0:0:
64,192,79717,128,2,80197:0:0:0:0:
192,192,79957,128,0,80077:0:0:0:0:
448,192,80077,1,0,0:0:0:0:
320,192,80197,128,8,80437:0:0:0:0:
192,192,80197,128,0,80317:0:0:0:0:
448,192,80437,128,0,80677:0:0:0:0:
64,192,80557,1,0,0:0:0:0:
192,192,80677,1,2,0:0:0:0:
320,192,80677,1,0,0:0:0:0:
320,192,80917,128,0,81157:0:0:0:0:
192,192,81037,1,0,0:0:0:0:
448,192,81157,1,8,0:0:0:0:
64,192,81157,1,0,0:0:0:0:
320,192,81277,1,0,0:0:0:0:
64,192,81397,128,0,81637:0:0:0:0:
320,192,81517,1,0,0:0:0:0:
448,192,81637,128,0,82117:0:0:0:0:
192,192,81637,128,2,81877:0:0:0:0:
64,192,81877,128,0,81997:0:0:0:0:
192,192,81997,1,0,0:0:0:0:
320,192,82117,128,8,82237:0:0:0:0:
64,192,82117,128,0,82357:0:0:0:0:
192,192,82357,128,0,82597:0:0:0:0:
448,192,82477,1,0,0:0:0:0:
64,192,82597,1,2,0:0:0:0:
320,192,82597,1,0,0:0:0:0:
320,192,82837,128,0,83077:0:0:0:0:
64,192,82957,1,0,0:0:0:0:
448,192,83077,1,8,0:0:0:0:
192,192,83077,1,0,0:0:0:0:
320,192,83197,1,0,0:0:0:0:
64,192,83317,128,0,83557:0:0:0:0:
448,192,83437,1,0,0:0:0:0:
192,192,83557,128,2,83797:0:0:0:0:
320,192,83557,128,0,84037:0:0:0:0:
448,192,83797,128,0,83917:0:0:0:0:
192,192,83917,1,0,0:0:0:0:
64,192,84037,128,0,84157:0:0:0:0:
448,192,84037,128,8,84277:0:0:0:0:
320,192,84277,128,0,84517:0:0:0:0:
64,192,84397,1,0,0:0:0:0:
448,192,84517,1,0,0:0:0:0:
192,192,84517,1,2,0:0:0:0:
192,192,84757,128,0,84997:0:0:0:0:
64,192,84877,1,0,0:0:0:0:
448,192,84997,1,8,0:0:0:0:
320,192,84997,1,0,0:0:0:0:
192,192,85117,1,0,0:0:0:0:
64,192,85237,128,0,85477:0:0:0:0:
320,192,85357,1,0,0:0:0:0:
448,192,85477,128,0,85957:0:0:0:0:
192,192,85477,128,2,85717:0:0:0:0:
64,192,85717,128,0,85837:0:0:0:0:
192,192,85837,1,0,0:0:0:0:
64,192,85957,128,0,86077:0:0:0:0:
320,192,85957,128,8,86197:0:0:0:0:
192,192,86197,128,0,86437:0:0:0:0:
320,192,86317,1,0,0:0:0:0:
64,192,86437,1,2,0:0:0:0:
448,192,86437,1,0,0:0:0:0:
64,192,86677,128,0,86917:0:0:0:0:
320,192,86797,1,0,0:0:0:0:
192,192,86917,128,0,87157:0:0:0:0:
448,192,86917,128,8,87037:0:0:0:0:
320,192,87157,128,0,87397:0:0:0:0:
192,192,87277,128,0,87397:0:0:0:0:
64,192,87397,128,2,87637:0:0:0:0:
448,192,87397,128,4,87877:0:0:0:0:
320,192,87637,128,0,87757:0:0:0:0:
192,192,87757,1,0,0:0:0:0:
320,192,87877,128,0,87997:0:0:0:0:
64,192,87877,128,8,88117:0:0:0:0:
320,192,88117,128,0,88357:0:0:0:0:
192,192,88237,1,0,0:0:0:0:
64,192,88357,1,0,0:0:0:0:
448,192,88357,1,2,0:0:0:0:
448,192,88597,128,0,88837:0:0:0:0:
64,192,88717,1,0,0:0:0:0:
320,192,88837,1,0,0:0:0:0:
192,192,88837,1,8,0:0:0:0:
448,192,88957,1,0,0:0:0:0:
192,192,89077,128,0,89317:0:0:0:0:
448,192,89197,1,0,0:0:0:0:
320,192,89317,128,0,89557:0:0:0:0:
64,192,89317,128,2,89797:0:0:0:0:
448,192,89557,128,0,89677:0:0:0:0:
320,192,89677,1,0,0:0:0:0:
192,192,89797,128,0,90037:0:0:0:0:
448,192,89797,128,8,89917:0:0:0:0:
320,192,90037,128,0,90277:0:0:0:0:
448,192,90157,1,0,0:0:0:0:
64,192,90277,1,2,0:0:0:0:
192,192,90277,1,0,0:0:0:0:
192,192,90517,128,0,90757:0:0:0:0:
448,192,90637,1,0,0:0:0:0:
320,192,90757,1,8,0:0:0:0:
64,192,90757,1,0,0:0:0:0:
192,192,90877,1,0,0:0:0:0:
320,192,90997,128,0,91237:0:0:0:0:
192,192,91117,1,0,0:0:0:0:
64,192,91237,128,2,91477:0:0:0:0:
448,192,91237,128,4,91717:0:0:0:0:
320,192,91477,128,0,91597:0:0:0:0:
64,192,91597,1,0,0:0:0:0:
320,192,91717,128,8,91957:0:0:0:0:
192,192,91717,128,0,91837:0:0:0:0:
64,192,91957,128,0,92197:0:0:0:0:
192,192,92077,1,0,0:0:0:0:
320,192,92197,1,2,0:0:0:0:
448,192,92197,1,0,0:0:0:0:
448,192,92437,128,0,92677:0:0:0:0:
192,192,92557,1,0,0:0:0:0:
320,192,92677,1,0,0:0:0:0:
64,192,92677,1,8,0:0:0:0:
448,192,92797,1,0,0:0:0:0:
192,192,92917,128,0,93157:0:0:0:0:
64,192,93037,1,0,0:0:0:0:
320,192,93157,1,2,0:0:0:0:
448,192,93157,1,0,0:0:0:0:
320,192,93277,1,8,0:0:0:0:
64,192,93277,1,0,0:0:0:0:
64,192,93517,1,0,0:0:0:0:
192,192,93517,1,2,0:0:0:0:
192,192,93637,1,8,0:0:0:0:
448,192,93637,1,0,0:0:0:0:
320,192,93877,1,8,0:0:0:0:
448,192,93877,1,0,0:0:0:0:
448,192,93997,1,0,0:0:0:0:
320,192,93997,1,8,0:0:0:0:
64,192,94117,1,0,0:0:0:0:
448,192,94237,1,0,0:0:0:0:
64,192,94357,1,0,0:0:0:0:
192,192,94357,1,8,0:0:0:0:
320,192,94477,1,0,0:0:0:0:
64,192,94597,1,0,0:0:0:0:
448,192,94717,1,0,0:0:0:0:
192,192,94837,1,0,0:0:0:0:
448,192,94957,1,0,0:0:0:0:
64,192,95077,128,0,95317:0:0:0:0:
192,192,95077,1,0,0:0:0:0:
320,192,95557,128,0,95797:0:0:0:0:
448,192,96037,128,0,96517:0:0:0:0:
64,192,96517,128,0,96757:0:0:0:0:
192,192,96757,128,0,98197:0:0:0:0:
320,192,97237,128,0,98197:0:0:0:0:
448,192,98197,128,0,98437:0:0:0:0:
192,192,98317,128,0,98437:0:0:0:0:
64,192,98437,128,8,98677:0:0:0:0:
320,192,98437,128,0,98557:0:0:0:0:
448,192,98677,128,2,98917:0:0:0:0:
320,192,98677,1,0,0:0:0:0:
192,192,98797,128,8,98917:0:0:0:0:
320,192,98917,1,2,0:0:0:0:
64,192,98917,1,0,0:0:0:0:
64,192,99157,128,0,99397:0:0:0:0:
320,192,99277,1,0,0:0:0:0:
192,192,99397,128,0,99517:0:0:0:0:
448,192,99397,128,8,99757:0:0:0:0:
64,192,99637,128,0,99877:0:0:0:0:
320,192,99757,1,0,0:0:0:0:
448,192,99877,128,0,99997:0:0:0:0:
192,192,99877,128,2,100357:0:0:0:0:
320,192,100117,1,0,0:0:0:0:
448,192,100237,1,0,0:0:0:0:
64,192,100357,128,0,100477:0:0:0:0:
320,192,100357,128,8,100717:0:0:0:0:
192,192,100597,128,0,102277:0:0:0:0:
448,192,100597,1,0,0:0:0:0:
64,192,100717,128,0,100837:0:0:0:0:
448,192,100837,1,2,0:0:0:0:
320,192,100837,1,0,0:0:0:0:
320,192,101077,1,0,0:0:0:0:
448,192,101197,1,0,0:0:0:0:
64,192,101317,1,8,0:0:0:0:
320,192,101317,1,0,0:0:0:0:
448,192,101557,1,0,0:0:0:0:
64,192,101677,1,0,0:0:0:0:
448,192,101797,1,2,0:0:0:0:
320,192,101797,1,0,0:0:0:0:
448,192,102037,1,0,0:0:0:0:
320,192,102157,1,0,0:0:0:0:
448,192,102277,1,0,0:0:0:0:
64,192,102277,1,8,0:0:0:0:
64,192,102517,128,0,102757:0:0:0:0:
320,192,102637,1,0,0:0:0:0:
448,192,102757,128,0,102997:0:0:0:0:
192,192,102757,1,2,0:0:0:0:
64,192,102997,1,0,0:0:0:0:
192,192,103117,1,0,0:0:0:0:
320,192,103237,128,8,103477:0:0:0:0:
448,192,103237,1,0,0:0:0:0:
64,192,103477,1,0,0:0:0:0:
192,192,103597,1,0,0:0:0:0:
448,192,103717,128,2,104077:0:0:0:0:
320,192,103717,1,0,0:0:0:0:
320,192,103957,1,0,0:0:0:0:
192,192,104077,1,0,0:0:0:0:
64,192,104197,128,8,104557:0:0:0:0:
320,192,104197,1,0,0:0:0:0:
320,192,104437,128,0,105037:0:0:0:0:
448,192,104557,128,0,104677:0:0:0:0:
64,192,104677,1,0,0:0:0:0:
192,192,104677,1,2,0:0:0:0:
192,192,104917,128,0,105637:0:0:0:0:
64,192,105037,1,0,0:0:0:0:
448,192,105157,1,8,0:0:0:0:
320,192,105157,1,0,0:0:0:0:
320,192,105397,1,0,0:0:0:0:
448,192,105517,1,0,0:0:0:0:
320,192,105637,1,0,0:0:0:0:
64,192,105637,1,2,0:0:0:0:
64,192,105877,1,0,0:0:0:0:
320,192,105997,1,0,0:0:0:0:
448,192,106117,1,8,0:0:0:0:
64,192,106117,1,0,0:0:0:0:
192,192,106357,1,0,0:0:0:0:
320,192,106477,1,0,0:0:0:0:
64,192,106597,1,2,0:0:0:0:
448,192,106597,1,0,0:0:0:0:
448,192,106837,1,0,0:0:0:0:
192,192,106957,1,0,0:0:0:0:
448,192,107077,128,8,107437:0:0:0:0:
64,192,107077,1,0,0:0:0:0:
192,192,107317,128,0,107557:0:0:0:0:
320,192,107437,1,0,0:0:0:0:
64,192,107557,128,2,107917:0:0:0:0:
448,192,107557,128,0,107677:0:0:0:0:
320,192,107677,1,0,0:0:0:0:
192,192,107797,128,0,108037:0:0:0:0:
448,192,107917,1,0,0:0:0:0:
320,192,108037,128,8,108397:0:0:0:0:
64,192,108037,128,0,108157:0:0:0:0:
192,192,108277,1,0,0:0:0:0:
448,192,108277,128,0,109717:0:0:0:0:
64,192,108397,128,0,108517:0:0:0:0:
320,192,108517,1,0,0:0:0:0:
192,192,108517,1,2,0:0:0:0:
64,192,108757,1,0,0:0:0:0:
320,192,108877,1,0,0:0:0:0:
64,192,108997,1,0,0:0:0:0:
192,192,108997,1,8,0:0:0:0:
192,192,109237,1,0,0:0:0:0:
320,192,109357,1,0,0:0:0:0:
192,192,109477,5,0,0:0:0:0:
64,192,109477,1,2,0:0:0:0:
192,192,109717,128,0,109957:0:0:0:0:
448,192,109837,128,0,109957:0:0:0:0:
320,192,109957,128,8,110197:0:0:0:0:
64,192,109957,128,0,110077:0:0:0:0:
448,192,110197,128,0,110437:0:0:0:0:
192,192,110317,128,0,110437:0:0:0:0:
320,192,110437,128,0,110797:0:0:0:0:
64,192,110437,128,2,111397:0:0:0:0:
192,192,110677,128,0,110797:0:0:0:0:
448,192,110797,128,0,110917:0:0:0:0:
192,192,110917,1,0,0:0:0:0:
320,192,110917,1,8,0:0:0:0:
448,192,111037,1,0,0:0:0:0:
192,192,111157,1,0,0:0:0:0:
448,192,111277,1,0,0:0:0:0:
192,192,111397,128,2,111757:0:0:0:0:
320,192,111397,128,0,112357:0:0:0:0:
448,192,111517,128,0,111637:0:0:0:0:
64,192,111637,128,0,111757:0:0:0:0:
448,192,111757,128,0,111877:0:0:0:0:
64,192,111877,1,0,0:0:0:0:
192,192,111877,1,8,0:0:0:0:
448,192,111997,1,0,0:0:0:0:
192,192,112117,1,0,0:0:0:0:
64,192,112237,1,0,0:0:0:0:
448,192,112357,128,2,112717:0:0:0:0:
192,192,112357,128,0,113317:0:0:0:0:
64,192,112477,128,0,112597:0:0:0:0:
320,192,112597,128,0,112717:0:0:0:0:
64,192,112717,128,0,112837:0:0:0:0:
448,192,112837,1,8,0:0:0:0:
320,192,112837,1,0,0:0:0:0:
64,192,112957,1,0,0:0:0:0:
448,192,113077,1,0,0:0:0:0:
320,192,113197,1,0,0:0:0:0:
64,192,113317,128,0,114037:0:0:0:0:
448,192,113317,128,2,113677:0:0:0:0:
192,192,113437,128,0,113557:0:0:0:0:
320,192,113557,128,0,113677:0:0:0:0:
192,192,113677,128,0,113797:0:0:0:0:
448,192,113797,1,0,0:0:0:0:
320,192,113797,1,8,0:0:0:0:
192,192,113917,1,0,0:0:0:0:
448,192,114037,1,0,0:0:0:0:
192,192,114157,1,0,0:0:0:0:
64,192,114277,128,0,114637:0:0:0:0:
320,192,114277,128,2,115237:0:0:0:0:
448,192,114397,128,0,114517:0:0:0:0:
192,192,114517,128,0,114637:0:0:0:0:
448,192,114637,128,0,114757:0:0:0:0:
64,192,114757,1,8,0:0:0:0:
192,192,114757,1,0,0:0:0:0:
448,192,114877,1,0,0:0:0:0:
192,192,114997,1,0,0:0:0:0:
64,192,115117,1,0,0:0:0:0:
192,192,115237,128,0,115597:0:0:0:0:
448,192,115237,128,2,115957:0:0:0:0:
64,192,115357,128,0,115477:0:0:0:0:
320,192,115477,128,0,115597:0:0:0:0:
64,192,115597,128,0,115717:0:0:0:0:
320,192,115717,1,8,0:0:0:0:
192,192,115717,128,0,116197:0:0:0:0:
64,192,115837,1,0,0:0:0:0:
320,192,115957,1,0,0:0:0:0:
448,192,116077,1,0,0:0:0:0:
64,192,116197,128,2,117517:0:0:0:0:
320,192,116197,128,0,116557:0:0:0:0:
192,192,116317,128,0,116437:0:0:0:0:
448,192,116437,128,0,116557:0:0:0:0:
192,192,116557,128,0,116677:0:0:0:0:
320,192,116677,1,0,0:0:0:0:
448,192,116677,128,8,116917:0:0:0:0:
192,192,116797,1,0,0:0:0:0:
320,192,116917,1,0,0:0:0:0:
448,192,117037,1,0,0:0:0:0:
192,192,117157,1,2,0:0:0:0:
320,192,117157,1,0,0:0:0:0:
448,192,117277,1,0,0:0:0:0:
320,192,117397,128,0,117637:0:0:0:0:
448,192,117517,1,0,0:0:0:0:
192,192,117637,1,8,0:0:0:0:
64,192,117637,1,0,0:0:0:0:
448,192,117757,1,0,0:0:0:0:
320,192,117877,128,0,118117:0:0:0:0:
64,192,117997,1,0,0:0:0:0:
448,192,118117,128,2,118357:0:0:0:0:
192,192,118117,1,0,0:0:0:0:
320,192,118357,1,0,0:0:0:0:
320,192,118597,128,0,118837:0:0:0:0:
64,192,118597,1,8,0:0:0:0:
192,192,118837,1,0,0:0:0:0:
448,192,118957,1,0,0:0:0:0:
64,192,119077,128,2,119437:0:0:0:0:
192,192,119077,1,0,0:0:0:0:
320,192,119197,1,0,0:0:0:0:
448,192,119317,1,0,0:0:0:0:
320,192,119437,1,0,0:0:0:0:
64,192,119557,1,0,0:0:0:0:
448,192,119557,128,8,119917:0:0:0:0:
320,192,119677,1,0,0:0:0:0:
192,192,119797,128,0,121837:0:0:0:0:
320,192,119917,1,0,0:0:0:0:
448,192,120037,1,0,0:0:0:0:
64,192,120037,1,2,0:0:0:0:
320,192,120157,1,0,0:0:0:0:
64,192,120277,1,0,0:0:0:0:
448,192,120397,1,0,0:0:0:0:
64,192,120517,1,0,0:0:0:0:
320,192,120517,1,8,0:0:0:0:
320,192,120757,1,0,0:0:0:0:
64,192,120877,1,0,0:0:0:0:
320,192,120997,1,2,0:0:0:0:
448,192,120997,1,0,0:0:0:0:
64,192,121117,1,0,0:0:0:0:
320,192,121237,1,0,0:0:0:0:
448,192,121357,1,0,0:0:0:0:
64,192,121477,1,8,0:0:0:0:
320,192,121477,1,0,0:0:0:0:
448,192,121597,1,0,0:0:0:0:
64,192,121717,1,0,0:0:0:0:
448,192,121837,1,0,0:0:0:0:
64,192,121957,128,0,122197:0:0:0:0:
192,192,121957,1,0,0:0:0:0:
448,192,122197,1,0,0:0:0:0:
192,192,122317,1,0,0:0:0:0:
448,192,122437,128,8,122797:0:0:0:0:
64,192,122437,128,0,122557:0:0:0:0:
320,192,122557,1,0,0:0:0:0:
192,192,122677,128,0,122917:0:0:0:0:
320,192,122797,1,0,0:0:0:0:
448,192,122917,128,0,123277:0:0:0:0:
64,192,122917,128,2,123037:0:0:0:0:
192,192,123037,1,0,0:0:0:0:
320,192,123157,1,0,0:0:0:0:
64,192,123277,128,0,123757:0:0:0:0:
320,192,123397,1,8,0:0:0:0:
448,192,123397,1,0,0:0:0:0:
192,192,123517,1,0,0:0:0:0:
448,192,123637,128,0,124237:0:0:0:0:
192,192,123757,1,0,0:0:0:0:
64,192,123877,1,2,0:0:0:0:
320,192,123877,128,0,124117:0:0:0:0:
64,192,124117,1,0,0:0:0:0:
192,192,124237,1,0,0:0:0:0:
448,192,124357,1,8,0:0:0:0:
64,192,124357,128,0,124597:0:0:0:0:
320,192,124597,128,0,124837:0:0:0:0:
448,192,124717,1,0,0:0:0:0:
192,192,124837,5,0,0:0:0:0:
64,192,124837,1,2,0:0:0:0:
448,192,124957,1,0,0:0:0:0:
192,192,125077,128,0,125317:0:0:0:0:
64,192,125317,1,0,0:0:0:0:
448,192,125317,1,8,0:0:0:0:
320,192,125317,1,0,0:0:0:0:
448,192,125557,1,0,0:0:0:0:
320,192,125677,1,0,0:0:0:0:
192,192,125797,128,8,126157:0:0:0:0:
64,192,125797,1,4,0:0:0:0:
448,192,125917,128,0,126037:0:0:0:0:
64,192,126277,1,0,0:0:0:0:
320,192,126277,128,8,126517:0:0:0:0:
192,192,126357,128,0,126517:0:0:0:0:
448,192,126517,128,0,126757:0:0:0:0:
64,192,126757,1,0,0:0:0:0:
192,192,126757,1,8,0:0:0:0:
448,192,126997,128,0,127237:0:0:0:0:
320,192,127117,128,0,127237:0:0:0:0:
64,192,127237,128,8,127597:0:0:0:0:
192,192,127237,1,0,0:0:0:0:
448,192,127357,128,0,127477:0:0:0:0:
192,192,127477,128,0,127717:0:0:0:0:
448,192,127717,1,0,0:0:0:0:
320,192,127717,128,8,128077:0:0:0:0:
64,192,127837,128,0,127957:0:0:0:0:
192,192,128197,128,0,128437:0:0:0:0:
448,192,128197,1,8,0:0:0:0:
320,192,128277,128,0,128437:0:0:0:0:
448,192,128437,128,0,128677:0:0:0:0:
64,192,128677,1,8,0:0:0:0:
320,192,128677,1,0,0:0:0:0:
320,192,128917,128,0,129157:0:0:0:0:
192,192,129037,128,0,129157:0:0:0:0:
64,192,129157,128,8,129517:0:0:0:0:
448,192,129157,1,0,0:0:0:0:
192,192,129397,128,0,129637:0:0:0:0:
448,192,129517,128,0,129757:0:0:0:0:
320,192,129637,1,8,0:0:0:0:
64,192,129637,128,0,129877:0:0:0:0:
192,192,130117,128,0,130357:0:0:0:0:
64,192,130117,1,8,0:0:0:0:
320,192,130197,128,0,130357:0:0:0:0:
448,192,130357,128,0,130597:0:0:0:0:
64,192,130597,1,0,0:0:0:0:
320,192,130597,1,8,0:0:0:0:
64,192,130837,128,0,131077:0:0:0:0:
320,192,130957,128,0,131077:0:0:0:0:
192,192,131077,1,0,0:0:0:0:
448,192,131077,128,8,131437:0:0:0:0:
64,192,131197,128,0,131317:0:0:0:0:
320,192,131317,128,0,131557:0:0:0:0:
64,192,131557,128,8,131917:0:0:0:0:
192,192,131557,1,0,0:0:0:0:
448,192,131677,128,0,131797:0:0:0:0:
320,192,132037,128,8,132277:0:0:0:0:
448,192,132037,1,0,0:0:0:0:
192,192,132117,128,0,132277:0:0:0:0:
64,192,132277,128,0,132517:0:0:0:0:
192,192,132517,1,8,0:0:0:0:
320,192,132517,1,0,0:0:0:0:
448,192,132757,128,0,132997:0:0:0:0:
192,192,132877,128,0,132997:0:0:0:0:
320,192,132997,128,8,133117:0:0:0:0:
64,192,132997,128,0,133237:0:0:0:0:
448,192,133237,128,0,133477:0:0:0:0:
192,192,133357,128,0,133477:0:0:0:0:
320,192,133477,128,0,133597:0:0:0:0:
64,192,133477,128,8,133717:0:0:0:0:
320,192,133717,1,8,0:0:0:0:
448,192,133717,1,0,0:0:0:0:
64,192,133957,1,0,0:0:0:0:
320,192,133957,128,8,134197:0:0:0:0:
192,192,134037,128,0,134197:0:0:0:0:
64,192,134197,128,0,134437:0:0:0:0:
448,192,134197,1,8,0:0:0:0:
320,192,134437,1,0,0:0:0:0:
192,192,134437,1,8,0:0:0:0:
64,192,134677,128,0,134917:0:0:0:0:
320,192,134677,1,8,0:0:0:0:
192,192,134797,128,0,134917:0:0:0:0:
320,192,134917,1,0,0:0:0:0:
448,192,134917,128,8,135157:0:0:0:0:
64,192,135037,128,0,135157:0:0:0:0:
192,192,135157,1,0,0:0:0:0:
320,192,135157,1,8,0:0:0:0:
64,192,135277,1,0,0:0:0:0:
448,192,135397,1,0,0:0:0:0:
320,192,135397,128,8,135637:0:0:0:0:
64,192,135517,128,0,135637:0:0:0:0:
192,192,135637,1,8,0:0:0:0:
448,192,135637,1,0,0:0:0:0:
192,192,135877,128,8,136117:0:0:0:0:
448,192,135877,1,0,0:0:0:0:
320,192,135957,128,0,136117:0:0:0:0:
448,192,136117,1,8,0:0:0:0:
64,192,136117,128,0,136357:0:0:0:0:
448,192,136357,1,8,0:0:0:0:
192,192,136357,1,0,0:0:0:0:
320,192,136597,128,0,136837:0:0:0:0:
64,192,136597,1,8,0:0:0:0:
192,192,136717,128,0,136837:0:0:0:0:
64,192,136837,128,0,137197:0:0:0:0:
448,192,136837,1,8,0:0:0:0:
192,192,137077,128,8,137197:0:0:0:0:
320,192,137077,1,0,0:0:0:0:
448,192,137317,128,8,137557:0:0:0:0:
64,192,137437,128,8,137557:0:0:0:0:
320,192,137557,1,8,0:0:0:0:
192,192,137677,1,8,0:0:0:0:
320,192,137797,128,8,138037:0:0:0:0:
192,192,137877,128,0,138037:0:0:0:0:
448,192,137917,1,8,0:0:0:0:
64,192,138037,128,8,138277:0:0:0:0:
320,192,138157,1,8,0:0:0:0:
448,192,138277,1,8,0:0:0:0:
64,192,138397,1,8,0:0:0:0:
192,192,138517,128,8,138757:0:0:0:0:
320,192,138637,128,8,138757:0:0:0:0:
448,192,138757,1,0,0:0:0:0:
64,192,138757,128,0,139117:0:0:0:0:
320,192,138877,128,0,138997:0:0:0:0:
448,192,138997,128,0,139237:0:0:0:0:
192,192,139117,1,0,0:0:0:0:
64,192,139237,5,0,0:0:0:0:
320,192,139237,1,0,0:0:0:0:
64,192,139477,128,0,139597:0:0:0:0:
320,192,139717,128,0,139957:0:0:0:0:
448,192,139837,128,0,139957:0:0:0:0:
192,192,140197,1,2,0:0:0:0:
448,192,140197,128,0,140437:0:0:0:0:
64,192,140317,128,0,140437:0:0:0:0:
192,192,140317,1,8,0:0:0:0:
64,192,140557,1,0,0:0:0:0:
320,192,140557,1,2,0:0:0:0:
320,192,140677,1,8,0:0:0:0:
448,192,140677,128,0,140797:0:0:0:0:
192,192,140797,1,8,0:0:0:0:
64,192,140797,1,0,0:0:0:0:
320,192,140917,1,8,0:0:0:0:
448,192,140917,1,0,0:0:0:0:
192,192,141037,1,8,0:0:0:0:
64,192,141037,1,0,0:0:0:0:
320,192,141157,128,0,141637:0:0:0:0:
192,192,141637,128,8,142357:0:0:0:0:
448,192,141637,128,4,141997:0:0:0:0:
64,192,141877,128,0,141997:0:0:0:0:
320,192,141997,1,0,0:0:0:0:
64,192,142117,128,2,142477:0:0:0:0:
448,192,142117,128,0,142837:0:0:0:0:
320,192,142357,128,0,142477:0:0:0:0:
192,192,142477,1,0,0:0:0:0:
64,192,142597,128,0,142957:0:0:0:0:
320,192,142597,128,8,142957:0:0:0:0:
192,192,142837,128,0,143077:0:0:0:0:
448,192,142957,1,0,0:0:0:0:
64,192,143077,128,2,144037:0:0:0:0:
320,192,143077,128,0,143317:0:0:0:0:
192,192,143317,128,0,143437:0:0:0:0:
320,192,143437,1,0,0:0:0:0:
448,192,143557,1,8,0:0:0:0:
192,192,143557,128,0,143797:0:0:0:0:
448,192,143797,128,0,143917:0:0:0:0:
320,192,143917,1,0,0:0:0:0:
192,192,144037,128,2,144277:0:0:0:0:
448,192,144037,128,0,144757:0:0:0:0:
64,192,144277,128,0,144397:0:0:0:0:
192,192,144397,1,0,0:0:0:0:
320,192,144517,128,8,145237:0:0:0:0:
64,192,144517,128,0,144877:0:0:0:0:
192,192,144757,128,0,144877:0:0:0:0:
448,192,144877,1,0,0:0:0:0:
64,192,144997,128,0,145717:0:0:0:0:
192,192,144997,128,2,145357:0:0:0:0:
448,192,145237,128,0,145357:0:0:0:0:
320,192,145357,1,0,0:0:0:0:
448,192,145477,128,8,145837:0:0:0:0:
192,192,145477,128,0,145837:0:0:0:0:
320,192,145717,128,0,145957:0:0:0:0:
64,192,145837,1,0,0:0:0:0:
448,192,145957,128,0,146917:0:0:0:0:
192,192,145957,1,2,0:0:0:0:
192,192,146197,128,0,146317:0:0:0:0:
64,192,146317,1,0,0:0:0:0:
192,192,146437,1,8,0:0:0:0:
320,192,146437,1,0,0:0:0:0:
320,192,146677,128,0,146797:0:0:0:0:
192,192,146797,1,0,0:0:0:0:
320,192,146917,1,0,0:0:0:0:
64,192,146917,128,2,147157:0:0:0:0:
448,192,147157,128,0,147277:0:0:0:0:
192,192,147277,1,0,0:0:0:0:
320,192,147397,128,8,147637:0:0:0:0:
64,192,147397,128,0,147997:0:0:0:0:
448,192,147637,128,0,147877:0:0:0:0:
320,192,147877,128,0,148597:0:0:0:0:
192,192,147877,128,2,148237:0:0:0:0:
64,192,148117,128,0,148237:0:0:0:0:
448,192,148237,1,0,0:0:0:0:
64,192,148357,128,0,148837:0:0:0:0:
192,192,148357,128,8,148477:0:0:0:0:
448,192,148477,1,0,0:0:0:0:
192,192,148597,1,0,0:0:0:0:
320,192,148717,1,0,0:0:0:0:
192,192,148837,128,4,149557:0:0:0:0:
448,192,148837,128,2,149077:0:0:0:0:
320,192,149077,128,0,149197:0:0:0:0:
448,192,149197,1,0,0:0:0:0:
64,192,149317,128,8,149677:0:0:0:0:
320,192,149317,128,0,150037:0:0:0:0:
448,192,149557,128,0,149677:0:0:0:0:
192,192,149677,1,0,0:0:0:0:
448,192,149797,128,2,150157:0:0:0:0:
64,192,149797,128,0,150517:0:0:0:0:
192,192,150037,128,0,150157:0:0:0:0:
320,192,150157,1,0,0:0:0:0:
448,192,150277,128,0,150637:0:0:0:0:
192,192,150277,128,8,150637:0:0:0:0:
320,192,150517,128,0,150757:0:0:0:0:
64,192,150637,1,0,0:0:0:0:
448,192,150757,128,0,151717:0:0:0:0:
192,192,150757,128,2,150997:0:0:0:0:
320,192,150997,128,0,151117:0:0:0:0:
192,192,151117,1,0,0:0:0:0:
64,192,151237,1,0,0:0:0:0:
320,192,151237,128,8,151477:0:0:0:0:
64,192,151477,128,0,151597:0:0:0:0:
192,192,151597,1,0,0:0:0:0:
320,192,151717,128,0,151957:0:0:0:0:
64,192,151717,128,2,152437:0:0:0:0:
448,192,151957,128,0,152077:0:0:0:0:
320,192,152077,1,0,0:0:0:0:
192,192,152197,128,0,152917:0:0:0:0:
448,192,152197,128,8,152557:0:0:0:0:
320,192,152437,128,0,152557:0:0:0:0:
64,192,152557,1,0,0:0:0:0:
448,192,152677,128,0,153397:0:0:0:0:
320,192,152677,128,2,153037:0:0:0:0:
64,192,152917,128,0,153037:0:0:0:0:
192,192,153037,1,0,0:0:0:0:
64,192,153157,128,8,153517:0:0:0:0:
320,192,153157,128,0,153517:0:0:0:0:
192,192,153397,128,0,153637:0:0:0:0:
448,192,153517,5,0,0:0:0:0:
64,192,153637,128,0,154477:0:0:0:0:
320,192,153637,1,2,0:0:0:0:
320,192,153877,128,0,153997:0:0:0:0:
448,192,153997,1,0,0:0:0:0:
320,192,154117,1,8,0:0:0:0:
192,192,154117,1,0,0:0:0:0:
192,192,154357,128,0,154477:0:0:0:0:
448,192,154477,1,0,0:0:0:0:
64,192,154597,128,2,154957:0:0:0:0:
320,192,154597,1,0,0:0:0:0:
320,192,154717,1,0,0:0:0:0:
448,192,154717,1,8,0:0:0:0:
448,192,154957,1,2,0:0:0:0:
320,192,154957,1,0,0:0:0:0:
64,192,155077,128,0,155437:0:0:0:0:
320,192,155077,1,8,0:0:0:0:
320,192,155317,1,8,0:0:0:0:
448,192,155317,1,0,0:0:0:0:
320,192,155437,1,8,0:0:0:0:
448,192,155437,1,0,0:0:0:0:
64,192,155557,128,2,155917:0:0:0:0:
192,192,155557,1,0,0:0:0:0:
448,192,155677,1,0,0:0:0:0:
320,192,155677,1,8,0:0:0:0:
448,192,155917,1,0,0:0:0:0:
192,192,155917,1,2,0:0:0:0:
192,192,156037,128,0,156277:0:0:0:0:
448,192,156037,128,8,156157:0:0:0:0:
320,192,156037,1,0,0:0:0:0:
320,192,156277,128,0,156517:0:0:0:0:
192,192,156517,128,2,156757:0:0:0:0:
448,192,156517,128,4,156997:0:0:0:0:
320,192,156757,128,0,156877:0:0:0:0:
64,192,156877,1,0,0:0:0:0:
192,192,156997,128,8,157237:0:0:0:0:
320,192,156997,128,0,157117:0:0:0:0:
64,192,157237,128,0,157477:0:0:0:0:
448,192,157357,1,0,0:0:0:0:
320,192,157477,1,0,0:0:0:0:
192,192,157477,1,2,0:0:0:0:
320,192,157717,128,0,157957:0:0:0:0:
192,192,157837,1,0,0:0:0:0:
64,192,157957,1,0,0:0:0:0:
448,192,157957,1,8,0:0:0:0:
320,192,158077,1,0,0:0:0:0:
64,192,158197,128,0,158437:0:0:0:0:
320,192,158317,1,0,0:0:0:0:
448,192,158437,128,0,158917:0:0:0:0:
192,192,158437,128,2,158677:0:0:0:0:
64,192,158677,128,0,158797:0:0:0:0:
192,192,158797,1,0,0:0:0:0:
320,192,158917,128,8,159037:0:0:0:0:
64,192,158917,128,0,159157:0:0:0:0:
192,192,159157,128,0,159397:0:0:0:0:
320,192,159277,1,0,0:0:0:0:
64,192,159397,1,2,0:0:0:0:
448,192,159397,1,0,0:0:0:0:
64,192,159637,128,0,159877:0:0:0:0:
320,192,159757,1,0,0:0:0:0:
448,192,159877,1,0,0:0:0:0:
192,192,159877,1,8,0:0:0:0:
64,192,159997,1,0,0:0:0:0:
448,192,160117,128,0,160357:0:0:0:0:
64,192,160237,1,0,0:0:0:0:
192,192,160357,128,2,160597:0:0:0:0:
320,192,160357,128,4,160837:0:0:0:0:
448,192,160597,128,0,160717:0:0:0:0:
192,192,160717,1,0,0:0:0:0:
64,192,160837,128,0,160957:0:0:0:0:
448,192,160837,128,8,161077:0:0:0:0:
320,192,161077,128,0,161317:0:0:0:0:
64,192,161197,1,0,0:0:0:0:
448,192,161317,1,0,0:0:0:0:
192,192,161317,1,2,0:0:0:0:
192,192,161557,128,0,161797:0:0:0:0:
64,192,161677,1,0,0:0:0:0:
448,192,161797,1,8,0:0:0:0:
320,192,161797,1,0,0:0:0:0:
192,192,161917,1,0,0:0:0:0:
64,192,162037,128,0,162277:0:0:0:0:
320,192,162157,1,0,0:0:0:0:
448,192,162277,128,0,162757:0:0:0:0:
192,192,162277,128,2,162517:0:0:0:0:
64,192,162517,128,0,162637:0:0:0:0:
192,192,162637,1,0,0:0:0:0:
64,192,162757,128,0,162877:0:0:0:0:
320,192,162757,128,8,162997:0:0:0:0:
192,192,162997,128,0,163237:0:0:0:0:
320,192,163117,1,0,0:0:0:0:
64,192,163237,1,2,0:0:0:0:
448,192,163237,1,0,0:0:0:0:
320,192,163477,128,0,163717:0:0:0:0:
448,192,163597,1,0,0:0:0:0:
192,192,163717,1,0,0:0:0:0:
64,192,163717,1,8,0:0:0:0:
64,192,163957,128,0,164197:0:0:0:0:
320,192,164077,1,0,0:0:0:0:
192,192,164197,128,2,164437:0:0:0:0:
448,192,164197,128,4,164677:0:0:0:0:
64,192,164437,128,0,164557:0:0:0:0:
192,192,164557,1,0,0:0:0:0:
320,192,164677,128,0,164797:0:0:0:0:
64,192,164677,128,8,164917:0:0:0:0:
320,192,164917,128,0,165157:0:0:0:0:
192,192,165037,1,0,0:0:0:0:
64,192,165157,1,0,0:0:0:0:
448,192,165157,1,2,0:0:0:0:
448,192,165397,128,0,165637:0:0:0:0:
64,192,165517,1,0,0:0:0:0:
320,192,165637,1,0,0:0:0:0:
192,192,165637,1,8,0:0:0:0:
448,192,165757,1,0,0:0:0:0:
192,192,165877,128,0,166117:0:0:0:0:
448,192,165997,1,0,0:0:0:0:
320,192,166117,128,0,166357:0:0:0:0:
64,192,166117,128,2,166597:0:0:0:0:
448,192,166357,128,0,166477:0:0:0:0:
320,192,166477,1,0,0:0:0:0:
192,192,166597,128,0,166837:0:0:0:0:
448,192,166597,128,8,166717:0:0:0:0:
320,192,166837,128,0,167077:0:0:0:0:
448,192,166957,1,0,0:0:0:0:
64,192,167077,1,2,0:0:0:0:
192,192,167077,1,0,0:0:0:0:
192,192,167317,128,0,167557:0:0:0:0:
448,192,167437,1,0,0:0:0:0:
320,192,167557,1,8,0:0:0:0:
64,192,167557,1,0,0:0:0:0:
448,192,167677,1,0,0:0:0:0:
64,192,167797,128,0,168037:0:0:0:0:
320,192,167917,1,0,0:0:0:0:
448,192,168037,128,4,168517:0:0:0:0:
192,192,168037,128,0,168277:0:0:0:0:
320,192,168277,128,0,168397:0:0:0:0:
64,192,168397,1,0,0:0:0:0:
320,192,168517,128,8,168757:0:0:0:0:
192,192,168517,128,0,168637:0:0:0:0:
64,192,168757,128,0,168997:0:0:0:0:
192,192,168877,1,0,0:0:0:0:
448,192,168997,1,0,0:0:0:0:
192,192,169237,128,0,169477:0:0:0:0:
448,192,169357,1,0,0:0:0:0:
320,192,169477,1,8,0:0:0:0:
64,192,169477,1,0,0:0:0:0:
192,192,169597,1,0,0:0:0:0:
320,192,169717,128,0,169957:0:0:0:0:
448,192,169837,1,0,0:0:0:0:
192,192,169957,1,0,0:0:0:0:
64,192,169957,1,2,0:0:0:0:
448,192,170077,1,0,0:0:0:0:
192,192,170077,1,8,0:0:0:0:
448,192,170317,1,0,0:0:0:0:
320,192,170317,1,2,0:0:0:0:
320,192,170437,1,0,0:0:0:0:
64,192,170437,1,8,0:0:0:0:
64,192,170677,1,0,0:0:0:0:
192,192,170677,1,8,0:0:0:0:
64,192,170797,1,0,0:0:0:0:
192,192,170797,1,8,0:0:0:0:
448,192,170917,1,0,0:0:0:0:
192,192,171037,1,0,0:0:0:0:
320,192,171157,1,0,0:0:0:0:
448,192,171157,1,0,0:0:0:0:
64,192,171277,1,0,0:0:0:0:
320,192,171397,1,0,0:0:0:0:
64,192,171517,1,0,0:0:0:0:
448,192,171637,1,0,0:0:0:0:
192,192,171757,1,0,0:0:0:0:
448,192,171877,128,0,173797:0:0:0:0:
64,192,172357,1,0,0:0:0:0:
320,192,172837,1,0,0:0:0:0:
64,192,173077,1,0,0:0:0:0:
192,192,173317,1,0,0:0:0:0:
320,192,173557,1,0,0:0:0:0:
192,192,173797,128,0,175717:0:0:0:0:
64,192,174277,1,0,0:0:0:0:
448,192,174517,1,0,0:0:0:0:
320,192,175237,1,0,0:0:0:0:
448,192,175477,1,0,0:0:0:0:
64,192,175717,128,0,177637:0:0:0:0:
320,192,176677,1,0,0:0:0:0:
192,192,177157,1,0,0:0:0:0:
448,192,177397,1,0,0:0:0:0:
320,192,177637,128,0,179557:0:0:0:0:
192,192,179557,128,0,181477:0:0:0:0:
64,192,180037,1,0,0:0:0:0:
448,192,180517,1,0,0:0:0:0:
320,192,180757,1,0,0:0:0:0:
64,192,180997,1,0,0:0:0:0:
448,192,181237,1,0,0:0:0:0:
64,192,181477,128,0,183397:0:0:0:0:
320,192,182197,1,0,0:0:0:0:
192,192,182917,1,0,0:0:0:0:
448,192,183397,128,0,185077:0:0:0:0:
192,192,184357,128,0,186757:0:0:0:0:
320,192,185077,128,0,186757:0:0:0:0:
64,192,186757,1,0,0:0:0:70:clap.wav
192,192,187237,128,0,187477:0:0:0:0:
192,192,187717,128,0,188197:0:0:0:0:
448,192,187717,1,0,0:0:0:70:clap.wav
320,192,187957,128,0,188197:0:0:0:0:
64,192,188197,128,0,188437:0:0:0:0:
320,192,188437,128,0,188677:0:0:0:0:
192,192,188677,128,0,188917:0:0:0:70:clap.wav
448,192,188677,1,0,0:0:0:0:
64,192,188917,128,0,189637:0:0:0:0:
320,192,189157,128,0,189397:0:0:0:0:
192,192,189397,128,0,189637:0:0:0:0:
320,192,189637,1,0,0:0:0:0:
448,192,189637,128,0,189877:0:0:0:70:clap.wav
320,192,189877,128,0,190117:0:0:0:0:
320,192,190357,128,0,190597:0:0:0:0:
448,192,190597,1,0,0:0:0:0:
64,192,190597,128,0,190837:0:0:0:70:clap.wav
448,192,190837,128,0,191557:0:0:0:0:
320,192,190957,128,0,191317:0:0:0:0:
192,192,191077,128,0,191437:0:0:0:0:
64,192,191317,128,0,191557:0:0:0:0:
192,192,191557,128,0,191797:0:0:0:70:clap.wav
320,192,191557,1,0,0:0:0:0:
448,192,191797,128,0,192277:0:0:0:0:
320,192,192277,128,0,192517:0:0:0:0:
64,192,192517,1,0,0:0:0:70:clap.wav
192,192,192517,1,0,0:0:0:0:
64,192,192757,128,0,193957:0:0:0:0:
320,192,192997,128,0,193357:0:0:0:0:
192,192,193237,128,0,193477:0:0:0:0:
448,192,193477,128,0,193717:0:0:0:70:clap.wav
320,192,193477,1,0,0:0:0:0:
320,192,193717,128,0,193957:0:0:0:0:
320,192,194197,128,0,194437:0:0:0:0:
192,192,194437,128,0,194677:0:0:0:70:clap.wav
448,192,194437,1,0,0:0:0:0:
64,192,194677,128,0,195637:0:0:0:0:
192,192,194797,128,0,195277:0:0:0:0:
320,192,194917,128,0,195397:0:0:0:0:
448,192,195397,128,0,195637:0:0:0:70:clap.wav
192,192,195397,1,0,0:0:0:0:
320,192,195637,128,0,196117:0:0:0:0:
448,192,196117,128,0,196357:0:0:0:0:
192,192,196357,128,0,196597:0:0:0:70:clap.wav
320,192,196357,1,0,0:0:0:0:
320,192,196597,128,0,197317:0:0:0:0:
448,192,196837,128,0,197077:0:0:0:0:
64,192,197077,128,0,197557:0:0:0:0:
448,192,197317,128,0,197797:0:0:0:0:
192,192,197317,1,0,0:0:0:70:clap.wav
320,192,197557,128,0,197797:0:0:0:0:
448,192,198037,128,0,198277:0:0:0:0:
192,192,198277,1,0,0:0:0:0:
64,192,198277,128,0,198757:0:0:0:70:clap.wav
448,192,198517,128,0,198757:0:0:0:0:
192,192,198757,128,0,199237:0:0:0:0:
320,192,198757,128,0,199237:0:0:0:0:
448,192,199237,128,0,199477:0:0:0:70:clap.wav
64,192,199237,1,0,0:0:0:0:
320,192,199477,128,0,199717:0:0:0:0:
64,192,199717,128,0,200437:0:0:0:0:
192,192,199837,128,0,199957:0:0:0:0:
320,192,199957,128,0,200197:0:0:0:0:
192,192,200197,128,0,200437:0:0:0:70:clap.wav
448,192,200197,1,0,0:0:0:0:
448,192,200437,128,0,200677:0:0:0:0:
192,192,200677,1,0,0:0:0:0:
64,192,200677,1,2,0:0:0:0:
448,192,200797,1,8,0:0:0:0:
192,192,200797,1,0,0:0:0:0:
448,192,201037,1,0,0:0:0:0:
320,192,201037,1,2,0:0:0:0:
320,192,201157,1,8,0:0:0:0:
64,192,201157,1,0,0:0:0:0:
448,192,201397,1,0,0:0:0:0:
320,192,201397,1,8,0:0:0:0:
448,192,201517,1,0,0:0:0:0:
320,192,201517,1,8,0:0:0:0:
64,192,201637,1,2,0:0:0:0:
192,192,201637,1,0,0:0:0:0:
320,192,201757,1,8,0:0:0:0:
64,192,201757,1,0,0:0:0:0:
320,192,201997,1,2,0:0:0:0:
64,192,201997,1,0,0:0:0:0:
320,192,202117,1,8,0:0:0:0:
448,192,202117,1,0,0:0:0:0:
192,192,202237,1,8,0:0:0:0:
64,192,202237,1,0,0:0:0:0:
320,192,202357,1,8,0:0:0:0:
448,192,202357,1,0,0:0:0:0:
192,192,202477,1,8,0:0:0:0:
64,192,202477,1,0,0:0:0:0:
192,192,202597,128,0,203077:0:0:0:0:
320,192,202597,1,8,0:0:0:0:
320,192,203077,128,0,203317:0:0:0:0:
64,192,203077,1,8,0:0:0:0:
448,192,203317,128,0,203557:0:0:0:0:
192,192,203557,1,0,0:0:0:0:
320,192,203557,1,8,0:0:0:0:
320,192,203797,128,0,204037:0:0:0:0:
64,192,204037,1,8,0:0:0:0:
448,192,204037,1,0,0:0:0:0:
64,192,204277,128,0,204517:0:0:0:0:
448,192,204517,128,8,204997:0:0:0:0:
192,192,204517,1,0,0:0:0:0:
320,192,204997,128,0,205237:0:0:0:0:
64,192,204997,1,8,0:0:0:0:
192,192,205237,128,0,205477:0:0:0:0:
64,192,205477,1,8,0:0:0:0:
448,192,205477,1,0,0:0:0:0:
320,192,205717,128,0,205957:0:0:0:0:
448,192,205957,1,8,0:0:0:0:
192,192,205957,1,0,0:0:0:0:
64,192,206197,128,0,206437:0:0:0:0:
320,192,206437,128,8,206917:0:0:0:0:
192,192,206437,1,0,0:0:0:0:
448,192,206917,128,0,207157:0:0:0:0:
64,192,206917,1,8,0:0:0:0:
320,192,207157,128,0,207397:0:0:0:0:
448,192,207397,1,0,0:0:0:0:
192,192,207397,1,8,0:0:0:0:
192,192,207637,128,0,207877:0:0:0:0:
448,192,207877,1,8,0:0:0:0:
320,192,207877,1,0,0:0:0:0:
64,192,208117,128,0,208357:0:0:0:0:
448,192,208357,128,0,208837:0:0:0:0:
192,192,208357,1,8,0:0:0:0:
320,192,208837,128,8,209077:0:0:0:0:
64,192,208837,1,0,0:0:0:0:
192,192,209077,128,0,209317:0:0:0:0:
64,192,209317,1,0,0:0:0:0:
448,192,209317,1,8,0:0:0:0:
320,192,209557,128,0,209797:0:0:0:0:
64,192,209797,1,0,0:0:0:0:
192,192,209797,1,8,0:0:0:0:
192,192,210037,128,0,210277:0:0:0:0:
448,192,210277,128,8,210757:0:0:0:0:
64,192,210277,1,0,0:0:0:0:
64,192,210517,1,0,0:0:0:0:
192,192,210517,1,8,0:0:0:0:
64,192,210757,128,8,210997:0:0:0:0:
320,192,210757,1,0,0:0:0:0:
320,192,210997,128,8,211237:0:0:0:0:
448,192,210997,1,0,0:0:0:0:
64,192,211237,1,0,0:0:0:0:
192,192,211237,1,8,0:0:0:0:
448,192,211477,128,8,211717:0:0:0:0:
64,192,211477,1,0,0:0:0:0:
320,192,211717,1,0,0:0:0:0:
192,192,211717,1,8,0:0:0:0:
64,192,211957,128,8,212197:0:0:0:0:
320,192,211957,1,0,0:0:0:0:
448,192,212197,128,8,212677:0:0:0:0:
192,192,212197,1,0,0:0:0:0:
64,192,212437,1,0,0:0:0:0:
192,192,212437,1,8,0:0:0:0:
320,192,212677,128,8,212917:0:0:0:0:
64,192,212677,1,0,0:0:0:0:
192,192,212917,128,8,213157:0:0:0:0:
448,192,212917,1,0,0:0:0:0:
448,192,213157,1,0,0:0:0:0:
320,192,213157,1,8,0:0:0:0:
448,192,213397,128,8,213637:0:0:0:0:
192,192,213397,1,0,0:0:0:0:
64,192,213637,1,0,0:0:0:0:
320,192,213637,1,8,0:0:0:0:
320,192,213877,128,8,214117:0:0:0:0:
192,192,213877,1,0,0:0:0:0:
64,192,214117,128,8,214357:0:0:0:0:
448,192,214117,1,0,0:0:0:0:
192,192,214237,1,8,0:0:0:0:
320,192,214357,1,0,0:0:0:0:
448,192,214357,1,8,0:0:0:0:
64,192,214477,1,8,0:0:0:0:
192,192,214597,128,8,214837:0:0:0:0:
320,192,214597,1,0,0:0:0:0:
448,192,214717,1,8,0:0:0:0:
320,192,214837,128,8,215077:0:0:0:0:
64,192,214837,1,0,0:0:0:0:
448,192,214957,1,8,0:0:0:0:
192,192,215077,1,8,0:0:0:0:
64,192,215077,1,0,0:0:0:0:
320,192,215197,1,8,0:0:0:0:
448,192,215317,128,0,215557:0:0:0:0:
64,192,215317,1,8,0:0:0:0:
320,192,215437,1,8,0:0:0:0:
192,192,215557,1,8,0:0:0:0:
64,192,215557,1,0,0:0:0:0:
320,192,215677,1,8,0:0:0:0:
448,192,215797,1,0,0:0:0:0:
192,192,215797,128,8,216037:0:0:0:0:
64,192,215917,1,8,0:0:0:0:
448,192,216037,1,8,0:0:0:0:
320,192,216277,128,0,216397:0:0:0:0:
64,192,216517,128,0,216757:0:0:0:0:
192,192,216637,128,0,216757:0:0:0:0:
64,192,216997,128,0,217237:0:0:0:0:
320,192,216997,1,2,0:0:0:0:
320,192,217117,1,0,0:0:0:0:
448,192,217117,128,8,217237:0:0:0:0:
192,192,217357,1,2,0:0:0:0:
448,192,217357,1,0,0:0:0:0:
64,192,217477,1,0,0:0:0:0:
192,192,217477,128,8,217597:0:0:0:0:
320,192,217597,1,8,0:0:0:0:
448,192,217597,1,0,0:0:0:0:
64,192,217717,1,0,0:0:0:0:
192,192,217717,1,8,0:0:0:0:
448,192,217837,1,0,0:0:0:0:
320,192,217837,128,8,217957:0:0:0:0:
192,192,217957,128,0,218437:0:0:0:0:
320,192,218437,128,4,219157:0:0:0:0:
64,192,218437,128,8,218797:0:0:0:0:
448,192,218677,128,0,218797:0:0:0:0:
192,192,218797,1,0,0:0:0:0:
64,192,218917,128,2,219637:0:0:0:0:
448,192,218917,128,0,219277:0:0:0:0:
192,192,219157,128,0,219277:0:0:0:0:
320,192,219277,1,0,0:0:0:0:
192,192,219397,128,0,219757:0:0:0:0:
448,192,219397,128,8,219757:0:0:0:0:
320,192,219637,128,0,219877:0:0:0:0:
64,192,219757,1,0,0:0:0:0:
192,192,219877,128,2,220117:0:0:0:0:
448,192,219877,128,0,220837:0:0:0:0:
64,192,220117,128,0,220237:0:0:0:0:
192,192,220237,1,0,0:0:0:0:
64,192,220357,128,8,220597:0:0:0:0:
320,192,220357,1,0,0:0:0:0:
320,192,220597,128,0,220717:0:0:0:0:
192,192,220717,1,0,0:0:0:0:
64,192,220837,128,0,221557:0:0:0:0:
320,192,220837,128,2,221077:0:0:0:0:
448,192,221077,128,0,221197:0:0:0:0:
320,192,221197,1,0,0:0:0:0:
448,192,221317,128,0,221677:0:0:0:0:
192,192,221317,128,8,222037:0:0:0:0:
320,192,221557,128,0,221677:0:0:0:0:
64,192,221677,1,0,0:0:0:0:
320,192,221797,128,2,222157:0:0:0:0:
448,192,221797,128,0,222517:0:0:0:0:
64,192,222037,128,0,222157:0:0:0:0:
192,192,222157,1,0,0:0:0:0:
320,192,222277,128,0,222637:0:0:0:0:
64,192,222277,128,8,222637:0:0:0:0:
192,192,222517,128,0,222757:0:0:0:0:
448,192,222637,1,0,0:0:0:0:
320,192,222757,1,2,0:0:0:0:
64,192,222757,128,0,223717:0:0:0:0:
320,192,222997,128,0,223117:0:0:0:0:
448,192,223117,1,0,0:0:0:0:
192,192,223237,1,0,0:0:0:0:
320,192,223237,1,8,0:0:0:0:
192,192,223477,128,0,223597:0:0:0:0:
320,192,223597,1,0,0:0:0:0:
448,192,223717,128,2,223957:0:0:0:0:
192,192,223717,1,0,0:0:0:0:
64,192,223957,128,0,224077:0:0:0:0:
320,192,224077,1,0,0:0:0:0:
448,192,224197,128,0,224797:0:0:0:0:
192,192,224197,128,8,224437:0:0:0:0:
64,192,224437,128,0,224677:0:0:0:0:
320,192,224677,128,2,225037:0:0:0:0:
192,192,224677,128,0,225397:0:0:0:0:
448,192,224917,1,0,0:0:0:0:
64,192,225037,1,0,0:0:0:0:
320,192,225157,128,8,225277:0:0:0:0:
448,192,225157,128,0,225637:0:0:0:0:
64,192,225277,1,0,0:0:0:0:
320,192,225397,1,0,0:0:0:0:
192,192,225517,1,0,0:0:0:0:
64,192,225637,128,2,225877:0:0:0:0:
320,192,225637,128,4,226357:0:0:0:0:
192,192,225877,128,0,225997:0:0:0:0:
64,192,225997,1,0,0:0:0:0:
192,192,226117,128,8,226837:0:0:0:0:
448,192,226117,128,0,226477:0:0:0:0:
64,192,226357,128,0,226477:0:0:0:0:
320,192,226477,1,0,0:0:0:0:
448,192,226597,128,0,227317:0:0:0:0:
64,192,226597,128,2,226957:0:0:0:0:
320,192,226837,128,0,226957:0:0:0:0:
192,192,226957,1,0,0:0:0:0:
320,192,227077,128,8,227437:0:0:0:0:
64,192,227077,128,0,227437:0:0:0:0:
192,192,227317,128,0,227557:0:0:0:0:
448,192,227437,1,0,0:0:0:0:
320,192,227557,128,0,227797:0:0:0:0:
64,192,227557,128,2,228517:0:0:0:0:
192,192,227797,1,0,0:0:0:0:
320,192,227917,1,0,0:0:0:0:
192,192,228037,128,0,228277:0:0:0:0:
448,192,228037,1,8,0:0:0:0:
448,192,228277,128,0,228397:0:0:0:0:
320,192,228397,1,0,0:0:0:0:
448,192,228517,128,0,229237:0:0:0:0:
192,192,228517,128,2,228757:0:0:0:0:
64,192,228757,128,0,228877:0:0:0:0:
192,192,228877,1,0,0:0:0:0:
64,192,228997,128,0,229357:0:0:0:0:
320,192,228997,128,8,229717:0:0:0:0:
192,192,229237,128,0,229357:0:0:0:0:
448,192,229357,1,0,0:0:0:0:
192,192,229477,128,2,229837:0:0:0:0:
64,192,229477,128,0,230197:0:0:0:0:
448,192,229717,128,0,229837:0:0:0:0:
320,192,229837,1,0,0:0:0:0:
192,192,229957,128,0,230317:0:0:0:0:
448,192,229957,128,8,230317:0:0:0:0:
320,192,230197,128,0,230437:0:0:0:0:
64,192,230317,5,0,0:0:0:0:
192,192,230437,1,2,0:0:0:0:
448,192,230437,128,0,231277:0:0:0:0:
192,192,230677,128,0,230797:0:0:0:0:
64,192,230797,1,0,0:0:0:0:
320,192,230917,1,8,0:0:0:0:
192,192,230917,1,0,0:0:0:0:
320,192,231157,128,0,231277:0:0:0:0:
64,192,231277,1,0,0:0:0:0:
192,192,231397,1,2,0:0:0:0:
448,192,231397,128,0,231757:0:0:0:0:
64,192,231517,1,8,0:0:0:0:
192,192,231517,1,0,0:0:0:0:
64,192,231757,1,0,0:0:0:0:
192,192,231757,1,0,0:0:0:0:
448,192,231877,128,0,232237:0:0:0:0:
192,192,231877,1,0,0:0:0:0:
192,192,232117,1,8,0:0:0:0:
64,192,232117,1,0,0:0:0:0:
192,192,232237,1,8,0:0:0:0:
64,192,232237,1,0,0:0:0:0:
448,192,232357,128,2,232717:0:0:0:0:
320,192,232357,128,0,232477:0:0:0:0:
192,192,232477,1,8,0:0:0:0:
64,192,232477,1,0,0:0:0:0:
320,192,232597,128,0,232717:0:0:0:0:
192,192,232717,1,0,0:0:0:0:
64,192,232717,1,2,0:0:0:0:
192,192,232837,128,0,232957:0:0:0:0:
448,192,232837,128,8,233317:0:0:0:0:
320,192,232837,1,0,0:0:0:0:
192,192,233077,128,0,233317:0:0:0:0:
320,192,233317,128,4,233557:0:0:0:0:
64,192,233317,128,2,233797:0:0:0:0:
448,192,233437,128,0,233557:0:0:0:0:
192,192,233557,128,0,233677:0:0:0:0:
448,192,233677,128,0,233797:0:0:0:0:
320,192,233797,128,0,233917:0:0:0:0:
192,192,233797,128,8,234037:0:0:0:0:
448,192,234037,128,0,234277:0:0:0:0:
64,192,234037,128,0,234157:0:0:0:0:
192,192,234157,128,0,234277:0:0:0:0:
64,192,234277,1,2,0:0:0:0:
320,192,234277,128,0,234517:0:0:0:0:
192,192,234397,128,0,234517:0:0:0:0:
64,192,234517,128,0,234757:0:0:0:0:
320,192,234637,128,0,234757:0:0:0:0:
192,192,234757,128,0,234997:0:0:0:0:
448,192,234757,1,8,0:0:0:0:
320,192,234877,128,0,234997:0:0:0:0:
64,192,234997,128,0,235237:0:0:0:0:
448,192,234997,1,0,0:0:0:0:
320,192,235117,128,0,235237:0:0:0:0:
448,192,235237,128,2,235717:0:0:0:0:
192,192,235237,128,0,235477:0:0:0:0:
64,192,235357,128,0,235477:0:0:0:0:
320,192,235477,1,0,0:0:0:0:
192,192,235597,1,0,0:0:0:0:
64,192,235717,128,8,235957:0:0:0:0:
320,192,235717,128,0,235837:0:0:0:0:
448,192,235837,128,0,235957:0:0:0:0:
192,192,235957,128,0,236197:0:0:0:0:
320,192,236077,128,0,236197:0:0:0:0:
64,192,236197,1,0,0:0:0:0:
448,192,236197,128,2,236437:0:0:0:0:
192,192,236317,128,0,236557:0:0:0:0:
320,192,236437,128,0,236677:0:0:0:0:
64,192,236437,128,0,236557:0:0:0:0:
448,192,236557,1,0,0:0:0:0:
192,192,236677,1,0,0:0:0:0:
64,192,236677,128,8,237037:0:0:0:0:
320,192,236797,128,0,237037:0:0:0:0:
192,192,236917,128,0,237157:0:0:0:0:
448,192,237037,128,0,237157:0:0:0:0:
320,192,237157,128,2,237397:0:0:0:0:
64,192,237157,128,4,237637:0:0:0:0:
448,192,237277,128,0,237517:0:0:0:0:
192,192,237397,128,0,237517:0:0:0:0:
320,192,237517,128,0,237637:0:0:0:0:
192,192,237637,128,0,237757:0:0:0:0:
448,192,237637,128,8,237877:0:0:0:0:
64,192,237757,128,0,237877:0:0:0:0:
320,192,237877,128,0,238117:0:0:0:0:
64,192,237997,128,0,238117:0:0:0:0:
448,192,238117,128,0,238357:0:0:0:0:
192,192,238117,128,2,238237:0:0:0:0:
320,192,238237,128,0,238357:0:0:0:0:
192,192,238357,128,0,238597:0:0:0:0:
320,192,238477,128,0,238597:0:0:0:0:
448,192,238597,128,0,238837:0:0:0:0:
64,192,238597,128,8,238717:0:0:0:0:
320,192,238717,128,0,238837:0:0:0:0:
64,192,238837,128,0,239077:0:0:0:0:
448,192,238957,128,0,239077:0:0:0:0:
192,192,239077,128,0,239317:0:0:0:0:
320,192,239077,128,2,239557:0:0:0:0:
64,192,239317,128,0,239437:0:0:0:0:
448,192,239557,128,8,240157:0:0:0:0:
192,192,239557,128,0,239797:0:0:0:0:
64,192,239797,128,0,240037:0:0:0:0:
320,192,240037,128,0,240397:0:0:0:0:
192,192,240037,128,2,240757:0:0:0:0:
448,192,240277,1,0,0:0:0:0:
64,192,240397,1,0,0:0:0:0:
320,192,240517,128,0,240637:0:0:0:0:
448,192,240517,128,8,240997:0:0:0:0:
64,192,240757,128,0,240877:0:0:0:0:
64,192,240997,128,2,241237:0:0:0:0:
320,192,240997,128,4,241717:0:0:0:0:
192,192,241237,128,0,241357:0:0:0:0:
64,192,241357,1,0,0:0:0:0:
192,192,241477,128,0,242197:0:0:0:0:
448,192,241477,128,8,241837:0:0:0:0:
64,192,241717,128,0,241837:0:0:0:0:
320,192,241837,1,0,0:0:0:0:
448,192,241957,128,0,242677:0:0:0:0:
64,192,241957,128,2,242317:0:0:0:0:
320,192,242197,128,0,242317:0:0:0:0:
192,192,242317,1,0,0:0:0:0:
320,192,242437,128,8,242797:0:0:0:0:
64,192,242437,128,0,242797:0:0:0:0:
192,192,242677,128,0,242917:0:0:0:0:
448,192,242797,1,0,0:0:0:0:
320,192,242917,128,0,243157:0:0:0:0:
64,192,242917,128,2,243877:0:0:0:0:
192,192,243157,1,0,0:0:0:0:
320,192,243277,1,0,0:0:0:0:
192,192,243397,128,0,243637:0:0:0:0:
448,192,243397,1,8,0:0:0:0:
448,192,243637,128,0,243757:0:0:0:0:
320,192,243757,1,0,0:0:0:0:
448,192,243877,128,0,244597:0:0:0:0:
192,192,243877,128,2,244117:0:0:0:0:
64,192,244117,128,0,244237:0:0:0:0:
192,192,244237,1,0,0:0:0:0:
64,192,244357,128,0,244717:0:0:0:0:
320,192,244357,128,8,245077:0:0:0:0:
192,192,244597,128,0,244717:0:0:0:0:
448,192,244717,1,0,0:0:0:0:
192,192,244837,128,4,245197:0:0:0:0:
64,192,244837,128,2,245557:0:0:0:0:
448,192,245077,128,0,245197:0:0:0:0:
320,192,245197,1,0,0:0:0:0:
192,192,245317,128,0,245677:0:0:0:0:
448,192,245317,128,8,245677:0:0:0:0:
320,192,245557,128,0,245797:0:0:0:0:
64,192,245677,5,0,0:0:0:0:
448,192,245797,128,0,246637:0:0:0:0:
192,192,245797,128,2,246037:0:0:0:0:
320,192,246037,128,0,246157:0:0:0:0:
64,192,246157,1,0,0:0:0:0:
320,192,246277,1,8,0:0:0:0:
192,192,246277,1,0,0:0:0:0:
320,192,246517,128,0,246637:0:0:0:0:
64,192,246637,1,0,0:0:0:0:
448,192,246757,1,0,0:0:0:0:
320,192,246757,1,2,0:0:0:0:
320,192,246877,1,8,0:0:0:0:
64,192,246877,1,0,0:0:0:0:
192,192,247117,1,2,0:0:0:0:
64,192,247117,1,0,0:0:0:0:
192,192,247237,1,0,0:0:0:0:
448,192,247237,1,8,0:0:0:0:
320,192,247477,1,8,0:0:0:0:
448,192,247477,1,0,0:0:0:0:
320,192,247597,1,8,0:0:0:0:
448,192,247597,1,0,0:0:0:0:
64,192,247717,1,0,0:0:0:0:
320,192,247837,1,0,0:0:0:0:
64,192,247957,1,0,0:0:0:0:
448,192,248077,1,0,0:0:0:0:
64,192,248197,1,8,0:0:0:0:
192,192,248197,1,0,0:0:0:0:
320,192,248317,1,0,0:0:0:0:
64,192,248437,1,0,0:0:0:0:
448,192,248557,1,0,0:0:0:0:
320,192,248677,128,4,248917:0:0:0:0:
64,192,248677,128,2,249157:0:0:0:0:
192,192,248797,1,0,0:0:0:0:
448,192,248917,128,0,249037:0:0:0:0:
320,192,249037,1,0,0:0:0:0:
448,192,249157,128,0,249397:0:0:0:0:
192,192,249157,128,8,249277:0:0:0:0:
64,192,249277,1,0,0:0:0:0:
320,192,249397,128,0,249637:0:0:0:0:
64,192,249517,1,0,0:0:0:0:
192,192,249637,1,2,0:0:0:0:
448,192,249637,1,0,0:0:0:0:
320,192,249757,1,0,0:0:0:0:
192,192,249877,128,0,250117:0:0:0:0:
320,192,249997,1,0,0:0:0:0:
64,192,250117,1,0,0:0:0:0:
448,192,250117,1,8,0:0:0:0:
320,192,250237,1,0,0:0:0:0:
64,192,250357,128,0,250597:0:0:0:0:
320,192,250477,1,0,0:0:0:0:
448,192,250597,128,0,251077:0:0:0:0:
192,192,250597,128,2,250837:0:0:0:0:
64,192,250717,1,0,0:0:0:0:
320,192,250837,128,0,250957:0:0:0:0:
192,192,250957,1,0,0:0:0:0:
64,192,251077,128,0,251317:0:0:0:0:
320,192,251077,128,8,251197:0:0:0:0:
448,192,251197,1,0,0:0:0:0:
192,192,251317,128,0,251557:0:0:0:0:
320,192,251437,1,0,0:0:0:0:
64,192,251557,1,2,0:0:0:0:
448,192,251557,1,0,0:0:0:0:
192,192,251677,1,0,0:0:0:0:
64,192,251797,128,0,252037:0:0:0:0:
320,192,251917,1,0,0:0:0:0:
448,192,252037,1,8,0:0:0:0:
192,192,252037,1,0,0:0:0:0:
64,192,252157,1,0,0:0:0:0:
448,192,252277,128,0,252517:0:0:0:0:
192,192,252397,1,0,0:0:0:0:
64,192,252517,128,2,252757:0:0:0:0:
320,192,252517,128,4,252997:0:0:0:0:
448,192,252637,1,0,0:0:0:0:
192,192,252757,128,0,252877:0:0:0:0:
64,192,252877,1,0,0:0:0:0:
448,192,252997,128,8,253117:0:0:0:0:
192,192,252997,128,0,253237:0:0:0:0:
64,192,253117,1,0,0:0:0:0:
320,192,253237,128,0,253477:0:0:0:0:
448,192,253357,1,0,0:0:0:0:
64,192,253477,1,0,0:0:0:0:
192,192,253477,1,2,0:0:0:0:
320,192,253597,1,0,0:0:0:0:
192,192,253717,128,0,253957:0:0:0:0:
64,192,253837,1,0,0:0:0:0:
448,192,253957,1,8,0:0:0:0:
320,192,253957,1,0,0:0:0:0:
192,192,254077,1,0,0:0:0:0:
64,192,254197,128,0,254437:0:0:0:0:
320,192,254317,1,0,0:0:0:0:
448,192,254437,128,0,254917:0:0:0:0:
192,192,254437,128,2,254677:0:0:0:0:
320,192,254557,1,0,0:0:0:0:
64,192,254677,128,0,254797:0:0:0:0:
192,192,254797,1,0,0:0:0:0:
64,192,254917,128,0,255037:0:0:0:0:
320,192,254917,128,8,255157:0:0:0:0:
448,192,255037,1,0,0:0:0:0:
192,192,255157,128,0,255397:0:0:0:0:
64,192,255277,1,0,0:0:0:0:
320,192,255397,1,2,0:0:0:0:
448,192,255397,1,0,0:0:0:0:
192,192,255517,1,0,0:0:0:0:
320,192,255637,128,0,255877:0:0:0:0:
64,192,255757,1,0,0:0:0:0:
448,192,255877,1,8,0:0:0:0:
192,192,255877,1,0,0:0:0:0:
320,192,255997,1,0,0:0:0:0:
64,192,256117,128,0,256357:0:0:0:0:
320,192,256237,1,0,0:0:0:0:
448,192,256357,128,4,256837:0:0:0:0:
192,192,256357,128,0,256597:0:0:0:0:
64,192,256477,1,0,0:0:0:0:
320,192,256597,128,0,256717:0:0:0:0:
192,192,256717,1,0,0:0:0:0:
320,192,256837,128,0,256957:0:0:0:0:
64,192,256837,128,8,257077:0:0:0:0:
448,192,256957,1,0,0:0:0:0:
192,192,257077,128,0,257317:0:0:0:0:
320,192,257197,1,0,0:0:0:0:
448,192,257317,1,0,0:0:0:0:
64,192,257437,1,0,0:0:0:0:
448,192,257557,128,0,257797:0:0:0:0:
64,192,257677,1,0,0:0:0:0:
320,192,257797,1,8,0:0:0:0:
192,192,257797,1,0,0:0:0:0:
448,192,257917,1,0,0:0:0:0:
192,192,258037,128,0,258277:0:0:0:0:
64,192,258157,1,0,0:0:0:0:
448,192,258277,128,0,258757:0:0:0:0:
320,192,258397,1,0,0:0:0:0:
64,192,258517,128,0,258637:0:0:0:0:
192,192,258637,1,0,0:0:0:0:
320,192,258757,128,0,258997:0:0:0:0:
64,192,258757,128,8,258877:0:0:0:0:
448,192,258877,1,0,0:0:0:0:
192,192,258997,128,0,259237:0:0:0:0:
64,192,259117,1,0,0:0:0:0:
320,192,259237,1,0,0:0:0:0:
448,192,259357,1,0,0:0:0:0:
320,192,259477,128,0,259717:0:0:0:0:
192,192,259597,1,0,0:0:0:0:
448,192,259717,1,0,0:0:0:0:
64,192,259717,1,8,0:0:0:0:
320,192,259837,1,0,0:0:0:0:
192,192,259957,128,0,260197:0:0:0:0:
320,192,260077,1,0,0:0:0:0:
64,192,260197,128,0,260677:0:0:0:0:
448,192,260197,128,4,260437:0:0:0:0:
320,192,260317,1,0,0:0:0:0:
192,192,260437,128,0,260557:0:0:0:0:
448,192,260557,1,0,0:0:0:0:
192,192,260677,128,8,260917:0:0:0:0:
320,192,260677,128,0,260797:0:0:0:0:
64,192,260797,1,0,0:0:0:0:
448,192,260917,128,0,261157:0:0:0:0:
320,192,261037,1,0,0:0:0:0:
64,192,261157,1,0,0:0:0:0:
448,192,261277,1,0,0:0:0:0:
320,192,261397,128,0,261637:0:0:0:0:
192,192,261517,1,0,0:0:0:0:
64,192,261637,1,0,0:0:0:0:
448,192,261637,1,8,0:0:0:0:
320,192,261757,1,0,0:0:0:0:
64,192,261877,128,0,262117:0:0:0:0:
320,192,261997,1,0,0:0:0:0:
192,192,262117,1,2,0:0:0:0:
448,192,262117,128,0,262477:0:0:0:0:
192,192,262237,1,8,0:0:0:0:
64,192,262237,1,0,0:0:0:0:
64,192,262477,1,0,0:0:0:0:
320,192,262477,1,2,0:0:0:0:
320,192,262597,1,8,0:0:0:0:
448,192,262597,128,0,262957:0:0:0:0:
64,192,262837,1,0,0:0:0:0:
192,192,262837,1,8,0:0:0:0:
192,192,262957,1,8,0:0:0:0:
64,192,262957,1,0,0:0:0:0:
320,192,263077,1,2,0:0:0:0:
448,192,263077,128,0,263437:0:0:0:0:
64,192,263197,1,0,0:0:0:0:
192,192,263197,1,8,0:0:0:0:
192,192,263437,1,2,0:0:0:0:
320,192,263437,1,0,0:0:0:0:
64,192,263557,1,0,0:0:0:0:
448,192,263557,1,8,0:0:0:0:
320,192,263557,1,0,0:0:0:0:
320,192,264037,128,2,264397:0:0:0:0:
448,192,264037,1,4,0:0:0:0:
64,192,264157,128,0,264277:0:0:0:0:
192,192,264277,1,0,0:0:0:0:
448,192,264517,1,0,0:0:0:0:
192,192,264517,128,0,264757:0:0:0:70:clap.wav
320,192,264597,128,0,264757:0:0:0:0:
64,192,264757,1,0,0:0:0:0:
448,192,264997,1,0,0:0:0:0:
320,192,264997,1,2,0:0:0:0:
448,192,265237,128,0,265477:0:0:0:0:
320,192,265357,128,0,265477:0:0:0:0:
192,192,265477,1,0,0:0:0:0:
64,192,265477,128,0,265837:0:0:0:70:clap.wav
448,192,265597,128,0,265717:0:0:0:0:
192,192,265717,1,0,0:0:0:0:
320,192,265837,1,0,0:0:0:0:
64,192,265957,1,0,0:0:0:0:
192,192,265957,128,2,266317:0:0:0:0:
448,192,266077,128,0,266197:0:0:0:0:
320,192,266197,1,0,0:0:0:0:
320,192,266437,128,0,266677:0:0:0:70:clap.wav
64,192,266437,1,0,0:0:0:0:
192,192,266517,128,0,266677:0:0:0:0:
448,192,266677,1,0,0:0:0:0:
64,192,266917,1,2,0:0:0:0:
320,192,266917,1,0,0:0:0:0:
192,192,267157,128,0,267397:0:0:0:0:
320,192,267277,128,0,267397:0:0:0:0:
448,192,267397,128,0,267757:0:0:0:70:clap.wav
64,192,267397,1,0,0:0:0:0:
192,192,267637,128,0,267877:0:0:0:0:
64,192,267757,128,0,267997:0:0:0:0:
320,192,267877,1,2,0:0:0:0:
448,192,267877,1,0,0:0:0:0:
448,192,268117,1,0,0:0:0:0:
320,192,268357,128,0,268597:0:0:0:70:clap.wav
64,192,268357,1,0,0:0:0:0:
192,192,268437,128,0,268597:0:0:0:0:
448,192,268597,1,0,0:0:0:0:
320,192,268837,1,0,0:0:0:0:
64,192,268837,1,2,0:0:0:0:
448,192,269077,128,0,269317:0:0:0:0:
192,192,269197,128,0,269317:0:0:0:0:
320,192,269317,1,0,0:0:0:70:clap.wav
64,192,269317,128,0,269677:0:0:0:0:
448,192,269437,128,0,269557:0:0:0:0:
320,192,269557,1,0,0:0:0:0:
192,192,269677,1,0,0:0:0:0:
448,192,269797,128,2,270157:0:0:0:0:
320,192,269797,1,0,0:0:0:0:
64,192,269917,128,0,270037:0:0:0:0:
192,192,270037,1,0,0:0:0:0:
192,192,270277,128,0,270517:0:0:0:70:clap.wav
64,192,270277,1,0,0:0:0:0:
320,192,270357,128,0,270517:0:0:0:0:
448,192,270517,1,0,0:0:0:0:
320,192,270757,1,0,0:0:0:0:
448,192,270757,1,2,0:0:0:0:
64,192,270997,128,0,271237:0:0:0:0:
320,192,271117,128,0,271237:0:0:0:0:
192,192,271237,128,0,271357:0:0:0:70:clap.wav
448,192,271237,128,0,271477:0:0:0:0:
64,192,271477,128,0,271717:0:0:0:0:
192,192,271477,1,0,0:0:0:0:
320,192,271597,128,0,271717:0:0:0:0:
192,192,271717,1,4,0:0:0:0:
448,192,271717,128,2,272077:0:0:0:0:
64,192,271837,128,0,271957:0:0:0:0:
192,192,271957,1,0,0:0:0:0:
64,192,272197,1,0,0:0:0:0:
192,192,272197,128,0,272437:0:0:0:70:clap.wav
320,192,272277,128,0,272437:0:0:0:0:
448,192,272437,1,0,0:0:0:0:
192,192,272677,1,2,0:0:0:0:
448,192,272677,1,0,0:0:0:0:
192,192,272917,128,0,273157:0:0:0:0:
320,192,273037,128,0,273157:0:0:0:0:
64,192,273157,1,0,0:0:0:70:clap.wav
448,192,273157,128,0,273517:0:0:0:0:
192,192,273277,128,0,273397:0:0:0:0:
320,192,273397,1,0,0:0:0:0:
192,192,273517,1,0,0:0:0:0:
64,192,273637,128,0,273997:0:0:0:0:
448,192,273637,1,2,0:0:0:0:
320,192,273757,128,0,273877:0:0:0:0:
448,192,273877,1,0,0:0:0:0:
448,192,274117,1,0,0:0:0:0:
320,192,274117,128,0,274357:0:0:0:70:clap.wav
192,192,274197,128,0,274357:0:0:0:0:
64,192,274357,1,0,0:0:0:0:
64,192,274597,1,2,0:0:0:0:
320,192,274597,1,0,0:0:0:0:
64,192,274837,128,0,275077:0:0:0:0:
192,192,274957,128,0,275077:0:0:0:0:
320,192,275077,1,0,0:0:0:0:
448,192,275077,128,0,275317:0:0:0:70:clap.wav
64,192,275197,128,0,275317:0:0:0:0:
320,192,275317,1,0,0:0:0:0:
192,192,275557,1,2,0:0:0:0:
320,192,275557,128,0,275797:0:0:0:0:
64,192,275677,128,0,275797:0:0:0:0:
448,192,275797,1,0,0:0:0:0:
448,192,276037,1,0,0:0:0:70:clap.wav
192,192,276037,128,0,276277:0:0:0:0:
320,192,276117,128,0,276277:0:0:0:0:
64,192,276277,1,0,0:0:0:0:
64,192,276517,1,2,0:0:0:0:
192,192,276517,1,0,0:0:0:0:
320,192,276757,128,0,276997:0:0:0:0:
192,192,276877,128,0,276997:0:0:0:0:
448,192,276997,1,0,0:0:0:70:clap.wav
64,192,276997,128,0,277237:0:0:0:0:
320,192,277117,128,0,277237:0:0:0:0:
192,192,277237,1,0,0:0:0:0:
448,192,277357,1,0,0:0:0:0:
320,192,277477,1,0,0:0:0:0:
192,192,277477,128,2,277717:0:0:0:0:
448,192,277597,128,0,277717:0:0:0:0:
64,192,277717,1,0,0:0:0:0:
64,192,277957,1,0,0:0:0:0:
320,192,277957,128,0,278197:0:0:0:70:clap.wav
192,192,278037,128,0,278197:0:0:0:0:
448,192,278197,1,0,0:0:0:0:
192,192,278437,1,0,0:0:0:0:
64,192,278437,1,2,0:0:0:0:
448,192,278677,128,0,278917:0:0:0:0:
192,192,278797,128,0,278917:0:0:0:0:
64,192,278917,128,0,279277:0:0:0:0:
320,192,278917,128,0,279037:0:0:0:70:clap.wav
192,192,279157,128,0,279277:0:0:0:0:
448,192,279277,128,0,279397:0:0:0:0:
320,192,279397,128,2,279757:0:0:0:0:
192,192,279397,1,4,0:0:0:0:
64,192,279517,128,0,279637:0:0:0:0:
192,192,279637,1,0,0:0:0:0:
448,192,279877,1,0,0:0:0:0:
192,192,279877,128,0,280117:0:0:0:70:clap.wav
320,192,279957,128,0,280117:0:0:0:0:
64,192,280117,1,0,0:0:0:0:
448,192,280357,1,0,0:0:0:0:
320,192,280357,1,2,0:0:0:0:
448,192,280597,128,0,280837:0:0:0:0:
320,192,280717,128,0,280837:0:0:0:0:
192,192,280837,1,0,0:0:0:0:
64,192,280837,128,0,281197:0:0:0:70:clap.wav
448,192,280957,128,0,281077:0:0:0:0:
64,192,281317,1,0,0:0:0:0:
192,192,281317,128,2,281677:0:0:0:0:
448,192,281437,128,0,281557:0:0:0:0:
320,192,281797,128,0,282037:0:0:0:70:clap.wav
64,192,281797,1,0,0:0:0:0:
192,192,281877,128,0,282037:0:0:0:0:
448,192,282277,1,2,0:0:0:0:
320,192,282277,1,0,0:0:0:0:
192,192,282517,128,0,282757:0:0:0:0:
320,192,282637,128,0,282757:0:0:0:0:
448,192,282757,128,0,283117:0:0:0:0:
64,192,282757,1,0,0:0:0:70:clap.wav
320,192,282997,128,0,283237:0:0:0:0:
64,192,283117,128,0,283357:0:0:0:0:
192,192,283237,1,2,0:0:0:0:
448,192,283237,1,0,0:0:0:0:
448,192,283717,1,0,0:0:0:70:clap.wav
192,192,283717,128,0,283957:0:0:0:0:
320,192,283797,128,0,283957:0:0:0:0:
448,192,284197,1,0,0:0:0:0:
320,192,284197,1,2,0:0:0:0:
448,192,284437,128,0,284677:0:0:0:0:
192,192,284557,128,0,284677:0:0:0:0:
320,192,284677,1,0,0:0:0:0:
64,192,284677,128,0,285037:0:0:0:70:clap.wav
448,192,284797,128,0,284917:0:0:0:0:
448,192,285157,128,0,285517:0:0:0:0:
320,192,285157,1,2,0:0:0:0:
64,192,285277,128,0,285397:0:0:0:0:
192,192,285637,128,0,285877:0:0:0:70:clap.wav
64,192,285637,1,0,0:0:0:0:
320,192,285717,128,0,285877:0:0:0:0:
320,192,286117,1,2,0:0:0:0:
192,192,286117,1,0,0:0:0:0:
64,192,286357,128,0,286597:0:0:0:0:
320,192,286477,128,0,286597:0:0:0:0:
192,192,286597,128,0,286717:0:0:0:0:
448,192,286597,128,0,286837:0:0:0:70:clap.wav
64,192,286837,128,0,287077:0:0:0:0:
320,192,286957,128,0,287077:0:0:0:0:
192,192,287077,1,2,0:0:0:0:
448,192,287077,128,0,287437:0:0:0:0:
64,192,287197,128,0,287317:0:0:0:0:
192,192,287557,128,0,287797:0:0:0:70:clap.wav
64,192,287557,1,0,0:0:0:0:
320,192,287637,128,0,287797:0:0:0:0:
448,192,288037,1,2,0:0:0:0:
320,192,288037,1,0,0:0:0:0:
320,192,288277,128,0,288517:0:0:0:0:
192,192,288397,128,0,288517:0:0:0:0:
448,192,288517,1,0,0:0:0:0:
64,192,288517,128,0,288877:0:0:0:70:clap.wav
320,192,288637,128,0,288757:0:0:0:0:
448,192,288997,128,2,289357:0:0:0:0:
64,192,288997,1,0,0:0:0:0:
192,192,289117,128,0,289237:0:0:0:0:
64,192,289477,1,0,0:0:0:0:
192,192,289477,128,0,289717:0:0:0:70:clap.wav
320,192,289557,128,0,289717:0:0:0:0:
448,192,289957,1,2,0:0:0:0:
192,192,289957,1,0,0:0:0:0:
448,192,290197,128,0,290437:0:0:0:0:
320,192,290317,128,0,290437:0:0:0:0:
192,192,290437,1,0,0:0:0:0:
64,192,290437,128,0,290677:0:0:0:70:clap.wav
448,192,290557,128,0,290677:0:0:0:0:
320,192,290917,1,0,0:0:0:0:
192,192,290917,128,2,291157:0:0:0:0:
448,192,291037,128,0,291157:0:0:0:0:
64,192,291397,1,0,0:0:0:0:
320,192,291397,128,0,291637:0:0:0:70:clap.wav
192,192,291477,128,0,291637:0:0:0:0:
448,192,291877,1,2,0:0:0:0:
320,192,291877,1,0,0:0:0:0:
192,192,292117,128,0,292357:0:0:0:0:
320,192,292237,128,0,292357:0:0:0:0:
64,192,292357,1,0,0:0:0:70:clap.wav
448,192,292357,128,0,292597:0:0:0:0:
192,192,292477,128,0,292597:0:0:0:0:
192,192,292837,1,0,0:0:0:0:
320,192,292837,128,2,293077:0:0:0:0:
64,192,292957,128,0,293077:0:0:0:0:
448,192,293317,1,0,0:0:0:70:clap.wav
192,192,293317,128,0,293557:0:0:0:0:
320,192,293397,128,0,293557:0:0:0:0:
320,192,293797,1,2,0:0:0:0:
448,192,293797,1,0,0:0:0:0:
64,192,294037,128,0,294277:0:0:0:0:
320,192,294157,128,0,294277:0:0:0:0:
448,192,294277,128,0,294637:0:0:0:70:clap.wav
320,192,294517,128,0,294637:0:0:0:0:
64,192,294637,128,0,294757:0:0:0:0:
192,192,294757,128,0,295117:0:0:0:0:
448,192,294877,128,0,294997:0:0:0:0:
64,192,295237,128,0,295477:0:0:0:0:
320,192,295317,128,0,295477:0:0:0:0:
320,192,295957,128,0,296197:0:0:0:0:
192,192,296077,128,0,296197:0:0:0:0:
64,192,296197,128,0,296557:0:0:0:0:
448,192,296317,128,0,296437:0:0:0:0:
192,192,296677,128,0,297037:0:0:0:0:
448,192,296797,128,0,296917:0:0:0:0:
320,192,297157,128,0,297397:0:0:0:0:
192,192,297237,128,0,297397:0:0:0:0:
192,192,297877,128,0,298117:0:0:0:0:
320,192,297997,128,0,298117:0:0:0:0:
448,192,298117,128,0,298477:0:0:0:0:
320,192,298357,128,0,298597:0:0:0:0:
64,192,298477,128,0,298597:0:0:0:0:
192,192,298597,1,0,0:0:0:0:
320,192,299077,128,0,299317:0:0:0:0:
192,192,299157,128,0,299317:0:0:0:0:
448,192,299797,128,0,300037:0:0:0:0:
192,192,299917,128,0,300037:0:0:0:0:
64,192,300037,128,0,300397:0:0:0:0:
320,192,300157,128,0,300277:0:0:0:0:
448,192,300517,128,0,300877:0:0:0:0:
192,192,300637,128,0,300757:0:0:0:0:
192,192,300997,128,0,301237:0:0:0:0:
320,192,301077,128,0,301237:0:0:0:0:
64,192,301717,128,0,301957:0:0:0:0:
320,192,301837,128,0,301957:0:0:0:0:
192,192,301957,128,0,302077:0:0:0:0:
448,192,301957,128,0,302197:0:0:0:0:
64,192,302197,128,0,302437:0:0:0:0:
320,192,302317,128,0,302437:0:0:0:0:
448,192,302437,128,0,302797:0:0:0:0:
64,192,302557,128,0,302677:0:0:0:0:
192,192,302917,128,0,303157:0:0:0:0:
320,192,302997,128,0,303157:0:0:0:0:
192,192,303637,128,0,303877:0:0:0:0:
320,192,303757,128,0,303877:0:0:0:0:
448,192,303877,128,0,304237:0:0:0:0:
192,192,303997,128,0,304117:0:0:0:0:
64,192,304357,128,0,304717:0:0:0:0:
320,192,304477,128,0,304597:0:0:0:0:
320,192,304837,128,0,305077:0:0:0:0:
192,192,304917,128,0,305077:0:0:0:0:
64,192,305557,128,0,305797:0:0:0:0:
192,192,305677,128,0,305797:0:0:0:0:
448,192,305797,128,0,306157:0:0:0:0:
64,192,305917,128,0,306037:0:0:0:0:
320,192,306037,128,0,306157:0:0:0:0:
192,192,306157,128,0,306277:0:0:0:0:
64,192,306277,1,0,0:0:0:0:
320,192,306757,128,0,306997:0:0:0:0:
192,192,306837,128,0,306997:0:0:0:0:
448,192,307477,128,0,307717:0:0:0:0:
192,192,307597,128,0,307717:0:0:0:0:
64,192,307717,128,0,308077:0:0:0:0:
448,192,307837,128,0,307957:0:0:0:0:
320,192,307957,1,0,0:0:0:0:
448,192,308197,128,0,308557:0:0:0:0:
64,192,308317,128,0,308437:0:0:0:0:
192,192,308677,128,0,308917:0:0:0:0:
320,192,308757,128,0,308917:0:0:0:0:
64,192,309397,128,0,309637:0:0:0:0:
320,192,309517,128,0,309637:0:0:0:0:
192,192,309637,128,0,309757:0:0:0:0:
448,192,309637,128,0,309877:0:0:0:0:
320,192,309757,128,0,309877:0:0:0:0:
64,192,309877,128,0,310117:0:0:0:0:
320,192,309997,128,0,310117:0:0:0:0:
448,192,310117,128,0,310237:0:0:0:0:
