osu file format v14

[General]
AudioFilename: audio.mp3
AudioLeadIn: 0
PreviewTime: 215230
Countdown: 0
SampleSet: Soft
StackLeniency: 0.7
Mode: 2
LetterboxInBreaks: 0
WidescreenStoryboard: 1

[Editor]
Bookmarks: 1990,17350,32710,48070,63430,78790,94150,109510,124870,140230,155590,170950,186310,201670,217030,232390,247750,263110,278470,293830,309190
DistanceSpacing: 1.2
BeatDivisor: 4
GridSize: 4
TimelineZoom: 1.2

[Metadata]
Title:Next To You (Elephante Remix)
TitleUnicode:Next To You (Elephante Remix)
Artist:Oh, Be Clever
ArtistUnicode:Oh, Be Clever
Creator:JBHyperion
Version:Envy
Source:
Tags:WildOne94 JBH progressive house electro edm dance pop Harbor Road Music
BeatmapID:1216211
BeatmapSetID:574216

[Difficulty]
HPDrainRate:7
CircleSize:5
OverallDifficulty:9.2
ApproachRate:9.2
SliderMultiplier:1.8
SliderTickRate:2

[Events]
//Background and Video events
0,0,"Alone-Cityscape-Nightrain-1920x1080.jpg",0,0
//Break Periods
//Storyboard Layer 0 (Background)
//Storyboard Layer 1 (Fail)
//Storyboard Layer 2 (Pass)
//Storyboard Layer 3 (Foreground)
//Storyboard Sound Samples

[TimingPoints]
1990,480,4,2,2,60,1,0
2230,-100,4,2,1,60,0,0
2950,-100,4,2,7,60,0,0
3430,-100,4,2,1,60,0,0
4630,-100,4,2,7,60,0,0
5350,-100,4,2,1,60,0,0
6790,-100,4,2,7,60,0,0
7270,-100,4,2,1,60,0,0
10630,-100,4,2,7,60,0,0
11110,-100,4,2,1,60,0,0
12550,-100,4,2,7,60,0,0
13030,-100,4,2,1,60,0,0
13510,-100,4,2,2,40,0,0
13990,-100,4,2,2,45,0,0
14470,-100,4,2,2,50,0,0
14950,-100,4,2,2,55,0,0
15430,-100,4,2,2,60,0,0
16510,-66.6666666666667,4,2,2,70,0,0
17350,-80,4,2,2,60,0,1
19030,-80,4,2,7,60,0,1
19270,-80,4,2,2,60,0,1
20710,-66.6666666666667,4,2,2,60,0,1
20950,-80,4,2,2,60,0,1
22870,-80,4,2,7,60,0,1
23110,-80,4,2,2,60,0,1
26710,-80,4,2,7,60,0,1
26950,-80,4,2,2,60,0,1
31750,-80,4,3,0,70,0,1
32710,-100,4,2,7,60,0,0
34390,-80,4,2,7,60,0,0
34750,-80,4,2,7,20,0,0
34870,-80,4,2,7,60,0,0
35950,-100,4,2,7,20,0,0
36070,-100,4,2,2,60,0,0
38230,-100,4,2,7,60,0,0
38470,-100,4,2,2,60,0,0
42070,-100,4,2,7,60,0,0
42310,-100,4,2,2,60,0,0
43990,-100,4,2,8,80,0,0
44230,-100,4,2,2,60,0,0
45910,-100,4,2,7,60,0,0
46150,-100,4,2,2,60,0,0
47590,-66.6666666666667,4,2,2,60,0,0
47830,-100,4,2,7,60,0,0
48070,-80,4,2,2,60,0,0
48790,-100,4,2,2,60,0,0
49750,-100,4,2,7,60,0,0
49990,-80,4,2,2,60,0,0
50710,-100,4,2,2,60,0,0
51910,-80,4,2,2,60,0,0
53590,-80,4,2,7,60,0,0
53830,-80,4,2,2,60,0,0
54550,-100,4,2,2,60,0,0
55750,-100,4,2,7,70,0,0
61510,-100,4,2,2,60,0,0
61630,-66.6666666666667,4,2,2,70,0,0
62590,-80,4,2,2,70,0,0
62830,-100,4,2,2,70,0,0
63430,-80,4,2,2,70,0,1
67030,-80,4,2,7,70,0,1
67270,-80,4,2,2,70,0,1
70390,-80,4,2,1,70,0,1
70630,-80,4,2,2,70,0,1
74710,-80,4,2,1,70,0,1
74950,-80,4,2,2,70,0,1
78310,-80,4,2,8,70,0,1
78550,-80,4,2,2,70,0,1
78730,-100,4,2,2,70,0,0
78790,-80,4,2,2,70,0,1
79510,-66.6666666666667,4,2,2,70,0,1
79750,-80,4,2,2,70,0,1
86230,-80,4,2,7,100,0,1
86470,-80,4,2,2,70,0,1
89590,-80,4,2,1,60,0,1
89830,-80,4,2,2,70,0,1
93190,-80,4,3,0,70,0,1
94150,-100,4,2,7,70,0,0
95830,-80,4,2,7,70,0,0
96190,-80,4,2,7,20,0,0
96310,-80,4,2,7,70,0,0
97270,-100,4,2,7,20,0,0
97510,-100,4,2,2,60,0,0
99670,-100,4,2,7,60,0,0
99910,-100,4,2,2,60,0,0
101590,-100,4,2,8,80,0,0
101830,-100,4,2,2,60,0,0
103510,-100,4,2,7,60,0,0
103750,-100,4,2,2,60,0,0
105430,-100,4,2,8,80,0,0
105670,-100,4,2,2,60,0,0
107350,-100,4,2,7,60,0,0
107590,-100,4,2,2,60,0,0
109270,-100,4,2,7,80,0,0
109510,-80,4,2,2,60,0,0
110230,-100,4,2,2,60,0,0
110950,-80,4,2,2,60,0,0
112150,-100,4,2,2,60,0,0
113350,-80,4,2,2,60,0,0
115030,-80,4,2,7,60,0,0
115270,-80,4,2,2,60,0,0
115990,-100,4,2,2,60,0,0
116950,-100,4,2,7,60,0,0
117190,-100,4,2,2,60,0,0
122470,-80,4,2,2,60,0,0
122710,-100,4,2,7,60,0,0
122950,-100,4,2,2,60,0,0
124390,-66.6666666666667,4,2,8,70,0,0
124630,-100,4,2,2,40,0,0
132310,-100,4,2,7,80,0,0
132550,-100,4,2,2,60,0,0
134470,-100,4,2,2,70,0,0
136390,-100,4,2,2,60,0,0
136870,-100,4,2,2,65,0,0
137350,-100,4,2,2,70,0,0
137830,-100,4,2,2,75,0,0
138310,-100,4,2,2,60,0,0
138790,-100,4,2,7,80,0,0
139270,-100,4,2,2,70,0,0
140710,-80,4,2,2,70,0,1
143830,-80,4,2,7,70,0,1
144070,-80,4,2,2,70,0,1
146950,-80,4,2,7,70,0,1
147190,-80,4,2,1,70,0,1
147430,-80,4,2,7,70,0,1
147670,-80,4,2,2,70,0,1
151510,-80,4,2,7,70,0,1
151750,-80,4,2,2,70,0,1
152950,-80,4,2,1,70,0,1
153190,-80,4,2,2,70,0,1
155110,-80,4,2,8,70,0,1
155530,-100,4,2,2,70,0,0
155590,-80,4,2,2,70,0,1
164470,-80,4,2,1,70,0,1
164710,-80,4,2,2,70,0,1
169990,-80,4,3,0,70,0,1
170950,-80,4,3,0,70,0,0
171430,-133.333333333333,4,2,7,60,0,0
184390,-133.333333333333,4,2,7,30,0,0
184630,-133.333333333333,4,2,7,35,0,0
184870,-133.333333333333,4,2,7,40,0,0
185110,-133.333333333333,4,2,7,45,0,0
185350,-133.333333333333,4,2,7,50,0,0
185590,-133.333333333333,4,2,7,55,0,0
185830,-133.333333333333,4,2,10,80,0,0
186310,-100,4,2,1,60,0,0
189910,-66.6666666666667,4,2,1,60,0,0
190390,-100,4,2,1,60,0,0
193750,-66.6666666666667,4,2,1,70,0,0
194230,-100,4,2,1,70,0,0
199750,-100,4,2,2,70,0,0
202150,-100,4,2,2,50,0,0
209350,-100,4,2,2,60,0,0
211270,-100,4,2,2,70,0,0
213190,-100,4,2,2,60,0,0
214630,-66.6666666666667,4,2,2,60,0,0
215110,-100,4,2,2,60,0,0
215590,-100,4,2,7,80,0,0
216070,-100,4,2,2,70,0,0
217510,-80,4,2,2,70,0,1
218710,-80,4,2,7,70,0,1
218950,-80,4,2,2,70,0,1
220630,-80,4,2,1,70,0,1
220870,-80,4,2,2,70,0,1
221590,-80,4,2,1,70,0,1
221830,-80,4,2,2,70,0,1
222550,-80,4,2,7,70,0,1
222790,-80,4,2,2,70,0,1
224470,-80,4,2,7,70,0,1
224710,-80,4,2,2,70,0,1
228310,-80,4,2,1,70,0,1
228550,-80,4,2,2,70,0,1
231550,-57.1428571428571,4,2,2,70,0,1
231670,-80,4,2,2,70,0,1
231910,-80,4,2,8,70,0,1
232330,-100,4,2,2,70,0,0
232390,-80,4,2,2,70,0,1
235990,-80,4,2,7,70,0,1
236230,-80,4,2,2,70,0,1
239830,-80,4,2,1,70,0,1
240070,-80,4,2,2,70,0,1
243670,-80,4,2,7,70,0,1
243910,-80,4,2,1,70,0,1
245830,-80,4,2,2,70,0,1
246790,-80,4,3,0,70,0,1
247690,-100,4,2,2,70,0,0
247750,-80,4,2,2,70,0,1
250390,-80,4,2,1,70,0,1
250630,-80,4,2,2,70,0,1
251350,-80,4,2,1,70,0,1
251590,-80,4,2,2,70,0,1
252790,-80,4,2,1,70,0,1
253030,-80,4,2,2,70,0,1
255190,-80,4,2,1,70,0,1
255430,-80,4,2,2,70,0,1
256150,-80,4,2,1,70,0,1
256390,-80,4,2,2,70,0,1
258430,-80,4,2,1,70,0,1
258790,-80,4,2,2,70,0,1
259030,-80,4,2,1,70,0,1
259270,-80,4,2,2,70,0,1
260230,-80,4,2,1,70,0,1
260470,-80,4,2,2,70,0,1
262630,-66.6666666666667,4,2,8,70,0,1
263110,-66.6666666666667,4,2,2,60,0,0
263350,-100,4,2,1,60,0,0
264550,-80,4,2,7,60,0,0
264910,-100,4,2,1,60,0,0
266710,-100,4,2,7,60,0,0
266950,-100,4,2,1,60,0,0
267910,-100,4,2,7,60,0,0
268390,-100,4,2,1,60,0,0
268630,-100,4,2,7,60,0,0
268870,-100,4,2,1,60,0,0
269830,-100,4,2,7,60,0,0
270070,-100,4,2,1,60,0,0
271750,-100,4,2,7,60,0,0
272230,-100,4,2,1,60,0,0
272470,-100,4,2,7,60,0,0
272710,-100,4,2,1,60,0,0
273670,-100,4,2,7,60,0,0
274150,-100,4,2,1,60,0,0
275590,-100,4,2,7,60,0,0
276070,-100,4,2,1,60,0,0
276310,-100,4,2,7,60,0,0
276550,-100,4,2,1,60,0,0
279190,-100,4,2,7,60,0,0
279430,-100,4,2,1,60,0,0
281350,-100,4,2,7,60,0,0
281830,-100,4,2,1,60,0,0
282070,-100,4,2,7,80,0,0
282310,-100,4,2,1,60,0,0
283270,-100,4,2,7,60,0,0
283750,-100,4,2,1,60,0,0
283990,-100,4,2,7,60,0,0
284230,-100,4,2,1,60,0,0
285910,-100,4,2,7,80,0,0
286150,-100,4,2,1,60,0,0
287230,-100,4,2,7,60,0,0
287590,-100,4,2,1,60,0,0
289630,-100,4,2,7,60,0,0
289990,-100,4,2,1,60,0,0
290950,-100,4,2,7,60,0,0
291430,-100,4,2,1,60,0,0
293350,-100,4,2,8,70,0,0
293830,-100,4,2,7,50,0,0
309430,-100,4,2,1,40,0,0
309670,-100,4,2,1,35,0,0
309910,-100,4,2,1,30,0,0
310150,-100,4,2,1,25,0,0
310390,-100,4,2,1,20,0,0
310630,-100,4,2,1,15,0,0
310870,-100,4,2,1,10,0,0
311110,-100,4,2,1,5,0,0

[Colours]
Combo1 : 30,95,100
Combo2 : 90,75,125
Combo3 : 110,110,110
Combo4 : 50,75,150

[HitObjects]
416,280,1990,6,0,L|432:192,1,90,4|0,0:0|0:0,0:0:0:0:
140,192,2470,1,8,0:0:0:0:
304,192,2710,1,0,0:0:0:0:
354,169,2830,1,0,0:0:0:0:
375,118,2950,1,10,0:0:0:0:
357,66,3070,1,8,0:0:0:0:
309,40,3190,1,8,0:0:0:0:
16,40,3430,2,0,L|112:40,1,90,8|0,0:0|0:0,0:0:0:0:
396,192,3910,6,0,L|488:192,1,90,2|0,0:0|0:0,0:0:0:0:
196,192,4390,1,8,0:0:0:0:
340,276,4630,2,0,L|288:276,1,45,8|8,0:0|0:0,0:0:0:0:
340,276,4870,1,8,0:0:0:0:
399,255,4990,1,8,0:0:0:0:
396,192,5110,1,8,0:0:0:0:
104,192,5350,2,0,L|12:192,1,90,8|0,0:0|0:0,0:0:0:0:
68,124,5710,1,0,0:0:0:0:
268,124,5830,5,2,0:0:0:0:
412,124,6070,2,0,L|356:124,1,45
168,124,6310,1,8,0:0:0:0:
332,48,6550,2,0,L|376:48,1,45
456,48,6790,2,0,L|496:76,1,45,8|8,0:0|0:0,0:0:0:0:
412,124,7030,2,0,L|364:124,1,45,8|8,0:0|0:0,0:0:0:0:
168,124,7270,1,8,0:0:0:0:
96,124,7390,1,0,0:0:0:0:
72,188,7510,1,0,0:0:0:0:
124,236,7630,1,0,0:0:0:0:
324,236,7750,5,2,0:0:0:0:
200,236,7990,2,0,L|155:236,1,45
356,296,8230,1,8,0:0:0:0:
212,356,8470,1,0,0:0:0:0:
264,356,8590,1,0,0:0:0:0:
316,356,8710,1,2,0:0:0:0:
24,356,8950,1,4,0:0:0:0:
316,356,9190,1,8,0:0:0:0:
172,356,9430,1,4,0:0:0:0:
464,272,9670,5,2,0:0:0:0:
320,272,9910,2,0,L|272:272,1,45
72,272,10150,1,8,0:0:0:0:
216,192,10390,2,0,L|256:168,1,45
156,128,10630,2,0,L|108:128,1,45,8|8,0:0|0:0,0:0:0:0:
40,60,10870,2,0,L|88:60,1,45,8|8,0:0|0:0,0:0:0:0:
284,64,11110,1,8,0:0:0:0:
355,81,11230,1,0,0:0:0:0:
407,134,11350,1,2,0:0:0:0:
424,206,11470,1,0,0:0:0:0:
224,208,11590,5,2,0:0:0:0:
368,260,11830,2,0,L|323:260,1,45
124,260,12070,1,8,0:0:0:0:
59,235,12190,1,0,0:0:0:0:
70,167,12310,1,0,0:0:0:0:
139,164,12430,1,0,0:0:0:0:
338,137,12550,1,8,0:0:0:0:
407,134,12670,1,8,0:0:0:0:
418,66,12790,1,8,0:0:0:0:
353,41,12910,1,8,0:0:0:0:
152,40,13030,2,0,L|52:40,1,90,8|2,0:0|0:0,0:0:0:0:
376,192,13510,5,2,0:0:0:0:
204,192,13750,1,2,0:0:0:0:
412,192,13990,1,2,0:0:0:0:
224,192,14230,1,2,0:0:0:0:
36,192,14470,1,2,0:0:0:0:
216,192,14710,1,2,0:0:0:0:
16,192,14950,1,2,0:0:0:0:
196,192,15190,1,2,0:0:0:0:
488,192,15430,6,0,L|460:88,1,90,8|2,0:0|0:0,0:0:0:0:
171,278,15910,2,0,L|195:192,1,90,8|2,0:0|0:0,0:0:0:0:
399,192,16390,1,2,0:0:0:0:
100,192,16510,2,0,P|52:152|100:128,1,135.000005149842,8|2,0:0|0:0,0:0:0:0:
368,128,16870,2,0,L|436:128,1,67.5000025749208,8|8,0:0|0:0,0:0:0:0:
164,127,17110,2,0,L|96:127,1,67.5000025749208,8|8,0:0|0:0,0:0:0:0:
436,192,17350,6,0,B|492:192|492:192|492:256,1,112.5,4|0,0:0|0:0,0:0:0:0:
200,248,17830,1,8,0:0:0:0:
356,248,18070,2,0,P|376:188|352:148,1,112.5,0|2,0:0|0:0,0:0:0:0:
148,148,18550,1,2,0:0:0:0:
440,148,18790,1,8,0:0:0:0:
280,148,19030,2,0,L|319:108,1,56.25,8|8,0:0|0:0,0:0:0:0:
120,108,19270,6,0,L|8:108,1,112.5,2|0,0:0|0:0,0:0:0:0:
300,108,19750,1,8,0:0:0:0:
140,108,19990,1,0,0:0:0:0:
55,130,20110,1,0,0:0:0:0:
12,206,20230,1,2,0:0:0:0:
38,290,20350,1,0,0:0:0:0:
116,329,20470,1,2,0:0:0:0:
199,300,20590,1,0,0:0:0:0:
400,300,20710,2,0,B|480:300|480:300|504:248,1,135.000005149842,8|2,0:0|0:0,0:0:0:0:
436,248,21070,1,2,0:0:0:0:
212,192,21190,6,0,B|100:192,1,112.5,2|0,0:0|0:0,0:0:0:0:
392,192,21670,1,8,0:0:0:0:
232,120,21910,1,0,0:0:0:0:
412,48,22150,1,2,0:0:0:0:
344,48,22270,1,0,0:0:0:0:
276,48,22390,1,2,0:0:0:0:
344,48,22510,1,0,0:0:0:0:
144,48,22630,2,0,L|32:48,1,112.5,8|8,0:0|0:0,0:0:0:0:
100,116,22990,1,8,0:0:0:0:
328,192,23110,6,0,B|440:192,1,112.5,2|0,0:0|0:0,0:0:0:0:
148,192,23590,1,8,0:0:0:0:
308,120,23830,1,0,0:0:0:0:
128,120,24070,1,2,0:0:0:0:
226,120,24190,1,2,0:0:0:0:
324,120,24310,1,2,0:0:0:0:
32,120,24550,1,8,0:0:0:0:
208,192,24790,2,0,L|264:192,1,56.25,2|0,0:0|0:0,0:0:0:0:
64,192,25030,6,0,B|8:192|8:192|8:256,1,112.5,4|0,0:0|0:0,0:0:0:0:
300,248,25510,1,8,0:0:0:0:
140,248,25750,2,0,P|160:192|208:184,1,112.5,0|2,0:0|0:0,0:0:0:0:
48,108,26230,1,2,0:0:0:0:
340,160,26470,1,8,0:0:0:0:
180,92,26710,2,0,L|124:92,1,56.25,8|8,0:0|0:0,0:0:0:0:
348,80,26950,6,0,L|460:80,1,112.5,2|0,0:0|0:0,0:0:0:0:
168,80,27430,1,8,0:0:0:0:
328,80,27670,2,0,L|392:80,1,56.25
276,144,27910,2,0,L|344:144,1,56.25,2|2,0:0|0:0,0:0:0:0:
444,192,28150,2,0,L|372:192,1,56.25,2|2,0:0|0:0,0:0:0:0:
188,192,28390,2,0,L|76:192,1,112.5,8|2,0:0|0:0,0:0:0:0:
144,264,28750,1,0,0:0:0:0:
344,264,28870,6,0,B|456:264,1,112.5,2|0,0:0|0:0,0:0:0:0:
164,260,29350,1,8,0:0:0:0:
320,192,29590,2,0,L|260:192,1,56.25
152,120,29830,2,0,L|208:120,1,56.25,2|0,0:0|0:0,0:0:0:0:
320,120,30070,2,0,L|376:120,1,56.25
116,260,30310,2,0,L|228:260,1,112.5,8|2,0:0|0:0,0:0:0:0:
296,260,30670,1,0,0:0:0:0:
496,192,30790,5,2,0:0:0:0:
272,192,30910,2,0,B|216:192|216:192|188:144,1,112.5,8|2,0:0|0:0,0:0:0:0:
412,80,31270,1,8,0:0:0:0:
256,80,31510,2,0,L|196:80,1,56.25,8|8,0:0|0:0,0:0:0:0:
424,144,31750,6,0,L|470:178,3,56.25,8|8|8|8,0:0|0:0|0:0|0:0,0:0:0:0:
388,176,32230,2,0,L|341:210,3,56.25,4|4|4|4,0:0|0:0|0:0|0:0,0:0:0:0:
172,208,32710,5,2,0:0:0:0:
416,192,33190,1,0,0:0:0:0:
164,192,33670,1,2,0:0:0:0:
344,192,34150,1,0,0:0:0:0:
52,196,34390,6,0,P|20:160|92:84,1,168.75,2|0,0:0|0:0,0:0:0:0:
276,104,34870,2,0,B|348:104|420:132|420:192|348:224|216:224|136:276|136:332|212:368|292:368,1,506.25,2|0,0:0|0:0,0:0:0:0:
476,364,36070,1,8,0:0:0:0:
332,296,36310,1,2,0:0:0:0:
412,296,36430,1,2,0:0:0:0:
212,296,36550,6,0,L|144:236,1,90,2|0,0:0|0:0,0:0:0:0:
324,192,37030,2,0,L|416:192,1,90,8|0,0:0|0:0,0:0:0:0:
252,112,37510,2,0,L|344:112,1,90,2|0,0:0|0:0,0:0:0:0:
36,112,37990,1,8,0:0:0:0:
188,36,38230,1,8,0:0:0:0:
252,36,38350,1,8,0:0:0:0:
316,36,38470,6,0,L|416:36,1,90,2|0,0:0|0:0,0:0:0:0:
208,116,38950,2,0,L|104:116,1,90,8|0,0:0|0:0,0:0:0:0:
296,192,39430,1,2,0:0:0:0:
160,192,39670,1,2,0:0:0:0:
452,192,39910,2,0,L|388:128,1,90,8|2,0:0|0:0,0:0:0:0:
96,104,40390,6,0,L|16:64,1,90,2|0,0:0|0:0,0:0:0:0:
308,56,40870,2,0,L|400:56,1,90,8|0,0:0|0:0,0:0:0:0:
236,128,41350,2,0,L|328:128,1,90,2|0,0:0|0:0,0:0:0:0:
36,128,41830,1,8,0:0:0:0:
172,192,42070,1,8,0:0:0:0:
100,192,42190,1,8,0:0:0:0:
28,260,42310,6,0,L|124:260,1,90,2|0,0:0|0:0,0:0:0:0:
316,192,42790,2,0,L|212:192,1,90,8|0,0:0|0:0,0:0:0:0:
352,256,43270,1,2,0:0:0:0:
204,256,43510,1,2,0:0:0:0:
496,256,43750,1,8,0:0:0:0:
352,192,43990,2,0,L|352:152,2,22.5,2|2|2,0:0|0:0|0:0,0:0:0:0:
152,192,44230,6,0,L|52:192,1,90,2|0,0:0|0:0,0:0:0:0:
364,44,44710,2,0,L|462:44,1,90,8|0,0:0|0:0,0:0:0:0:
276,120,45190,1,2,0:0:0:0:
432,120,45430,1,0,0:0:0:0:
140,120,45670,2,0,L|60:72,1,90,8|8,0:0|0:0,0:0:0:0:
128,72,46030,1,8,0:0:0:0:
424,76,46150,6,0,P|444:116|440:164,1,90,2|0,0:0|0:0,0:0:0:0:
244,192,46630,2,0,L|152:192,1,90,8|0,0:0|0:0,0:0:0:0:
336,192,47110,1,2,0:0:0:0:
172,260,47350,1,2,0:0:0:0:
464,260,47590,2,0,P|508:216|464:176,1,135.000005149842,8|8,0:0|0:0,0:0:0:0:
392,176,47950,1,8,0:0:0:0:
220,176,48070,6,0,L|104:176,1,112.5,2|0,0:0|0:0,0:0:0:0:
40,176,48430,1,0,0:0:0:0:
212,80,48550,2,0,L|324:80,1,112.5,8|0,0:0|0:0,0:0:0:0:
392,80,48910,1,0,0:0:0:0:
212,144,49030,1,2,0:0:0:0:
169,86,49150,1,0,0:0:0:0:
199,22,49270,1,0,0:0:0:0:
271,18,49390,1,0,0:0:0:0:
470,36,49510,2,0,L|392:80,1,90,8|8,0:0|0:0,0:0:0:0:
320,80,49870,1,8,0:0:0:0:
140,80,49990,6,0,L|256:80,1,112.5,2|0,0:0|0:0,0:0:0:0:
320,80,50350,1,0,0:0:0:0:
148,152,50470,2,0,L|36:152,1,112.5,8|0,0:0|0:0,0:0:0:0:
104,220,50830,1,0,0:0:0:0:
284,288,50950,2,0,L|240:288,1,45,2|0,0:0|0:0,0:0:0:0:
168,288,51190,2,0,L|100:288,1,45,2|0,0:0|0:0,0:0:0:0:
304,360,51430,1,8,0:0:0:0:
124,360,51670,1,2,0:0:0:0:
416,192,51910,6,0,B|472:192|472:192|508:236,1,112.5,2|0,0:0|0:0,0:0:0:0:
440,260,52270,1,0,0:0:0:0:
268,260,52390,2,0,L|152:260,1,112.5,8|0,0:0|0:0,0:0:0:0:
212,324,52750,1,0,0:0:0:0:
416,324,52870,1,2,0:0:0:0:
480,324,52990,1,0,0:0:0:0:
416,324,53110,1,0,0:0:0:0:
352,324,53230,1,0,0:0:0:0:
180,192,53350,2,0,L|68:192,1,112.5,8|8,0:0|0:0,0:0:0:0:
4,192,53710,1,8,0:0:0:0:
176,124,53830,6,0,L|288:124,1,112.5,2|0,0:0|0:0,0:0:0:0:
220,56,54190,1,0,0:0:0:0:
401,124,54310,2,0,L|289:124,1,112.5,8|0,0:0|0:0,0:0:0:0:
356,56,54670,1,0,0:0:0:0:
176,124,54790,2,0,L|116:124,1,45,2|2,0:0|0:0,0:0:0:0:
232,208,55030,2,0,L|280:208,1,45,2|2,0:0|0:0,0:0:0:0:
96,208,55270,1,8,0:0:0:0:
204,288,55510,2,0,L|252:288,1,45,2|0,0:0|0:0,0:0:0:0:
44,284,55750,5,2,0:0:0:0:
232,208,56230,1,0,0:0:0:0:
44,192,56710,2,0,L|128:152,2,90,2|0|0,0:0|0:0|0:0,0:0:0:0:
336,264,57430,2,0,P|376:208|300:156,1,180,2|0,0:0|0:0,0:0:0:0:
120,156,58150,6,0,L|116:60,1,90,2|0,0:0|0:0,0:0:0:0:
296,68,58630,2,0,L|380:24,1,90,8|0,0:0|0:0,0:0:0:0:
240,120,59110,2,0,L|324:164,1,90,2|0,0:0|0:0,0:0:0:0:
464,164,59590,5,0,0:0:0:0:
172,188,59830,1,0,0:0:0:0:
316,248,60070,1,8,0:0:0:0:
188,296,60310,1,0,0:0:0:0:
480,344,60550,2,0,L|404:296,1,90,2|0,0:0|0:0,0:0:0:0:
208,296,61030,1,8,0:0:0:0:
372,296,61270,1,0,0:0:0:0:
80,296,61510,5,2,0:0:0:0:
260,192,61630,2,0,L|396:192,1,135.000005149842,8|2,0:0|0:0,0:0:0:0:
192,192,61990,1,8,0:0:0:0:
372,88,62230,2,0,L|439:88,1,67.5000025749208,8|2,0:0|0:0,0:0:0:0:
260,88,62470,5,2,0:0:0:0:
432,20,62590,2,0,L|316:20,1,112.5,8|2,0:0|0:0,0:0:0:0:
140,192,62950,2,0,L|80:192,1,45,8|8,0:0|0:0,0:0:0:0:
364,276,63190,2,0,L|412:276,1,45,8|8,0:0|0:0,0:0:0:0:
80,320,63430,6,0,B|24:320|24:320|24:264,1,112.5,4|0,0:0|0:0,0:0:0:0:
336,192,63910,2,0,L|448:192,1,112.5,8|0,0:0|0:0,0:0:0:0:
244,124,64390,1,2,0:0:0:0:
424,124,64630,1,0,0:0:0:0:
220,124,64870,1,8,0:0:0:0:
356,124,65110,1,0,0:0:0:0:
64,124,65350,6,0,P|32:168|64:208,1,112.5,2|0,0:0|0:0,0:0:0:0:
356,208,65830,2,0,L|244:192,1,112.5,8|0,0:0|0:0,0:0:0:0:
448,192,66310,2,0,B|504:180|504:180|504:104,1,112.5,2|2,0:0|0:0,0:0:0:0:
212,96,66790,1,8,0:0:0:0:
348,96,67030,2,0,L|396:60,1,56.25,8|8,0:0|0:0,0:0:0:0:
192,32,67270,6,0,L|80:32,1,112.5,2|0,0:0|0:0,0:0:0:0:
393,62,67750,1,8,0:0:0:0:
212,104,67990,2,0,L|328:104,1,112.5,0|2,0:0|0:0,0:0:0:0:
436,212,68470,1,0,0:0:0:0:
140,212,68710,2,0,L|132:328,1,112.5,8|0,0:0|0:0,0:0:0:0:
432,328,69190,6,0,L|320:296,1,112.5,2|0,0:0|0:0,0:0:0:0:
31,242,69670,2,0,L|143:210,1,112.5,8|0,0:0|0:0,0:0:0:0:
296,212,70150,2,0,L|304:152,1,56.25,2|2,0:0|0:0,0:0:0:0:
176,136,70390,1,4,0:0:0:0:
468,136,70630,1,8,0:0:0:0:
332,68,70870,2,0,L|272:68,1,56.25,2|2,0:0|0:0,0:0:0:0:
76,68,71110,5,2,0:0:0:0:
212,68,71350,1,0,0:0:0:0:
8,68,71590,2,0,L|120:68,1,112.5,8|0,0:0|0:0,0:0:0:0:
280,144,72070,1,2,0:0:0:0:
144,144,72310,1,0,0:0:0:0:
348,144,72550,1,8,0:0:0:0:
212,212,72790,2,0,L|156:248,1,56.25
368,240,73030,5,2,0:0:0:0:
436,240,73150,1,0,0:0:0:0:
504,240,73270,1,0,0:0:0:0:
212,240,73510,2,0,L|108:192,1,112.5,8|0,0:0|0:0,0:0:0:0:
324,140,73990,1,2,0:0:0:0:
168,140,74230,1,2,0:0:0:0:
472,140,74470,1,8,0:0:0:0:
324,140,74710,2,0,L|380:140,1,56.25,4|4,0:0|0:0,0:0:0:0:
208,64,74950,6,0,L|92:64,1,112.5,2|0,0:0|0:0,0:0:0:0:
388,32,75430,2,0,L|500:32,1,112.5,8|0,0:0|0:0,0:0:0:0:
296,112,75910,1,2,0:0:0:0:
452,112,76150,1,0,0:0:0:0:
160,112,76390,1,8,0:0:0:0:
296,112,76630,1,0,0:0:0:0:
92,192,76870,5,2,0:0:0:0:
292,192,76990,2,0,L|408:192,1,112.5,8|2,0:0|0:0,0:0:0:0:
204,192,77350,1,8,0:0:0:0:
360,276,77590,1,8,0:0:0:0:
168,276,77710,1,8,0:0:0:0:
248,276,77830,1,2,0:0:0:0:
48,348,77950,2,0,P|16:304|56:276,1,112.5,8|2,0:0|0:0,0:0:0:0:
280,352,78310,2,0,L|408:352,1,112.5,4|0,0:0|0:0,0:0:0:0:
76,192,78790,6,0,B|20:192|20:192|20:256,1,112.5,4|0,0:0|0:0,0:0:0:0:
312,248,79270,1,8,0:0:0:0:
156,248,79510,2,0,B|168:180|168:180|232:160,1,135.000005149842,0|2,0:0|0:0,0:0:0:0:
24,164,79990,1,0,0:0:0:0:
316,164,80230,1,8,0:0:0:0:
136,100,80470,1,0,0:0:0:0:
428,100,80710,6,0,L|332:168,1,112.5,2|0,0:0|0:0,0:0:0:0:
44,164,81190,1,8,0:0:0:0:
200,164,81430,1,0,0:0:0:0:
280,164,81550,1,0,0:0:0:0:
360,164,81670,1,2,0:0:0:0:
156,164,81910,1,2,0:0:0:0:
448,216,82150,2,0,L|340:252,1,112.5,8|2,0:0|0:0,0:0:0:0:
272,252,82510,1,2,0:0:0:0:
46,191,82630,6,0,B|158:163,1,112.5,2|0,0:0|0:0,0:0:0:0:
448,164,83110,1,8,0:0:0:0:
268,48,83350,2,0,L|380:48,1,112.5,0|2,0:0|0:0,0:0:0:0:
176,48,83830,1,0,0:0:0:0:
380,48,84070,1,8,0:0:0:0:
152,48,84310,1,0,0:0:0:0:
488,192,84550,6,0,B|376:192,1,112.5,2|0,0:0|0:0,0:0:0:0:
84,192,85030,1,8,0:0:0:0:
252,192,85270,1,0,0:0:0:0:
420,192,85510,1,2,0:0:0:0:
196,192,85750,1,2,0:0:0:0:
488,268,85990,2,0,L|432:268,1,56.25,8|0,0:0|0:0,0:0:0:0:
204,332,86230,2,0,L|260:332,1,56.25,2|0,0:0|0:0,0:0:0:0:
492,192,86470,6,0,B|492:136|492:136|428:136,1,112.5,4|0,0:0|0:0,0:0:0:0:
144,136,86950,1,8,0:0:0:0:
300,108,87190,1,0,0:0:0:0:
380,108,87310,1,0,0:0:0:0:
458,109,87430,2,0,L|381:190,1,112.5,2|2,0:0|0:0,0:0:0:0:
304,192,87790,1,0,0:0:0:0:
76,192,87910,1,8,0:0:0:0:
368,260,88150,1,2,0:0:0:0:
56,260,88390,6,0,P|16:224|20:148,1,112.5,2|0,0:0|0:0,0:0:0:0:
304,168,88870,1,8,0:0:0:0:
144,168,89110,2,0,L|80:168,2,56.25,0|0|2,0:0|0:0|0:0,0:0:0:0:
324,96,89590,2,0,L|384:96,1,56.25,4|4,0:0|0:0,0:0:0:0:
156,28,89830,2,0,L|44:28,1,112.5,8|2,0:0|0:0,0:0:0:0:
112,100,90190,1,2,0:0:0:0:
340,28,90310,6,0,L|456:28,1,112.5,2|0,0:0|0:0,0:0:0:0:
160,100,90790,2,0,L|256:164,2,112.5,8|0|2,0:0|0:0|0:0,0:0:0:0:
352,104,91510,1,0,0:0:0:0:
60,256,91750,2,0,L|172:256,1,112.5,8|0,0:0|0:0,0:0:0:0:
244,324,92110,1,0,0:0:0:0:
16,192,92230,5,2,0:0:0:0:
224,192,92350,2,0,B|336:192,1,112.5,8|2,0:0|0:0,0:0:0:0:
100,80,92710,1,8,0:0:0:0:
256,80,92950,2,0,L|316:80,1,56.25,8|8,0:0|0:0,0:0:0:0:
20,192,93190,5,8,0:0:0:0:
37,264,93310,1,8,0:0:0:0:
88,318,93430,1,8,0:0:0:0:
159,339,93550,1,8,0:0:0:0:
352,340,93670,1,4,0:0:0:0:
423,319,93790,1,4,0:0:0:0:
474,265,93910,1,4,0:0:0:0:
491,193,94030,1,4,0:0:0:0:
268,192,94150,5,2,0:0:0:0:
448,192,94630,1,0,0:0:0:0:
160,192,95110,2,0,P|108:156|160:72,1,180,2|0,0:0|0:0,0:0:0:0:
464,192,95830,6,0,P|500:156|440:72,1,168.75,2|0,0:0|0:0,0:0:0:0:
244,72,96310,2,0,B|208:56|172:72|144:100|144:164|172:204|224:204|224:160|364:160|396:228|368:336,1,450,2|0,0:0|0:0,0:0:0:0:
80,328,97510,1,8,0:0:0:0:
232,260,97750,1,2,0:0:0:0:
152,260,97870,1,2,0:0:0:0:
332,260,97990,6,0,L|424:260,1,90,2|0,0:0|0:0,0:0:0:0:
240,192,98470,2,0,L|332:192,1,90,8|0,0:0|0:0,0:0:0:0:
168,112,98950,2,0,L|76:112,1,90,2|0,0:0|0:0,0:0:0:0:
368,112,99430,1,8,0:0:0:0:
232,36,99670,1,8,0:0:0:0:
168,36,99790,1,8,0:0:0:0:
278,112,99910,6,0,L|370:112,1,90,2|0,0:0|0:0,0:0:0:0:
304,180,100270,1,0,0:0:0:0:
124,180,100390,1,8,0:0:0:0:
260,112,100630,1,0,0:0:0:0:
324,112,100750,1,0,0:0:0:0:
214,180,100870,2,0,L|122:180,1,90,2|2,0:0|0:0,0:0:0:0:
188,248,101230,1,0,0:0:0:0:
368,248,101350,2,0,L|376:152,1,90,8|2,0:0|0:0,0:0:0:0:
344,132,101650,1,2,0:0:0:0:
300,132,101710,1,2,0:0:0:0:
84,116,101830,6,0,L|4:76,1,90,2|0,0:0|0:0,0:0:0:0:
296,56,102310,2,0,L|388:56,1,90,8|0,0:0|0:0,0:0:0:0:
224,136,102790,1,2,0:0:0:0:
368,136,103030,1,0,0:0:0:0:
76,136,103270,1,8,0:0:0:0:
212,208,103510,1,8,0:0:0:0:
284,208,103630,1,8,0:0:0:0:
104,208,103750,6,0,L|12:208,1,90,2|0,0:0|0:0,0:0:0:0:
78,276,104110,1,0,0:0:0:0:
258,276,104230,1,8,0:0:0:0:
122,208,104470,1,2,0:0:0:0:
184,208,104590,1,2,0:0:0:0:
292,208,104710,2,0,L|384:208,1,90,2|2,0:0|0:0,0:0:0:0:
318,276,105070,1,0,0:0:0:0:
138,276,105190,1,8,0:0:0:0:
280,276,105430,2,0,L|296:240,2,22.5,2|2|2,0:0|0:0|0:0,0:0:0:0:
100,192,105670,6,0,L|8:192,1,90,2|0,0:0|0:0,0:0:0:0:
300,112,106150,2,0,L|392:112,1,90,8|0,0:0|0:0,0:0:0:0:
208,48,106630,1,2,0:0:0:0:
352,48,106870,1,0,0:0:0:0:
32,48,107110,2,0,L|118:98,1,90,8|8,0:0|0:0,0:0:0:0:
168,96,107470,1,8,0:0:0:0:
340,124,107590,5,2,0:0:0:0:
188,124,107830,1,0,0:0:0:0:
480,192,108070,2,0,L|372:192,1,90,8|0,0:0|0:0,0:0:0:0:
328,192,108430,1,0,0:0:0:0:
212,188,108550,1,2,0:0:0:0:
376,124,108790,1,2,0:0:0:0:
84,124,109030,2,0,L|24:124,1,45,8|0,0:0|0:0,0:0:0:0:
112,176,109270,2,0,L|52:176,1,45,2|0,0:0|0:0,0:0:0:0:
292,176,109510,6,0,L|408:176,1,112.5,2|0,0:0|0:0,0:0:0:0:
472,176,109870,1,0,0:0:0:0:
300,80,109990,2,0,L|188:80,1,112.5,8|0,0:0|0:0,0:0:0:0:
120,80,110350,1,0,0:0:0:0:
300,144,110470,2,0,L|352:144,1,45,2|0,0:0|0:0,0:0:0:0:
256,220,110710,2,0,L|208:220,1,45,2|0,0:0|0:0,0:0:0:0:
392,220,110950,2,0,L|508:220,1,112.5,8|0,0:0|0:0,0:0:0:0:
436,288,111310,1,0,0:0:0:0:
264,288,111430,6,0,L|376:288,1,112.5,2|0,0:0|0:0,0:0:0:0:
308,356,111790,1,0,0:0:0:0:
136,288,111910,2,0,L|24:288,1,112.5,8|0,0:0|0:0,0:0:0:0:
92,356,112270,1,0,0:0:0:0:
272,220,112390,2,0,L|316:220,1,45,2|2,0:0|0:0,0:0:0:0:
388,220,112630,2,0,L|433:220,1,45,2|2,0:0|0:0,0:0:0:0:
252,320,112870,1,8,0:0:0:0:
432,320,113110,2,0,L|376:320,1,45,2|2,0:0|0:0,0:0:0:0:
140,152,113350,6,0,B|84:152|84:152|48:196,1,112.5,2|0,0:0|0:0,0:0:0:0:
116,220,113710,1,0,0:0:0:0:
288,220,113830,2,0,L|404:220,1,112.5,8|0,0:0|0:0,0:0:0:0:
344,284,114190,1,0,0:0:0:0:
140,284,114310,1,2,0:0:0:0:
76,284,114430,1,0,0:0:0:0:
140,284,114550,1,0,0:0:0:0:
204,284,114670,1,0,0:0:0:0:
376,152,114790,2,0,L|488:152,1,112.5,8|8,0:0|0:0,0:0:0:0:
420,216,115150,1,8,0:0:0:0:
248,212,115270,6,0,L|136:212,1,112.5,2|0,0:0|0:0,0:0:0:0:
204,144,115630,1,0,0:0:0:0:
32,96,115750,2,0,L|144:96,1,112.5,8|0,0:0|0:0,0:0:0:0:
77,28,116110,1,0,0:0:0:0:
336,124,116230,2,0,L|396:124,1,45,2|2,0:0|0:0,0:0:0:0:
280,208,116470,2,0,L|232:208,1,45,2|2,0:0|0:0,0:0:0:0:
416,208,116710,1,8,0:0:0:0:
308,288,116950,2,0,L|260:288,1,45,8|8,0:0|0:0,0:0:0:0:
444,288,117190,6,0,L|452:380,1,90,2|0,0:0|0:0,0:0:0:0:
270,198,117670,2,0,L|263:288,1,90,8|0,0:0|0:0,0:0:0:0:
84,192,118150,2,0,P|24:138|83:83,1,180,2|8,0:0|0:0,0:0:0:0:
372,84,118869,6,0,L|464:84,2,90,2|2|0,0:0|0:0|0:0,0:0:0:0:
80,84,119590,2,0,L|76:176,1,90,8|0,0:0|0:0,0:0:0:0:
256,76,120070,1,2,0:0:0:0:
192,76,120190,1,2,0:0:0:0:
128,76,120310,1,2,0:0:0:0:
420,148,120550,1,8,0:0:0:0:
296,148,120790,2,0,L|248:148,1,45,2|0,0:0|0:0,0:0:0:0:
48,148,121030,6,0,L|128:192,1,90,2|0,0:0|0:0,0:0:0:0:
420,192,121510,2,0,L|340:236,1,90,8|0,0:0|0:0,0:0:0:0:
160,260,121990,1,2,0:0:0:0:
76,245,122110,1,0,0:0:0:0:
60,162,122230,1,2,0:0:0:0:
133,118,122350,1,0,0:0:0:0:
316,120,122470,2,0,L|432:120,1,112.5,8|8,0:0|0:0,0:0:0:0:
360,52,122830,1,8,0:0:0:0:
176,52,122950,6,0,L|72:52,1,90,2|0,0:0|0:0,0:0:0:0:
380,192,123430,1,8,0:0:0:0:
200,192,123670,1,0,0:0:0:0:
380,120,123910,2,0,L|472:120,1,90,2|0,0:0|0:0,0:0:0:0:
144,120,124390,2,0,L|8:120,1,135.000005149842,4|0,0:0|0:0,0:0:0:0:
352,240,124870,5,8,0:0:0:0:
136,236,125350,1,8,0:0:0:0:
316,320,125590,2,0,L|408:320,1,90,0|8,0:0|0:0,0:0:0:0:
280,320,126070,1,2,0:0:0:0:
444,248,126310,2,0,L|452:152,1,90,8|2,0:0|0:0,0:0:0:0:
160,160,126790,5,8,0:0:0:0:
376,160,127270,1,8,0:0:0:0:
196,240,127510,2,0,L|104:240,1,90,0|8,0:0|0:0,0:0:0:0:
284,240,127990,2,0,L|352:180,1,90,2|8,0:0|0:0,0:0:0:0:
188,180,128470,1,2,0:0:0:0:
480,180,128710,5,8,0:0:0:0:
264,180,129190,1,8,0:0:0:0:
444,96,129430,2,0,L|352:96,1,90,0|8,0:0|0:0,0:0:0:0:
228,96,129910,1,2,0:0:0:0:
392,180,130150,2,0,L|396:276,1,90,8|2,0:0|0:0,0:0:0:0:
104,208,130630,6,0,P|112:160|184:120,1,135,8|0,0:0|0:0,0:0:0:0:
360,120,131110,1,8,0:0:0:0:
232,120,131350,1,0,0:0:0:0:
412,24,131590,1,8,0:0:0:0:
248,24,131830,1,2,0:0:0:0:
428,120,132070,2,0,L|476:120,1,45,8|0,0:0|0:0,0:0:0:0:
384,180,132310,2,0,L|336:180,1,45,2|0,0:0|0:0,0:0:0:0:
32,36,132550,5,8,0:0:0:0:
160,36,132790,1,8,0:0:0:0:
288,36,133030,1,8,0:0:0:0:
160,36,133270,1,8,0:0:0:0:
344,108,133510,1,8,0:0:0:0:
504,108,133750,1,8,0:0:0:0:
300,108,133990,1,8,0:0:0:0:
496,108,134230,1,8,0:0:0:0:
152,192,134470,5,8,0:0:0:0:
280,192,134710,1,8,0:0:0:0:
152,192,134950,1,8,0:0:0:0:
24,192,135190,1,8,0:0:0:0:
216,276,135430,1,8,0:0:0:0:
32,276,135670,1,8,0:0:0:0:
228,276,135910,1,8,0:0:0:0:
20,276,136150,1,8,0:0:0:0:
312,276,136390,6,0,L|357:230,1,45,8|8,0:0|0:0,0:0:0:0:
240,192,136630,2,0,L|176:192,1,45,8|8,0:0|0:0,0:0:0:0:
376,192,136870,2,0,L|440:192,1,45,8|8,0:0|0:0,0:0:0:0:
320,120,137110,2,0,L|384:120,1,45,8|8,0:0|0:0,0:0:0:0:
184,120,137350,6,0,L|139:120,1,45,8|8,0:0|0:0,0:0:0:0:
240,192,137590,2,0,L|304:192,1,45,8|8,0:0|0:0,0:0:0:0:
104,192,137830,2,0,L|148:192,1,45,8|8,0:0|0:0,0:0:0:0:
248,256,138070,2,0,L|192:256,1,45,8|8,0:0|0:0,0:0:0:0:
384,256,138310,5,2,0:0:0:0:
203,256,138550,1,0,0:0:0:0:
496,192,138790,2,0,P|504:140|424:92,1,135,2|0,0:0|0:0,0:0:0:0:
364,92,139270,1,2,0:0:0:0:
184,192,139390,2,0,L|88:192,1,90,8|2,0:0|0:0,0:0:0:0:
336,92,139750,6,0,L|392:92,1,45,8|8,0:0|0:0,0:0:0:0:
180,92,139990,2,0,L|228:92,1,45,8|8,0:0|0:0,0:0:0:0:
400,92,140230,2,0,L|504:92,1,90,2|0,0:0|0:0,0:0:0:0:
132,192,140710,6,0,L|20:192,1,112.5,4|0,0:0|0:0,0:0:0:0:
224,124,141190,1,2,0:0:0:0:
44,124,141430,1,0,0:0:0:0:
248,124,141670,1,8,0:0:0:0:
112,124,141910,1,0,0:0:0:0:
404,128,142150,6,0,B|460:128|460:128|500:192,1,112.5,2|0,0:0|0:0,0:0:0:0:
196,192,142630,2,0,L|308:192,1,112.5,8|0,0:0|0:0,0:0:0:0:
84,192,143110,2,0,B|24:192|24:192|4:136,1,112.5,2|2,0:0|0:0,0:0:0:0:
300,96,143590,1,8,0:0:0:0:
164,96,143830,2,0,L|116:60,1,56.25,8|8,0:0|0:0,0:0:0:0:
320,32,144070,6,0,L|432:32,1,112.5,2|0,0:0|0:0,0:0:0:0:
119,62,144550,1,8,0:0:0:0:
276,100,144790,2,0,P|312:144|276:180,1,112.5,0|2,0:0|0:0,0:0:0:0:
56,212,145270,1,0,0:0:0:0:
348,212,145510,1,8,0:0:0:0:
188,212,145750,1,0,0:0:0:0:
480,328,145990,6,0,L|368:296,1,112.5,2|0,0:0|0:0,0:0:0:0:
79,242,146470,2,0,L|191:210,1,112.5,8|0,0:0|0:0,0:0:0:0:
256,212,146830,1,0,0:0:0:0:
132,136,146950,2,0,L|188:136,1,56.25,8|8,0:0|0:0,0:0:0:0:
312,136,147190,1,4,0:0:0:0:
20,136,147430,1,8,0:0:0:0:
200,68,147670,2,0,L|140:68,1,56.25,2|2,0:0|0:0,0:0:0:0:
344,68,147910,5,4,0:0:0:0:
200,68,148150,1,0,0:0:0:0:
492,68,148390,1,8,0:0:0:0:
344,68,148630,2,0,L|244:136,1,112.5,0|2,0:0|0:0,0:0:0:0:
432,128,149110,1,0,0:0:0:0:
140,132,149350,1,8,0:0:0:0:
320,240,149590,2,0,L|364:204,1,56.25
172,240,149830,5,2,0:0:0:0:
104,240,149950,1,0,0:0:0:0:
36,240,150070,1,0,0:0:0:0:
328,240,150310,1,8,0:0:0:0:
172,240,150550,2,0,P|148:192|188:156,1,112.5,0|2,0:0|0:0,0:0:0:0:
368,156,151030,1,2,0:0:0:0:
76,156,151270,1,8,0:0:0:0:
220,156,151510,1,8,0:0:0:0:
124,156,151630,1,8,0:0:0:0:
332,64,151750,6,0,L|448:64,1,112.5,2|0,0:0|0:0,0:0:0:0:
152,32,152230,2,0,L|40:32,1,112.5,8|0,0:0|0:0,0:0:0:0:
244,112,152710,1,2,0:0:0:0:
88,112,152950,1,4,0:0:0:0:
176,112,153070,1,4,0:0:0:0:
376,112,153190,1,8,0:0:0:0:
244,112,153430,1,2,0:0:0:0:
332,112,153550,1,2,0:0:0:0:
132,192,153670,5,2,0:0:0:0:
332,192,153790,2,0,L|448:192,1,112.5,8|2,0:0|0:0,0:0:0:0:
244,192,154150,1,8,0:0:0:0:
84,276,154390,1,8,0:0:0:0:
276,276,154510,1,8,0:0:0:0:
196,276,154630,1,2,0:0:0:0:
392,352,154750,2,0,L|276:352,1,112.5,8|2,0:0|0:0,0:0:0:0:
68,352,155110,2,0,B|12:352|12:352|12:296,1,112.5,4|0,0:0|0:0,0:0:0:0:
328,352,155590,6,0,B|388:352|388:352|388:292,1,112.5,4|0,0:0|0:0,0:0:0:0:
72,304,156070,1,8,0:0:0:0:
208,304,156310,2,0,B|264:304|264:304|264:240,1,112.5,0|2,0:0|0:0,0:0:0:0:
72,248,156790,1,2,0:0:0:0:
364,192,157030,1,8,0:0:0:0:
204,192,157270,1,0,0:0:0:0:
496,192,157510,6,0,L|400:124,1,112.5,2|0,0:0|0:0,0:0:0:0:
112,128,157990,1,8,0:0:0:0:
284,192,158230,2,0,P|324:232|332:288,1,112.5,0|2,0:0|0:0,0:0:0:0:
40,192,158710,1,2,0:0:0:0:
332,192,158950,2,0,L|440:156,1,112.5,8|2,0:0|0:0,0:0:0:0:
372,156,159310,1,2,0:0:0:0:
144,192,159430,6,0,B|88:192|88:192|152:192,1,112.5,4|0,0:0|0:0,0:0:0:0:
438,156,159910,1,8,0:0:0:0:
246,68,160150,2,0,P|214:112|246:156,1,112.5,0|2,0:0|0:0,0:0:0:0:
422,68,160630,1,0,0:0:0:0:
220,68,160870,1,8,0:0:0:0:
446,68,161110,1,0,0:0:0:0:
152,192,161350,6,0,L|40:192,1,112.5,2|0,0:0|0:0,0:0:0:0:
332,192,161830,1,8,0:0:0:0:
152,192,162070,2,0,P|161:246|200:285,1,112.5,0|2,0:0|0:0,0:0:0:0:
492,192,162550,1,2,0:0:0:0:
200,192,162790,2,0,L|312:192,1,112.5,8|2,0:0|0:0,0:0:0:0:
244,128,163150,1,2,0:0:0:0:
16,192,163270,6,0,B|16:136|16:136|80:136,1,112.5,4|0,0:0|0:0,0:0:0:0:
364,112,163750,1,8,0:0:0:0:
208,108,163990,1,0,0:0:0:0:
128,108,164110,1,0,0:0:0:0:
50,109,164230,2,0,L|127:190,1,112.5,2|4,0:0|0:0,0:0:0:0:
204,192,164590,1,4,0:0:0:0:
432,192,164710,1,8,0:0:0:0:
128,260,164950,1,2,0:0:0:0:
444,260,165190,6,0,P|490:227|496:168,1,112.5,2|0,0:0|0:0,0:0:0:0:
204,168,165670,1,8,0:0:0:0:
498,174,165910,2,0,L|488:56,1,112.5,0|2,0:0|0:0,0:0:0:0:
196,224,166390,2,0,L|204:168,1,56.25,2|0,0:0|0:0,0:0:0:0:
404,64,166630,2,0,L|292:64,1,112.5,8|2,0:0|0:0,0:0:0:0:
384,132,166990,1,2,0:0:0:0:
184,64,167110,6,0,L|68:64,1,112.5,4|0,0:0|0:0,0:0:0:0:
364,132,167590,1,8,0:0:0:0:
184,132,167830,2,0,L|300:132,1,112.5,2|0,0:0|0:0,0:0:0:0:
108,132,168310,1,2,0:0:0:0:
400,256,168550,2,0,L|288:256,1,112.5,8|2,0:0|0:0,0:0:0:0:
220,256,168910,1,2,0:0:0:0:
428,192,169030,5,2,0:0:0:0:
220,192,169150,2,0,L|108:172,1,112.5,8|2,0:0|0:0,0:0:0:0:
332,116,169510,1,8,0:0:0:0:
176,116,169750,1,8,0:0:0:0:
248,116,169870,1,8,0:0:0:0:
476,116,169990,5,8,0:0:0:0:
459,188,170110,1,8,0:0:0:0:
408,242,170230,1,8,0:0:0:0:
337,263,170350,1,8,0:0:0:0:
114,264,170470,1,4,0:0:0:0:
130,191,170590,1,4,0:0:0:0:
181,137,170710,1,4,0:0:0:0:
252,116,170830,1,4,0:0:0:0:
324,116,170950,5,4,0:0:0:0:
188,280,171430,1,0,0:0:0:0:
348,280,171910,2,0,L|424:264,2,67.5000025749208,2|0|0,0:0|0:0|0:0,0:0:0:0:
144,280,172630,2,0,P|76:320|156:356,1,202.500007724762,2|0,0:0|0:0,0:0:0:0:
356,280,173590,2,0,P|328:216|268:192,1,135.000005149842,2|0,0:0|0:0,0:0:0:0:
164,192,174310,1,0,0:0:0:0:
332,128,174550,6,0,P|356:176|320:264,1,135.000005149842,2|0,0:0|0:0,0:0:0:0:
184,252,175270,1,0,0:0:0:0:
372,280,175750,2,0,P|416:324|376:368,1,135.000005149842,2|0,0:0|0:0,0:0:0:0:
176,368,176471,2,0,B|128:404|72:404|40:360|40:300|72:256|132:256|204:280|260:280|316:232|316:184|264:148|189:147|148:192,1,540.000020599366,2|0,0:0|0:0,0:0:0:0:
240,324,178630,5,2,0:0:0:0:
40,192,179110,1,0,0:0:0:0:
228,192,179590,2,0,L|304:176,2,67.5000025749208,2|0|0,0:0|0:0|0:0,0:0:0:0:
432,192,180310,2,0,P|500:232|420:268,1,202.500007724762,2|0,0:0|0:0,0:0:0:0:
220,192,181270,2,0,P|156:164|132:104,1,135.000005149842,2|0,0:0|0:0,0:0:0:0:
240,104,181990,2,0,L|316:104,1,67.5000025749208
100,172,182470,6,0,P|80:244|84:304,1,135.000005149842,2|0,0:0|0:0,0:0:0:0:
412,212,183430,2,0,P|432:140|428:80,1,135.000005149842,2|0,0:0|0:0,0:0:0:0:
276,84,184150,1,0,0:0:0:0:
256,192,184390,12,8,185830,0:0:0:0:
428,192,186310,6,0,L|444:100,1,90,2|0,0:0|0:0,0:0:0:0:
208,104,186790,2,0,L|192:12,1,90,8|0,0:0|0:0,0:0:0:0:
396,16,187270,2,0,L|496:16,2,90,2|0|8,0:0|0:0|0:0,0:0:0:0:
104,16,187990,6,0,P|56:72|112:144,1,180,2|2,0:0|0:0,0:0:0:0:
348,144,188710,2,0,L|440:144,1,90,8|0,0:0|0:0,0:0:0:0:
256,144,189430,1,2,0:0:0:0:
476,192,189670,1,8,0:0:0:0:
108,192,189910,6,0,P|60:288|176:368,1,270.000010299683,2|2,0:0|0:0,0:0:0:0:
408,320,190630,1,8,0:0:0:0:
84,260,190870,2,0,L|76:168,1,90,0|2,0:0|0:0,0:0:0:0:
376,192,191350,2,0,L|384:100,1,90,0|8,0:0|0:0,0:0:0:0:
196,104,191830,2,0,L|240:104,1,45
428,32,192070,6,0,L|328:32,1,90,2|0,0:0|0:0,0:0:0:0:
104,32,192550,1,8,0:0:0:0:
240,32,192790,2,0,L|148:32,1,90,0|2,0:0|0:0,0:0:0:0:
360,120,193270,1,2,0:0:0:0:
160,192,193510,1,8,0:0:0:0:
472,192,193750,6,0,P|468:288|324:356,1,270.000010299683,2|2,0:0|0:0,0:0:0:0:
92,352,194470,1,8,0:0:0:0:
384,264,194710,2,0,L|480:264,1,90,0|2,0:0|0:0,0:0:0:0:
296,264,195190,1,0,0:0:0:0:
500,192,195430,1,8,0:0:0:0:
208,192,195670,6,0,L|116:144,1,90,0|2,0:0|0:0,0:0:0:0:
308,192,196150,1,0,0:0:0:0:
60,124,196390,2,0,L|152:76,1,90,8|0,0:0|0:0,0:0:0:0:
284,84,196870,2,0,L|192:84,1,90,2|0,0:0|0:0,0:0:0:0:
488,84,197350,2,0,L|496:184,1,90,8|0,0:0|0:0,0:0:0:0:
188,192,197830,6,0,L|92:192,1,90,2|0,0:0|0:0,0:0:0:0:
316,192,198310,2,0,L|408:192,1,90,8|0,0:0|0:0,0:0:0:0:
88,256,198790,1,2,0:0:0:0:
268,256,199030,1,2,0:0:0:0:
52,256,199270,1,8,0:0:0:0:
168,256,199510,1,2,0:0:0:0:
320,256,199750,5,2,0:0:0:0:
108,192,199870,2,0,L|28:152,1,90,8|2,0:0|0:0,0:0:0:0:
232,192,200230,1,8,0:0:0:0:
52,92,200470,2,0,L|100:92,1,45,8|8,0:0|0:0,0:0:0:0:
188,92,200710,5,2,0:0:0:0:
404,92,200830,2,0,L|484:132,1,90,8|2,0:0|0:0,0:0:0:0:
233,92,201190,2,0,L|173:92,1,45,8|8,0:0|0:0,0:0:0:0:
456,200,201430,2,0,L|516:200,1,45,8|8,0:0|0:0,0:0:0:0:
168,240,201670,5,2,0:0:0:0:
376,240,202150,1,8,0:0:0:0:
144,240,202630,2,0,L|136:144,1,90,8|2,0:0|0:0,0:0:0:0:
280,148,203110,2,0,L|272:52,1,90,8|2,0:0|0:0,0:0:0:0:
51,58,203590,5,8,0:0:0:0:
267,58,204070,1,8,0:0:0:0:
35,58,204550,1,8,0:0:0:0:
180,56,204790,1,2,0:0:0:0:
234,56,204910,1,2,0:0:0:0:
288,56,205030,2,0,L|392:56,1,90,8|2,0:0|0:0,0:0:0:0:
176,192,205510,5,8,0:0:0:0:
392,192,205990,1,8,0:0:0:0:
192,268,206230,2,0,L|108:336,1,90,0|8,0:0|0:0,0:0:0:0:
284,320,206710,2,0,L|353:376,1,90,2|8,0:0|0:0,0:0:0:0:
176,376,207190,1,2,0:0:0:0:
468,376,207430,6,0,P|504:328|456:284,1,135,8|0,0:0|0:0,0:0:0:0:
256,284,207910,1,8,0:0:0:0:
384,284,208150,1,0,0:0:0:0:
204,192,208390,1,8,0:0:0:0:
368,192,208630,1,2,0:0:0:0:
188,192,208870,2,0,L|176:100,1,90,8|2,0:0|0:0,0:0:0:0:
492,36,209350,5,8,0:0:0:0:
360,36,209590,1,8,0:0:0:0:
228,36,209830,1,8,0:0:0:0:
96,36,210070,1,8,0:0:0:0:
284,108,210310,1,8,0:0:0:0:
112,108,210550,1,8,0:0:0:0:
292,108,210790,1,8,0:0:0:0:
472,108,211030,1,8,0:0:0:0:
76,192,211270,5,8,0:0:0:0:
208,192,211510,1,8,0:0:0:0:
340,192,211750,1,8,0:0:0:0:
472,192,211990,1,8,0:0:0:0:
280,264,212230,1,8,0:0:0:0:
452,264,212470,1,8,0:0:0:0:
252,264,212710,1,8,0:0:0:0:
460,264,212950,1,8,0:0:0:0:
144,264,213190,5,8,0:0:0:0:
104,232,213310,1,8,0:0:0:0:
100,180,213430,1,8,0:0:0:0:
136,144,213550,1,8,0:0:0:0:
388,192,213670,1,8,0:0:0:0:
440,128,213790,1,8,0:0:0:0:
424,48,213910,1,8,0:0:0:0:
348,24,214030,1,8,0:0:0:0:
136,144,214150,6,0,L|91:144,1,45,8|8,0:0|0:0,0:0:0:0:
208,220,214390,2,0,L|256:220,1,45,8|8,0:0|0:0,0:0:0:0:
40,284,214630,2,0,L|112:284,1,67.5000025749208,8|8,0:0|0:0,0:0:0:0:
416,220,214870,2,0,L|348:220,1,67.5000025749208,8|8,0:0|0:0,0:0:0:0:
136,148,215110,5,2,0:0:0:0:
316,80,215350,1,0,0:0:0:0:
24,80,215590,2,0,P|4:132|48:192,1,135,2|0,0:0|0:0,0:0:0:0:
148,192,216070,1,2,0:0:0:0:
352,192,216190,2,0,L|448:192,1,90,8|2,0:0|0:0,0:0:0:0:
240,104,216550,5,8,0:0:0:0:
348,104,216670,1,8,0:0:0:0:
222,104,216790,1,8,0:0:0:0:
330,104,216910,1,8,0:0:0:0:
156,104,217030,2,0,L|64:104,1,90,2|0,0:0|0:0,0:0:0:0:
424,24,217510,6,0,B|480:24|480:24|480:80,1,112.5,4|0,0:0|0:0,0:0:0:0:
280,124,217990,1,2,0:0:0:0:
460,124,218230,1,0,0:0:0:0:
256,124,218470,1,8,0:0:0:0:
392,124,218710,2,0,L|332:124,1,56.25,8|8,0:0|0:0,0:0:0:0:
132,128,218950,6,0,B|76:128|76:128|36:192,1,112.5,2|0,0:0|0:0,0:0:0:0:
340,192,219430,2,0,L|456:192,1,112.5,8|0,0:0|0:0,0:0:0:0:
252,264,219910,1,2,0:0:0:0:
432,264,220150,1,2,0:0:0:0:
140,264,220390,1,8,0:0:0:0:
73,238,220510,1,0,0:0:0:0:
70,167,220630,1,4,0:0:0:0:
133,135,220750,1,4,0:0:0:0:
336,136,220870,6,0,L|460:136,1,112.5,2|0,0:0|0:0,0:0:0:0:
156,60,221350,1,8,0:0:0:0:
292,60,221590,1,4,0:0:0:0:
372,60,221710,1,4,0:0:0:0:
248,60,221830,1,2,0:0:0:0:
416,192,222070,1,2,0:0:0:0:
336,192,222190,1,0,0:0:0:0:
136,192,222310,1,8,0:0:0:0:
296,192,222550,1,8,0:0:0:0:
216,192,222670,1,8,0:0:0:0:
16,328,222790,6,0,L|128:296,1,112.5,2|0,0:0|0:0,0:0:0:0:
417,242,223270,2,0,L|305:210,1,112.5,8|0,0:0|0:0,0:0:0:0:
400,136,223630,2,0,L|344:136,1,56.25,0|2,0:0|0:0,0:0:0:0:
184,136,223990,1,2,0:0:0:0:
476,136,224230,1,8,0:0:0:0:
308,68,224470,2,0,L|368:68,1,56.25,8|8,0:0|0:0,0:0:0:0:
164,68,224710,5,4,0:0:0:0:
308,68,224950,1,0,0:0:0:0:
16,68,225190,1,8,0:0:0:0:
160,68,225430,2,0,L|260:136,1,112.5,0|2,0:0|0:0,0:0:0:0:
72,128,225910,1,0,0:0:0:0:
364,132,226150,1,8,0:0:0:0:
184,240,226390,2,0,L|140:204,1,56.25
332,240,226630,5,2,0:0:0:0:
400,240,226750,1,0,0:0:0:0:
468,240,226870,1,0,0:0:0:0:
176,240,227110,1,8,0:0:0:0:
332,240,227350,2,0,P|356:192|316:156,1,112.5,0|2,0:0|0:0,0:0:0:0:
136,156,227830,1,2,0:0:0:0:
428,156,228070,1,8,0:0:0:0:
280,156,228310,1,4,0:0:0:0:
380,156,228430,1,4,0:0:0:0:
172,64,228550,6,0,L|56:64,1,112.5,2|0,0:0|0:0,0:0:0:0:
352,32,229030,2,0,L|464:32,1,112.5,8|0,0:0|0:0,0:0:0:0:
260,112,229510,1,2,0:0:0:0:
416,192,229750,2,0,L|352:192,1,56.25,2|2,0:0|0:0,0:0:0:0:
156,260,229990,2,0,L|224:260,1,56.25,8|0,0:0|0:0,0:0:0:0:
324,324,230230,2,0,L|252:324,1,56.25,2|0,0:0|0:0,0:0:0:0:
368,192,230470,5,2,0:0:0:0:
172,192,230590,2,0,L|56:192,1,112.5,8|2,0:0|0:0,0:0:0:0:
256,192,230950,1,8,0:0:0:0:
96,108,231190,1,8,0:0:0:0:
288,108,231310,1,8,0:0:0:0:
208,108,231430,5,2,0:0:0:0:
408,108,231550,2,0,L|324:108,1,78.7500007510185,8|0,0:0|0:0,0:0:0:0:
432,36,231790,1,2,0:0:0:0:
228,36,231910,1,4,0:0:0:0:
400,36,232150,1,0,0:0:0:0:
92,36,232390,6,0,B|36:36|36:36|8:88,1,112.5,4|0,0:0|0:0,0:0:0:0:
320,116,232870,1,8,0:0:0:0:
28,112,233110,1,0,0:0:0:0:
364,116,233350,2,0,L|476:116,1,112.5,2|0,0:0|0:0,0:0:0:0:
184,192,233830,1,8,0:0:0:0:
352,192,234070,1,0,0:0:0:0:
48,192,234310,6,0,P|16:236|48:276,1,112.5,2|0,0:0|0:0,0:0:0:0:
340,276,234790,2,0,L|456:276,1,112.5,8|0,0:0|0:0,0:0:0:0:
160,192,235270,1,2,0:0:0:0:
328,192,235510,1,2,0:0:0:0:
24,192,235750,1,8,0:0:0:0:
180,192,235990,1,8,0:0:0:0:
248,192,236110,1,8,0:0:0:0:
456,192,236230,6,0,B|428:144|428:144|372:144,1,112.5,4|0,0:0|0:0,0:0:0:0:
68,144,236710,1,8,0:0:0:0:
236,144,236950,1,0,0:0:0:0:
20,144,237190,2,0,L|20:32,1,112.5,2|0,0:0|0:0,0:0:0:0:
324,144,237670,2,0,L|324:32,1,112.5,8|0,0:0|0:0,0:0:0:0:
108,32,238150,6,0,L|224:32,1,112.5,2|2,0:0|0:0,0:0:0:0:
300,32,238510,1,2,0:0:0:0:
100,96,238630,1,8,0:0:0:0:
256,96,238870,1,2,0:0:0:0:
52,96,239110,1,2,0:0:0:0:
344,96,239350,1,2,0:0:0:0:
52,96,239590,1,8,0:0:0:0:
188,96,239830,1,4,0:0:0:0:
120,96,239950,1,4,0:0:0:0:
336,192,240070,6,0,L|448:192,1,112.5,4|0,0:0|0:0,0:0:0:0:
140,264,240550,2,0,L|228:192,1,112.5,8|0,0:0|0:0,0:0:0:0:
24,192,241030,1,2,0:0:0:0:
180,192,241270,1,0,0:0:0:0:
496,264,241510,2,0,L|376:264,1,112.5,8|0,0:0|0:0,0:0:0:0:
316,264,241870,1,0,0:0:0:0:
116,192,241990,6,0,L|4:192,1,112.5,2|0,0:0|0:0,0:0:0:0:
296,192,242470,1,8,0:0:0:0:
136,192,242710,1,0,0:0:0:0:
360,192,242950,1,2,0:0:0:0:
156,192,243190,1,2,0:0:0:0:
448,192,243430,1,8,0:0:0:0:
132,192,243670,2,0,L|72:192,1,56.25,8|8,0:0|0:0,0:0:0:0:
360,192,243910,6,0,L|484:192,1,112.5,4|0,0:0|0:0,0:0:0:0:
176,112,244390,1,8,0:0:0:0:
332,112,244630,1,0,0:0:0:0:
152,112,244870,1,2,0:0:0:0:
356,192,245110,2,0,L|280:192,1,56.25,2|0,0:0|0:0,0:0:0:0:
100,112,245350,1,8,0:0:0:0:
236,112,245590,2,0,L|296:112,1,56.25,4|4,0:0|0:0,0:0:0:0:
496,192,245830,5,2,0:0:0:0:
296,192,245950,2,0,B|184:192,1,112.5,8|2,0:0|0:0,0:0:0:0:
384,80,246310,1,8,0:0:0:0:
220,80,246550,2,0,L|276:80,1,56.25,8|8,0:0|0:0,0:0:0:0:
480,192,246790,5,8,0:0:0:0:
397,225,246910,1,8,0:0:0:0:
396,313,247030,1,8,0:0:0:0:
477,349,247150,1,8,0:0:0:0:
276,192,247270,5,4,0:0:0:0:
358,225,247390,1,4,0:0:0:0:
359,313,247510,1,4,0:0:0:0:
278,349,247630,1,4,0:0:0:0:
76,192,247750,6,0,B|20:192|20:192|20:256,1,112.5,4|0,0:0|0:0,0:0:0:0:
312,248,248230,1,8,0:0:0:0:
156,248,248470,2,0,P|136:188|160:148,1,112.5,0|2,0:0|0:0,0:0:0:0:
364,148,248950,1,2,0:0:0:0:
72,148,249190,2,0,L|16:148,1,56.25,8|0,0:0|0:0,0:0:0:0:
100,80,249430,2,0,L|160:80,1,56.25,2|2,0:0|0:0,0:0:0:0:
356,80,249670,6,0,L|468:80,1,112.5,2|0,0:0|0:0,0:0:0:0:
176,80,250150,2,0,L|236:80,1,56.25,8|0,0:0|0:0,0:0:0:0:
312,80,250390,1,4,0:0:0:0:
397,102,250510,1,4,0:0:0:0:
176,80,250630,1,2,0:0:0:0:
128,136,250750,1,2,0:0:0:0:
128,204,250870,1,2,0:0:0:0:
189,249,250990,1,2,0:0:0:0:
388,248,251110,2,0,L|280:212,1,112.5,8|4,0:0|0:0,0:0:0:0:
212,212,251470,1,4,0:0:0:0:
412,92,251590,6,0,B|472:92|472:92|472:40,1,112.5,4|0,0:0|0:0,0:0:0:0:
180,20,252070,1,8,0:0:0:0:
340,92,252310,1,0,0:0:0:0:
160,164,252550,1,2,0:0:0:0:
228,164,252670,1,0,0:0:0:0:
160,164,252790,1,4,0:0:0:0:
92,164,252910,1,4,0:0:0:0:
292,164,253030,2,0,L|404:164,1,112.5,8|0,0:0|0:0,0:0:0:0:
336,232,253390,1,0,0:0:0:0:
136,92,253510,6,0,L|192:92,1,56.25,2|0,0:0|0:0,0:0:0:0:
304,164,253750,2,0,L|248:164,1,56.25,2|2,0:0|0:0,0:0:0:0:
48,164,253990,1,8,0:0:0:0:
208,244,254230,2,0,L|132:244,1,56.25,2|0,0:0|0:0,0:0:0:0:
264,312,254470,2,0,L|204:312,1,56.25,2|2,0:0|0:0,0:0:0:0:
96,372,254710,2,0,L|156:372,1,56.25,2|0,0:0|0:0,0:0:0:0:
352,372,254950,1,8,0:0:0:0:
172,180,255190,2,0,L|112:180,1,56.25,4|4,0:0|0:0,0:0:0:0:
316,248,255430,6,0,L|428:248,1,112.5,4|0,0:0|0:0,0:0:0:0:
136,248,255910,1,8,0:0:0:0:
296,248,256150,1,4,0:0:0:0:
372,192,256270,1,4,0:0:0:0:
248,192,256390,1,2,0:0:0:0:
192,132,256510,1,0,0:0:0:0:
316,28,256630,1,2,0:0:0:0:
237,56,256750,1,0,0:0:0:0:
440,112,256870,2,0,P|473:161|440:224,1,112.5,8|0,0:0|0:0,0:0:0:0:
392,208,257230,1,0,0:0:0:0:
188,248,257350,6,0,L|76:248,1,112.5,2|0,0:0|0:0,0:0:0:0:
368,248,257830,1,8,0:0:0:0:
220,248,258070,1,0,0:0:0:0:
124,248,258190,1,0,0:0:0:0:
124,168,258310,1,2,0:0:0:0:
208,168,258430,1,4,0:0:0:0:
408,172,258550,1,4,0:0:0:0:
116,96,258790,2,0,B|60:96|60:96|60:36,1,112.5,8|4,0:0|0:0,0:0:0:0:
140,40,259150,1,4,0:0:0:0:
340,192,259270,6,0,B|452:192,1,112.5,4|0,0:0|0:0,0:0:0:0:
160,192,259750,1,8,0:0:0:0:
320,120,259990,1,0,0:0:0:0:
140,120,260230,1,4,0:0:0:0:
252,120,260350,1,4,0:0:0:0:
364,120,260470,1,2,0:0:0:0:
72,120,260710,1,8,0:0:0:0:
248,192,260950,2,0,L|304:192,1,56.25,2|2,0:0|0:0,0:0:0:0:
104,192,261190,5,2,0:0:0:0:
332,192,261310,2,0,L|444:172,1,112.5,8|2,0:0|0:0,0:0:0:0:
200,116,261670,1,8,0:0:0:0:
356,116,261910,1,8,0:0:0:0:
256,116,262030,1,8,0:0:0:0:
356,116,262150,1,2,0:0:0:0:
136,192,262270,2,0,L|20:192,1,112.5,8|2,0:0|0:0,0:0:0:0:
308,68,262630,2,0,B|416:68|416:68|416:164,1,202.500007724762,4|0,0:0|0:0,0:0:0:0:
192,264,263110,6,0,L|52:264,1,135.000005149842,4|0,0:0|0:0,0:0:0:0:
404,192,263590,1,8,0:0:0:0:
280,192,263830,1,0,0:0:0:0:
480,128,264070,2,0,L|492:36,1,90,2|0,0:0|0:0,0:0:0:0:
200,36,264550,1,0,0:0:0:0:
147,51,264670,1,0,0:0:0:0:
122,100,264790,1,0,0:0:0:0:
139,151,264910,1,0,0:0:0:0:
244,36,265030,6,0,L|336:36,1,90,2|0,0:0|0:0,0:0:0:0:
44,104,265510,1,8,0:0:0:0:
188,104,265750,1,0,0:0:0:0:
8,176,265990,2,0,L|96:192,1,90,2|2,0:0|0:0,0:0:0:0:
388,192,266470,1,8,0:0:0:0:
272,192,266710,2,0,L|208:192,1,45,2|0,0:0|0:0,0:0:0:0:
416,192,266950,6,0,L|496:152,1,90,2|0,0:0|0:0,0:0:0:0:
204,116,267430,1,8,0:0:0:0:
328,116,267670,2,0,L|376:116,1,45
328,116,267910,1,8,0:0:0:0:
272,105,268030,1,8,0:0:0:0:
266,50,268150,1,8,0:0:0:0:
317,27,268270,1,8,0:0:0:0:
496,28,268390,2,0,L|400:28,1,90,8|8,0:0|0:0,0:0:0:0:
344,28,268750,1,8,0:0:0:0:
164,28,268870,6,0,L|72:28,1,90,2|0,0:0|0:0,0:0:0:0:
364,96,269350,1,8,0:0:0:0:
220,96,269590,1,2,0:0:0:0:
400,168,269830,1,8,0:0:0:0:
452,168,269950,1,8,0:0:0:0:
504,168,270070,1,4,0:0:0:0:
200,168,270310,2,0,L|136:168,1,45,8|0,0:0|0:0,0:0:0:0:
92,232,270550,2,0,L|156:232,1,45,2|2,0:0|0:0,0:0:0:0:
308,232,270790,6,0,L|400:232,1,90,4|0,0:0|0:0,0:0:0:0:
108,168,271270,1,8,0:0:0:0:
252,168,271510,2,0,L|300:168,1,45
368,168,271750,2,0,L|340:216,1,45,8|8,0:0|0:0,0:0:0:0:
236,232,271990,2,0,L|208:280,1,45,8|8,0:0|0:0,0:0:0:0:
396,272,272230,2,0,L|486:272,1,90,8|8,0:0|0:0,0:0:0:0:
422,340,272590,1,8,0:0:0:0:
244,336,272710,6,0,L|148:336,1,90,2|0,0:0|0:0,0:0:0:0:
444,272,273190,1,8,0:0:0:0:
300,272,273430,2,0,L|252:272,1,45
300,272,273670,1,8,0:0:0:0:
352,268,273790,1,8,0:0:0:0:
396,236,273910,1,8,0:0:0:0:
396,184,274030,1,8,0:0:0:0:
216,184,274150,1,8,0:0:0:0:
376,120,274390,1,4,0:0:0:0:
84,120,274630,6,0,L|174:120,1,90,2|0,0:0|0:0,0:0:0:0:
464,192,275110,1,8,0:0:0:0:
328,192,275350,2,0,L|284:164,1,45
376,140,275590,2,0,L|408:104,1,45,8|8,0:0|0:0,0:0:0:0:
324,104,275830,2,0,L|280:104,1,45,8|8,0:0|0:0,0:0:0:0:
100,104,276070,2,0,L|10:104,1,90,8|8,0:0|0:0,0:0:0:0:
64,168,276430,1,8,0:0:0:0:
244,168,276550,6,0,L|340:168,1,90
44,232,277030,1,8,0:0:0:0:
40,296,277150,1,0,0:0:0:0:
84,340,277270,1,0,0:0:0:0:
148,344,277390,1,0,0:0:0:0:
328,264,277510,1,2,0:0:0:0:
392,279,277630,1,2,0:0:0:0:
420,340,277750,1,2,0:0:0:0:
108,268,277990,1,8,0:0:0:0:
436,192,278230,1,4,0:0:0:0:
144,280,278470,6,0,L|128:192,1,90,4|0,0:0|0:0,0:0:0:0:
420,192,278950,1,8,0:0:0:0:
256,192,279190,1,8,0:0:0:0:
201,181,279310,1,8,0:0:0:0:
155,148,279430,1,2,0:0:0:0:
126,101,279550,1,0,0:0:0:0:
119,45,279670,1,0,0:0:0:0:
412,40,279910,2,0,L|502:40,1,90,8|0,0:0|0:0,0:0:0:0:
208,192,280390,6,0,L|116:192,1,90,2|0,0:0|0:0,0:0:0:0:
412,192,280870,1,8,0:0:0:0:
268,276,281110,2,0,L|216:276,1,45
268,276,281350,1,8,0:0:0:0:
327,255,281470,1,8,0:0:0:0:
344,192,281590,1,8,0:0:0:0:
52,192,281830,2,0,L|4:192,2,45,8|0|8,0:0|0:0|0:0,0:0:0:0:
100,192,282190,1,8,0:0:0:0:
304,128,282310,6,0,L|408:128,1,90,2|0,0:0|0:0,0:0:0:0:
104,128,282790,1,8,0:0:0:0:
232,52,283030,2,0,L|281:52,1,45
360,128,283270,2,0,L|304:128,1,45,8|8,0:0|0:0,0:0:0:0:
232,128,283510,2,0,L|187:128,1,45,8|8,0:0|0:0,0:0:0:0:
368,192,283750,1,8,0:0:0:0:
240,192,283990,2,0,L|195:192,1,45,8|8,0:0|0:0,0:0:0:0:
376,292,284230,5,2,0:0:0:0:
248,292,284470,2,0,L|188:292,1,45
24,292,284710,1,8,0:0:0:0:
148,292,284950,1,0,0:0:0:0:
348,236,285190,2,0,L|352:180,1,45,2|2,0:0|0:0,0:0:0:0:
268,192,285430,2,0,L|236:160,1,45,2|2,0:0|0:0,0:0:0:0:
56,160,285670,2,0,L|108:160,1,45,8|0,0:0|0:0,0:0:0:0:
184,104,285910,2,0,L|136:104,1,45,2|0,0:0|0:0,0:0:0:0:
344,108,286150,6,0,L|440:108,1,90,2|0,0:0|0:0,0:0:0:0:
380,40,286510,1,0,0:0:0:0:
200,40,286630,1,8,0:0:0:0:
344,108,286870,1,0,0:0:0:0:
397,117,286990,1,0,0:0:0:0:
423,165,287110,1,2,0:0:0:0:
403,215,287230,1,8,0:0:0:0:
351,231,287350,1,8,0:0:0:0:
60,232,287590,2,0,L|160:232,1,90,8|2,0:0|0:0,0:0:0:0:
440,232,288070,5,2,0:0:0:0:
316,232,288310,2,0,L|264:232,1,45
68,232,288550,1,8,0:0:0:0:
196,308,288790,2,0,L|240:308,1,45
324,372,289030,2,0,L|276:372,1,45,2|2,0:0|0:0,0:0:0:0:
216,372,289270,1,2,0:0:0:0:
196,308,289390,1,0,0:0:0:0:
396,312,289510,1,8,0:0:0:0:
453,297,289630,1,8,0:0:0:0:
487,250,289750,1,8,0:0:0:0:
483,191,289870,1,8,0:0:0:0:
284,192,289990,5,2,0:0:0:0:
156,192,290230,2,0,L|200:192,1,45
404,192,290470,2,0,L|484:148,1,90,8|0,0:0|0:0,0:0:0:0:
420,152,290830,1,0,0:0:0:0:
220,120,290950,2,0,L|176:120,1,45,8|8,0:0|0:0,0:0:0:0:
112,120,291190,2,0,L|124:72,1,45,8|8,0:0|0:0,0:0:0:0:
328,80,291430,2,0,L|424:80,1,90,8|0,0:0|0:0,0:0:0:0:
128,192,291910,6,0,L|36:192,1,90,2|0,0:0|0:0,0:0:0:0:
328,192,292390,2,0,L|232:192,1,90,8|0,0:0|0:0,0:0:0:0:
420,252,292870,2,0,L|488:192,1,90,2|2,0:0|0:0,0:0:0:0:
196,192,293350,1,4,0:0:0:0:
308,276,293590,2,0,L|356:276,1,45
172,276,293830,6,0,P|146:232|148:144,1,135,2|0,0:0|0:0,0:0:0:0:
348,152,294310,1,8,0:0:0:0:
184,152,295030,1,0,0:0:0:0:
364,152,295270,2,0,L|368:48,1,90
188,64,295750,6,0,L|316:104,1,135,2|0,0:0|0:0,0:0:0:0:
116,104,296230,1,8,0:0:0:0:
332,104,296950,1,0,0:0:0:0:
40,104,297190,1,2,0:0:0:0:
132,176,297430,2,0,L|180:176,1,45
376,176,297670,6,0,P|424:208|376:236,1,135,2|0,0:0|0:0,0:0:0:0:
172,240,298150,1,8,0:0:0:0:
336,152,298870,1,0,0:0:0:0:
156,152,299110,2,0,L|68:112,1,90
256,24,299590,6,0,L|128:64,1,135,2|0,0:0|0:0,0:0:0:0:
328,64,300070,1,8,0:0:0:0:
112,192,300790,1,0,0:0:0:0:
404,192,301030,2,0,L|456:192,1,45,2|0,0:0|0:0,0:0:0:0:
360,252,301270,2,0,L|312:252,1,45
496,252,301510,6,0,B|496:344|496:344|448:344,1,135,2|0,0:0|0:0,0:0:0:0:
252,344,301990,1,8,0:0:0:0:
416,256,302710,1,0,0:0:0:0:
236,256,302950,2,0,L|304:192,1,90
484,192,303430,6,0,L|356:152,1,135,2|0,0:0|0:0,0:0:0:0:
156,152,303910,1,8,0:0:0:0:
376,104,304630,1,0,0:0:0:0:
84,104,304870,1,2,0:0:0:0:
176,176,305110,2,0,L|224:176,1,45
40,176,305350,6,0,P|0:220|40:272,1,135,2|0,0:0|0:0,0:0:0:0:
244,256,305830,1,8,0:0:0:0:
88,164,306550,1,0,0:0:0:0:
268,164,306790,2,0,L|372:132,1,90
172,88,307270,6,0,L|300:48,1,135,2|0,0:0|0:0,0:0:0:0:
96,52,307750,1,8,0:0:0:0:
364,180,308470,1,0,0:0:0:0:
72,180,308710,6,0,L|20:180,1,45,2|0,0:0|0:0,0:0:0:0:
296,248,308950,2,0,L|344:248,1,45
116,248,309190,5,2,0:0:0:0:
256,192,309430,12,0,311110,0:0:0:0:
