osu file format v14

[General]
AudioFilename: audio.mp3
AudioLeadIn: 0
PreviewTime: -1
Countdown: 0
SampleSet: Soft
StackLeniency: 0.3
Mode: 0
LetterboxInBreaks: 0
WidescreenStoryboard: 1

[Editor]
Bookmarks: 122086
DistanceSpacing: 1
BeatDivisor: 4
GridSize: 8
TimelineZoom: 2.5

[Metadata]
Title:Technicolor Beat (Urban Contact Remix)
TitleUnicode:Technicolor Beat (Urban Contact Remix)
Artist:Oh Wonder
ArtistUnicode:Oh Wonder
Creator:ScubDomino
Version:Monochromat
Source:Urban Contact
Tags:
BeatmapID:1419674
BeatmapSetID:671145

[Difficulty]
HPDrainRate:3
CircleSize:2
OverallDifficulty:2
ApproachRate:3
SliderMultiplier:1
SliderTickRate:1

[Events]
//Background and Video events
0,0,"sevnth_wonder___higher_love_by_jessicawoulfe-d8snl8r (1).jpg",0,0
//Break Periods
2,40857,41788
2,70857,76503
2,104285,110360
//Storyboard Layer 0 (Background)
//Storyboard Layer 1 (Fail)
//Storyboard Layer 2 (Pass)
//Storyboard Layer 3 (Foreground)
//Storyboard Sound Samples

[TimingPoints]
14086,428.571428571429,4,2,0,30,1,0
43228,-100,4,2,0,45,0,1
70657,-100,4,2,0,30,0,0
122086,-100,4,2,0,45,0,1
149514,-100,4,2,0,30,0,0

[Colours]
Combo1 : 193,193,193
Combo2 : 193,232,230
Combo3 : 154,176,201
Combo4 : 230,170,186

[HitObjects]
136,96,14514,6,0,P|154:50|137:4,2,100
89,188,15800,2,0,B|191:197|191:197|290:170|290:170|384:180,1,300,2|0,0:0|0:0,0:0:0:0:
473,228,17514,2,0,L|466:299,2,50
465,128,18371,2,0,L|471:56,2,50
384,180,19228,2,0,B|371:229|379:279|379:279|301:304|301:304|288:230|306:163|306:163|275:139|220:151,1,400,2|0,0:0|0:0,0:0:0:0:
135,168,21371,6,0,P|122:215|134:263,2,100
184,80,22657,2,0,B|272:86|331:44|331:44|378:102|479:117,1,300,2|0,0:0|0:0,0:0:0:0:
478,210,24371,2,0,L|472:273,2,50
381,237,25228,2,0,L|375:300,2,50
284,264,26086,1,2,0:0:0:0:
128,72,27800,5,0,0:0:0:0:
62,146,28228,2,0,P|110:170|161:165,1,100,0|4,0:0|0:0,0:0:0:0:
224,96,29086,1,0,0:0:0:0:
315,136,29514,2,0,B|323:80|323:80|300:33,2,100,0|0|2,0:0|0:0|0:0,0:0:0:0:
417,307,31228,2,0,B|470:324|470:324|521:310,2,100,0|0|4,0:0|0:0|0:0,0:0:0:0:
323,272,32514,1,0,0:0:0:0:
251,341,32943,2,0,P|226:283|234:233,1,100
297,174,33800,1,2,0:0:0:0:
113,252,34657,6,0,P|65:264|18:247,2,100,0|0|4,0:0|0:0|0:0,0:0:0:0:
161,164,35943,1,0,0:0:0:0:
208,75,36371,2,0,P|255:62|302:79,2,100,0|0|2,0:0|0:0|0:0,0:0:0:0:
392,144,38086,2,0,L|401:255,1,100
413,342,38943,1,4,0:0:0:0:
321,302,39371,1,0,0:0:0:0:
228,340,39800,2,0,L|128:331,1,100
28,322,40657,1,2,0:0:0:0:
177,284,43228,6,0,L|65:293,2,100,0|0|4,0:0|0:0|0:0,0:0:0:0:
253,219,44514,1,0,0:0:0:0:
329,154,44943,2,0,L|441:163,2,100,0|0|10,0:0|0:0|0:0,0:0:0:0:
146,236,46657,6,0,P|127:285|137:348,2,100,0|0|4,0:0|0:0|0:0,0:0:0:0:
287,95,48371,2,0,P|336:98|382:79,1,100
479,56,49228,2,0,P|475:105|494:151,1,100,2|0,0:0|0:0,0:0:0:0:
495,251,50086,6,0,L|503:350,2,100,0|0|4,0:0|0:0|0:0,0:0:0:0:
397,272,51371,1,0,0:0:0:0:
323,339,51800,2,0,L|223:347,2,100,0|0|10,0:0|0:0|0:0,0:0:0:0:
297,140,53514,2,0,P|320:183|316:241,2,100,0|0|4,0:0|0:0|0:0,0:0:0:0:
201,109,54800,1,0,0:0:0:0:
130,37,55228,2,0,B|95:54|95:54|47:47,2,75
171,9,56086,1,10,0:0:0:0:
32,152,56943,6,0,L|41:263,1,100
52,351,57800,1,4,0:0:0:0:
129,166,58657,2,0,L|240:175,1,100
328,186,59514,1,10,0:0:0:0:
268,376,60371,6,0,P|254:329|277:264,2,100,0|0|4,0:0|0:0|0:0,0:0:0:0:
355,327,61657,1,0,0:0:0:0:
443,373,62086,2,0,P|455:325|441:277,1,100
384,194,62943,2,0,P|369:146|382:98,1,100,10|0,0:0|0:0,0:0:0:0:
396,0,63800,6,0,L|296:8,1,100
197,25,64657,1,4,0:0:0:0:
36,144,65514,2,0,L|135:135,1,100
235,119,66371,1,10,0:0:0:0:
256,192,67228,12,0,70657,0:0:0:0:
0,184,77943,5,0,0:0:0:0:
26,87,78371,2,0,P|75:65|131:74,1,100,2|0,0:0|0:0,0:0:0:0:
192,144,79228,2,0,B|263:137|263:137|312:149|312:149|357:113|357:113|399:125|399:125|486:118,1,300
480,216,80943,2,0,L|473:287,2,50
384,208,81800,2,0,L|379:257,2,50,2|0|0,0:0|0:0|0:0,0:0:0:0:
288,192,82657,2,0,B|198:147|187:35|187:35|120:136|7:124,1,400,4|0,0:0|0:0,0:0:0:0:
0,224,84800,5,0,0:0:0:0:
40,312,85228,2,0,P|89:334|145:325,1,100,2|0,0:0|0:0,0:0:0:0:
221,280,86086,2,0,P|277:320|245:200,1,300,4|0,0:0|0:0,0:0:0:0:
176,160,87800,2,0,L|183:89,2,50
120,248,88657,2,0,L|115:297,2,50,2|0|0,0:0|0:0|0:0,0:0:0:0:
32,200,89514,2,0,P|16:152|32:104,1,100
120,56,90371,1,2,0:0:0:0:
296,144,91228,6,0,P|344:128|392:144,2,100,0|0|4,0:0|0:0|0:0,0:0:0:0:
264,240,92514,1,0,0:0:0:0:
232,336,92943,2,0,P|184:352|136:336,2,100,0|0|2,0:0|0:0|0:0,0:0:0:0:
419,266,94657,2,0,B|433:308|433:308|423:362,2,100,0|0|4,0:0|0:0|0:0,0:0:0:0:
381,173,95943,1,0,0:0:0:0:
315,97,96371,2,0,P|278:164|285:207,1,100
320,276,97228,1,2,0:0:0:0:
121,247,98086,5,0,0:0:0:0:
131,346,98514,2,0,P|72:337|40:305,1,100,0|4,0:0|0:0,0:0:0:0:
29,211,99371,1,0,0:0:0:0:
72,120,99800,2,0,B|115:89|115:89|176:91,2,100,0|0|2,0:0|0:0|0:0,0:0:0:0:
221,253,101514,2,0,L|229:153,1,100
241,54,102371,1,4,0:0:0:0:
427,133,103228,2,0,L|327:141,1,100
229,153,104085,1,2,0:0:0:0:
256,192,111800,12,0,118657,0:0:0:0:
71,131,122086,6,0,L|62:19,2,100,0|0|4,0:0|0:0|0:0,0:0:0:0:
152,189,123371,1,0,0:0:0:0:
234,246,123800,2,0,L|243:358,2,100,0|0|10,0:0|0:0|0:0,0:0:0:0:
361,91,125514,6,0,P|312:72|249:82,2,100,0|0|4,0:0|0:0|0:0,0:0:0:0:
402,181,126800,1,0,0:0:0:0:
423,278,127228,2,0,P|337:256|321:235,1,100
242,205,128086,2,0,P|229:264|201:295,1,100,10|0,0:0|0:0,0:0:0:0:
103,300,128943,6,0,L|-9:291,2,100,0|0|4,0:0|0:0|0:0,0:0:0:0:
159,217,130228,1,0,0:0:0:0:
213,132,130657,2,0,L|312:140,2,100,0|0|10,0:0|0:0|0:0,0:0:0:0:
229,331,132371,6,0,P|263:283|312:273,1,100
383,329,133228,1,4,0:0:0:0:
404,129,134086,2,0,B|414:171|414:171|397:218,2,75
392,80,134943,1,10,0:0:0:0:
244,214,135800,6,0,P|189:230|141:212,1,100
124,120,136657,1,4,0:0:0:0:
310,48,137514,2,0,P|365:32|413:50,1,100
430,142,138371,1,10,0:0:0:0:
304,304,139228,6,0,P|257:318|192:295,2,100,0|0|4,0:0|0:0|0:0,0:0:0:0:
254,109,140943,2,0,L|142:118,1,100
101,31,141800,2,0,L|200:22,1,100,10|0,0:0|0:0,0:0:0:0:
300,26,142657,6,0,P|338:68|342:131,1,100
304,200,143514,1,4,0:0:0:0:
164,343,144371,2,0,P|126:301|122:238,1,100
145,163,145228,1,10,0:0:0:0:
256,192,146086,12,0,149514,0:0:0:0:
