osu file format v14

[General]
AudioFilename: audio.mp3
AudioLeadIn: 0
PreviewTime: 85448
Countdown: 0
SampleSet: Soft
StackLeniency: 0.7
Mode: 2
LetterboxInBreaks: 0
WidescreenStoryboard: 0

[Editor]
Bookmarks: 14049,27764,54806,67663,85663,112705,139747,153660,180702,194223
DistanceSpacing: 0.9
BeatDivisor: 4
GridSize: 8
TimelineZoom: 1

[Metadata]
Title:Drive
TitleUnicode:Drive
Artist:Oh Wonder
ArtistUnicode:Oh Wonder
Creator:celerih
Version:Runaway
Source:
Tags:indie alt pop duo alternative 2015
BeatmapID:1426233
BeatmapSetID:673992

[Difficulty]
HPDrainRate:5
CircleSize:4.5
OverallDifficulty:8
ApproachRate:9
SliderMultiplier:1.9
SliderTickRate:1

[Events]
//Background and Video events
0,0,"Drive BG.jpg",0,0
//Break Periods
2,58434,67063
//Storyboard Layer 0 (Background)
//Storyboard Layer 1 (Fail)
//Storyboard Layer 2 (Pass)
//Storyboard Layer 3 (Foreground)
//Storyboard Sound Samples

[TimingPoints]
14050,428.571428571429,4,2,0,40,1,0
27764,422.535211267606,4,2,0,65,1,1
54806,428.571428571429,4,2,0,40,1,0
85663,422.535211267606,4,2,0,65,1,1
112705,-100,4,2,0,40,0,0
139747,434.782608695652,4,2,0,30,1,0
153660,422.535211267606,4,2,0,65,1,1
180702,-100,4,2,0,65,0,0

[HitObjects]
416,192,14049,6,0,L|200:192,1,190
120,192,14692,1,0,0:0:0:0:
344,112,14907,1,0,0:0:0:0:
128,48,15764,5,0,0:0:0:0:
80,120,15978,1,0,0:0:0:0:
88,208,16192,1,0,0:0:0:0:
144,272,16407,1,0,0:0:0:0:
232,304,16621,1,0,0:0:0:0:
336,200,17478,6,0,P|400:264|312:312,1,190
232,192,18121,1,0,0:0:0:0:
472,144,18336,1,0,0:0:0:0:
288,192,19193,5,0,0:0:0:0:
240,104,19406,1,0,0:0:0:0:
192,24,19621,1,0,0:0:0:0:
240,104,19835,1,0,0:0:0:0:
288,192,20050,1,0,0:0:0:0:
80,192,20907,6,0,L|296:192,1,190
368,192,21550,1,0,0:0:0:0:
144,120,21765,1,0,0:0:0:0:
384,48,22621,5,0,0:0:0:0:
432,120,22835,1,0,0:0:0:0:
424,208,23049,1,0,0:0:0:0:
368,272,23264,1,0,0:0:0:0:
280,304,23478,1,0,0:0:0:0:
184,192,24335,6,0,P|120:256|208:304,1,190
288,184,24978,1,0,0:0:0:0:
48,136,25193,1,0,0:0:0:0:
288,192,26050,6,0,L|512:192,1,190
360,104,26692,2,0,P|280:224|456:224,1,380
128,192,27764,5,0,0:0:0:0:
32,192,27975,1,0,0:0:0:0:
256,192,28186,2,0,L|368:168,1,95
48,192,28609,1,0,0:0:0:0:
160,128,28820,2,0,L|64:120,1,95
392,192,29242,6,0,L|208:128,1,190
128,192,29876,1,0,0:0:0:0:
336,192,30087,1,0,0:0:0:0:
32,192,30299,2,0,L|240:160,1,190
24,192,30933,1,0,0:0:0:0:
320,192,31144,5,0,0:0:0:0:
424,192,31355,1,0,0:0:0:0:
216,192,31566,2,0,L|104:160,1,95
432,120,31989,1,0,0:0:0:0:
328,280,32200,2,0,L|424:272,1,95
120,192,32622,6,0,P|56:144|136:88,1,190
224,192,33256,1,0,0:0:0:0:
416,192,33467,1,0,0:0:0:0:
120,272,33679,2,0,P|200:288|120:344,1,190
336,192,34313,1,0,0:0:0:0:
40,192,34524,5,0,0:0:0:0:
160,160,34735,1,0,0:0:0:0:
360,192,34946,2,0,L|424:112,1,95
120,192,35369,1,0,0:0:0:0:
224,192,35580,2,0,L|128:184,1,95
440,192,36002,6,0,L|224:168,1,190
144,192,36636,1,0,0:0:0:0:
328,192,36847,1,0,0:0:0:0:
32,192,37059,2,0,L|128:160,1,95
256,192,37482,1,0,0:0:0:0:
448,192,37693,1,0,0:0:0:0:
152,264,37904,5,0,0:0:0:0:
48,264,38115,1,0,0:0:0:0:
248,192,38326,2,0,L|368:176,1,95
32,112,38749,1,0,0:0:0:0:
160,144,38960,2,0,L|104:64,1,95
408,192,39383,6,0,P|472:144|384:96,1,190
304,192,40016,1,0,0:0:0:0:
112,192,40227,1,0,0:0:0:0:
416,192,40439,2,0,L|304:160,1,95
224,192,40862,1,0,0:0:0:0:
112,192,41073,1,0,0:0:0:0:
432,192,41285,5,0,0:0:0:0:
336,192,41496,1,0,0:0:0:0:
288,192,41602,1,0,0:0:0:0:
136,192,41707,2,0,L|32:176,1,95
352,104,42130,1,0,0:0:0:0:
464,72,42341,2,0,L|368:64,1,95
64,192,42763,6,0,L|272:160,1,190
360,192,43397,1,0,0:0:0:0:
176,248,43608,1,0,0:0:0:0:
472,192,43820,2,0,P|352:144|280:160,1,190
488,192,44454,1,0,0:0:0:0:
176,192,44665,5,0,0:0:0:0:
56,192,44876,1,0,0:0:0:0:
96,192,44982,1,0,0:0:0:0:
240,192,45087,2,0,L|336:176,1,95
32,112,45510,1,0,0:0:0:0:
136,192,45721,2,0,L|16:176,1,95
360,192,46143,6,0,L|136:160,1,190
272,192,46777,1,0,0:0:0:0:
72,192,46988,1,0,0:0:0:0:
376,192,47200,2,0,P|288:208|352:280,1,190
432,192,47834,1,0,0:0:0:0:
136,192,48045,5,0,0:0:0:0:
256,192,48256,1,0,0:0:0:0:
304,192,48362,1,0,0:0:0:0:
440,192,48467,2,0,L|336:160,1,95
48,192,48890,1,0,0:0:0:0:
152,144,49101,2,0,L|40:128,1,95
424,192,49524,6,0,P|336:152|248:208,1,190
368,240,50157,1,0,0:0:0:0:
176,192,50368,1,0,0:0:0:0:
472,104,50580,2,0,L|344:80,1,95
176,192,51003,1,0,0:0:0:0:
64,192,51214,1,0,0:0:0:0:
352,192,51425,5,0,0:0:0:0:
248,192,51636,1,0,0:0:0:0:
200,192,51742,1,0,0:0:0:0:
336,192,51847,2,0,L|448:176,1,95
112,144,52270,1,0,0:0:0:0:
224,192,52481,2,0,L|120:184,1,95
432,192,52904,6,0,P|480:120|384:96,1,190
320,192,53537,1,0,0:0:0:0:
128,192,53748,1,0,0:0:0:0:
424,192,53960,2,0,L|304:144,1,95
144,192,54383,1,0,0:0:0:0:
240,192,54594,1,0,0:0:0:0:
40,192,54806,5,0,0:0:0:0:
256,192,54913,12,0,58234,0:0:0:0:
368,192,67663,5,0,0:0:0:0:
160,192,68520,6,0,P|192:128|248:200,1,190
144,192,69163,1,0,0:0:0:0:
360,152,69377,1,0,0:0:0:0:
136,192,70234,6,0,L|440:128,1,285
192,192,71091,1,0,0:0:0:0:
440,192,71948,6,0,L|224:192,1,190
144,192,72591,1,0,0:0:0:0:
368,112,72806,1,0,0:0:0:0:
152,40,73663,5,0,0:0:0:0:
200,112,73877,1,0,0:0:0:0:
192,200,74091,1,0,0:0:0:0:
136,264,74306,1,0,0:0:0:0:
48,296,74520,1,0,0:0:0:0:
360,192,75377,6,0,P|296:256|384:288,1,190
464,192,76020,1,0,0:0:0:0:
248,144,76235,1,0,0:0:0:0:
424,192,77091,5,0,0:0:0:0:
376,104,77306,1,0,0:0:0:0:
328,24,77519,1,0,0:0:0:0:
376,104,77733,1,0,0:0:0:0:
424,192,77948,1,0,0:0:0:0:
96,192,78806,6,0,L|312:192,1,190
392,192,79449,1,0,0:0:0:0:
168,112,79664,1,0,0:0:0:0:
128,48,80520,5,0,0:0:0:0:
80,120,80734,1,0,0:0:0:0:
88,208,80948,1,0,0:0:0:0:
144,272,81163,1,0,0:0:0:0:
232,304,81377,1,0,0:0:0:0:
152,192,82234,6,0,P|216:256|128:288,1,190
48,192,82877,1,0,0:0:0:0:
264,144,83092,1,0,0:0:0:0:
400,192,83949,6,0,L|176:192,1,190
96,192,84591,1,0,0:0:0:0:
312,128,84806,2,0,P|272:216|160:120,1,285
464,192,85663,5,0,0:0:0:0:
360,192,85874,1,0,0:0:0:0:
144,192,86085,2,0,L|32:184,1,95
352,112,86508,1,0,0:0:0:0:
480,48,86719,2,0,L|384:40,1,95
80,192,87141,6,0,L|288:160,1,190
376,192,87775,1,0,0:0:0:0:
192,192,87986,1,0,0:0:0:0:
488,192,88198,2,0,L|264:136,1,190
128,192,88832,1,0,0:0:0:0:
416,192,89043,5,0,0:0:0:0:
512,192,89254,1,0,0:0:0:0:
320,128,89465,2,0,L|424:112,1,95
104,192,89888,1,0,0:0:0:0:
224,112,90099,2,0,L|128:120,1,95
424,192,90521,6,0,P|488:144|416:112,1,190
312,192,91155,1,0,0:0:0:0:
112,192,91366,1,0,0:0:0:0:
416,192,91578,2,0,L|208:152,1,190
48,192,92212,1,0,0:0:0:0:
344,192,92423,5,0,0:0:0:0:
448,192,92634,1,0,0:0:0:0:
240,192,92845,2,0,L|136:176,1,95
432,168,93268,1,0,0:0:0:0:
328,248,93479,2,0,L|424:240,1,95
112,192,93901,6,0,P|80:136|192:96,1,190
264,192,94535,1,0,0:0:0:0:
64,192,94746,1,0,0:0:0:0:
368,192,94958,2,0,L|496:176,1,95
264,192,95381,1,0,0:0:0:0:
472,192,95592,1,0,0:0:0:0:
168,192,95803,5,0,0:0:0:0:
280,192,96014,1,0,0:0:0:0:
88,192,96225,2,0,L|192:168,1,95
488,192,96648,1,0,0:0:0:0:
392,136,96859,2,0,L|472:72,1,95
152,192,97282,6,0,L|360:152,1,190
232,192,97915,1,0,0:0:0:0:
416,192,98126,1,0,0:0:0:0:
120,192,98338,2,0,L|8:168,1,95
224,104,98761,1,0,0:0:0:0:
112,104,98972,1,0,0:0:0:0:
400,192,99184,5,0,0:0:0:0:
296,192,99395,1,0,0:0:0:0:
248,192,99501,1,0,0:0:0:0:
384,192,99606,2,0,L|488:176,1,95
176,192,100029,1,0,0:0:0:0:
72,256,100240,2,0,L|176:264,1,95
472,192,100662,6,0,L|256:144,1,190
192,192,101296,1,0,0:0:0:0:
392,192,101507,1,0,0:0:0:0:
96,192,101719,2,0,P|32:144|104:88,1,190
192,192,102353,1,0,0:0:0:0:
480,192,102564,5,0,0:0:0:0:
384,192,102775,1,0,0:0:0:0:
336,192,102881,1,0,0:0:0:0:
200,192,102986,2,0,L|72:168,1,95
400,136,103409,1,0,0:0:0:0:
496,192,103620,2,0,L|400:184,1,95
112,192,104042,6,0,P|48:144|128:80,1,190
208,192,104676,1,0,0:0:0:0:
408,192,104887,1,0,0:0:0:0:
112,192,105099,2,0,L|328:160,1,190
96,192,105733,1,0,0:0:0:0:
392,192,105944,5,0,0:0:0:0:
496,112,106155,1,0,0:0:0:0:
456,112,106261,1,0,0:0:0:0:
320,192,106366,2,0,L|432:168,1,95
112,192,106789,1,0,0:0:0:0:
216,192,107000,2,0,L|104:176,1,95
432,192,107423,6,0,L|232:152,1,190
344,96,108056,1,0,0:0:0:0:
152,184,108267,1,0,0:0:0:0:
448,192,108479,2,0,L|336:176,1,95
240,192,108902,1,0,0:0:0:0:
448,192,109113,1,0,0:0:0:0:
152,192,109324,5,0,0:0:0:0:
256,192,109535,1,0,0:0:0:0:
304,192,109641,1,0,0:0:0:0:
432,192,109746,2,0,L|512:112,1,95
200,112,110169,1,0,0:0:0:0:
304,88,110380,2,0,L|400:80,1,95
96,192,110803,6,0,P|152:136|280:176,1,190
368,184,111436,1,0,0:0:0:0:
168,192,111647,1,0,0:0:0:0:
456,248,111859,2,0,L|336:232,1,95
56,192,112282,1,0,0:0:0:0:
168,192,112493,1,0,0:0:0:0:
464,192,112705,6,0,L|360:168,1,95
176,192,113127,1,0,0:0:0:0:
80,192,113339,1,0,0:0:0:0:
376,152,113550,2,0,P|440:232|368:288,1,190
288,288,114184,1,0,0:0:0:0:
96,192,114395,6,0,L|0:192,1,95
112,120,114817,2,0,L|208:120,1,95
400,192,115240,2,0,P|424:128|312:64,1,190
168,192,115874,1,0,0:0:0:0:
456,192,116085,6,0,L|256:160,1,190
168,192,116719,1,0,0:0:0:0:
352,96,116930,2,0,L|456:96,1,95
336,96,117353,1,0,0:0:0:0:
120,176,117564,6,0,L|344:160,1,190
200,96,118198,2,0,L|80:80,1,95
400,192,118620,2,0,P|456:256|392:328,1,190
208,192,119254,1,0,0:0:0:0:
488,192,119465,6,0,L|384:168,1,95
216,192,119887,1,0,0:0:0:0:
336,192,120099,1,0,0:0:0:0:
40,192,120310,2,0,L|232:152,1,190
336,200,120944,1,0,0:0:0:0:
136,104,121155,6,0,L|256:104,1,95
128,176,121577,2,0,L|32:176,1,95
328,192,122000,2,0,P|400:144|320:112,1,190
144,192,122634,1,0,0:0:0:0:
440,192,122845,6,0,L|240:160,1,190
144,192,123479,1,0,0:0:0:0:
344,144,123690,2,0,L|240:144,1,95
368,144,124113,1,0,0:0:0:0:
160,192,124324,6,0,P|256:232|336:200,1,190
448,192,124958,2,0,L|344:184,1,95
160,120,125380,2,0,P|248:128|208:208,1,190
32,192,126014,1,0,0:0:0:0:
344,192,126226,6,0,L|456:176,1,95
240,112,126648,1,0,0:0:0:0:
336,112,126860,1,0,0:0:0:0:
64,192,127071,2,0,L|264:160,1,190
360,192,127705,1,0,0:0:0:0:
160,288,127916,6,0,L|64:288,1,95
176,208,128338,2,0,L|80:208,1,95
368,192,128761,2,0,P|448:144|400:72,1,190
312,192,129395,1,0,0:0:0:0:
24,192,129606,6,0,L|224:160,1,190
328,192,130240,1,0,0:0:0:0:
136,248,130451,2,0,L|240:248,1,95
120,248,130874,1,0,0:0:0:0:
416,192,131085,6,0,P|480:144|400:80,1,190
321,192,131719,2,0,L|425:192,1,95
112,192,132141,2,0,P|80:112|176:96,1,190
360,192,132775,1,0,0:0:0:0:
64,192,132986,6,0,L|168:168,1,95
352,192,133408,1,0,0:0:0:0:
456,192,133620,1,0,0:0:0:0:
168,192,133831,2,0,P|72:168|40:64,1,190
152,184,134465,1,0,0:0:0:0:
352,192,134676,6,0,L|256:192,1,95
360,128,135098,2,0,L|464:128,1,95
152,192,135521,2,0,L|336:136,1,190
136,192,136155,1,0,0:0:0:0:
432,192,136366,6,0,L|232:160,1,190
128,192,137000,1,0,0:0:0:0:
320,104,137211,2,0,L|424:104,1,95
304,104,137634,1,0,0:0:0:0:
24,192,137845,6,0,L|248:176,1,190
328,192,138479,1,0,0:0:0:0:
144,104,138691,1,0,0:0:0:0:
432,192,138901,6,0,P|496:240|416:304,1,190
144,192,139535,1,0,0:0:0:0:
376,192,140616,5,0,0:0:0:0:
160,192,142355,5,0,0:0:0:0:
384,192,144094,5,0,0:0:0:0:
240,192,145833,6,0,P|344:152|240:128,1,285
56,192,146703,6,0,L|448:152,1,380
288,192,148442,6,0,P|88:136|104:264,1,380
376,192,150181,6,0,B|184:176|184:176|96:152|128:40|200:56,1,380
464,192,151920,6,0,L|80:240,1,380
288,272,153007,1,0,0:0:0:0:
384,224,153225,1,0,0:0:0:0:
480,184,153442,1,0,0:0:0:0:
168,192,153660,5,0,0:0:0:0:
264,192,153871,1,0,0:0:0:0:
216,192,153977,1,0,0:0:0:0:
96,192,154082,2,0,L|-16:176,1,95
304,192,154505,1,0,0:0:0:0:
408,136,154716,2,0,L|512:144,1,95
208,192,155138,6,0,P|144:136|216:80,1,190
320,192,155772,1,0,0:0:0:0:
128,192,155983,1,0,0:0:0:0:
424,192,156195,2,0,L|200:136,1,190
40,192,156829,1,0,0:0:0:0:
328,192,157040,5,0,0:0:0:0:
224,192,157251,1,0,0:0:0:0:
176,192,157357,1,0,0:0:0:0:
40,192,157462,2,0,L|152:176,1,95
424,136,157885,1,0,0:0:0:0:
320,192,158096,2,0,L|416:184,1,95
120,192,158518,6,0,P|64:128|136:80,1,190
240,192,159152,1,0,0:0:0:0:
32,192,159363,1,0,0:0:0:0:
328,192,159575,2,0,L|112:160,1,190
344,192,160209,1,0,0:0:0:0:
48,192,160420,5,0,0:0:0:0:
152,192,160631,1,0,0:0:0:0:
192,192,160737,1,0,0:0:0:0:
328,192,160842,2,0,L|440:168,1,95
128,192,161265,1,0,0:0:0:0:
232,192,161476,2,0,L|120:176,1,95
440,192,161898,6,0,P|496:152|424:80,1,190
328,80,162532,1,0,0:0:0:0:
136,192,162743,1,0,0:0:0:0:
448,192,162955,2,0,L|336:176,1,95
256,192,163378,1,0,0:0:0:0:
448,192,163589,1,0,0:0:0:0:
152,192,163800,5,0,0:0:0:0:
48,192,164012,1,0,0:0:0:0:
96,192,164117,1,0,0:0:0:0:
232,192,164222,2,0,L|344:176,1,95
32,192,164645,1,0,0:0:0:0:
128,112,164856,2,0,L|224:104,1,95
496,192,165279,6,0,L|264:176,1,190
200,192,165912,1,0,0:0:0:0:
400,104,166123,1,0,0:0:0:0:
112,192,166335,2,0,L|240:176,1,95
304,192,166758,1,0,0:0:0:0:
104,192,166969,1,0,0:0:0:0:
400,192,167181,5,0,0:0:0:0:
296,192,167392,1,0,0:0:0:0:
248,192,167498,1,0,0:0:0:0:
112,192,167603,2,0,L|216:176,1,95
496,192,168026,1,0,0:0:0:0:
392,128,168237,2,0,L|496:136,1,95
192,192,168659,6,0,P|128:128|192:80,1,190
288,192,169293,1,0,0:0:0:0:
96,192,169504,1,0,0:0:0:0:
400,192,169716,2,0,P|432:136|336:72,1,190
160,192,170350,1,0,0:0:0:0:
448,192,170561,5,0,0:0:0:0:
336,192,170772,1,0,0:0:0:0:
288,192,170878,1,0,0:0:0:0:
152,192,170983,2,0,L|24:168,1,95
352,120,171406,1,0,0:0:0:0:
448,192,171617,2,0,L|344:168,1,95
56,192,172039,6,0,P|96:120|208:128,1,190
304,192,172673,1,0,0:0:0:0:
112,192,172884,1,0,0:0:0:0:
408,192,173096,2,0,L|192:160,1,190
408,120,173730,1,0,0:0:0:0:
112,192,173941,5,0,0:0:0:0:
216,144,174152,1,0,0:0:0:0:
264,144,174258,1,0,0:0:0:0:
400,192,174363,2,0,L|512:168,1,95
200,192,174786,1,0,0:0:0:0:
96,136,174997,2,0,L|-8:120,1,95
288,192,175420,6,0,P|352:248|272:296,1,190
192,192,176053,1,0,0:0:0:0:
400,192,176264,1,0,0:0:0:0:
104,192,176476,2,0,L|296:160,1,190
96,192,177110,1,0,0:0:0:0:
392,192,177321,5,0,0:0:0:0:
288,192,177532,1,0,0:0:0:0:
240,192,177638,1,0,0:0:0:0:
104,192,177743,2,0,L|-16:176,1,95
336,192,178166,1,0,0:0:0:0:
240,136,178377,2,0,L|336:128,1,95
48,192,178800,6,0,L|272:176,1,190
352,192,179433,1,0,0:0:0:0:
160,112,179644,1,0,0:0:0:0:
448,192,179856,2,0,L|328:176,1,95
56,192,180279,1,0,0:0:0:0:
152,192,180490,1,0,0:0:0:0:
432,192,180702,6,0,L|304:168,1,95
240,192,181124,2,0,L|336:176,1,95
144,112,181547,1,0,0:0:0:0:
56,192,181758,1,0,0:0:0:0:
144,280,181969,1,0,0:0:0:0:
440,192,182181,6,0,L|336:176,1,95
256,192,182603,2,0,L|152:176,1,95
264,192,183026,1,0,0:0:0:0:
72,192,183237,2,0,L|192:160,1,95
376,192,183660,1,0,0:0:0:0:
136,192,184082,6,0,L|248:168,1,95
328,192,184504,2,0,L|232:184,1,95
424,120,184927,1,0,0:0:0:0:
504,200,185138,1,0,0:0:0:0:
424,120,185349,1,0,0:0:0:0:
120,192,185561,6,0,L|16:192,1,95
128,112,185983,2,0,L|232:104,1,95
120,112,186406,1,0,0:0:0:0:
312,192,186617,2,0,L|200:176,1,95
416,144,187040,2,0,L|512:128,1,95
216,192,187462,6,0,L|104:176,1,95
224,120,187884,2,0,L|128:104,1,95
336,128,188307,1,0,0:0:0:0:
424,192,188518,1,0,0:0:0:0:
336,128,188729,1,0,0:0:0:0:
32,192,188941,6,0,L|136:168,1,95
224,192,189363,2,0,L|128:168,1,95
232,192,189786,1,0,0:0:0:0:
440,192,189997,2,0,L|328:168,1,95
152,152,190420,1,0,0:0:0:0:
352,192,190843,6,0,L|464:168,1,95
344,192,191265,2,0,L|240:168,1,95
48,144,191688,1,0,0:0:0:0:
136,200,191899,1,0,0:0:0:0:
48,144,192110,1,0,0:0:0:0:
336,192,192322,6,0,L|440:192,1,95
328,192,192744,2,0,L|224:160,1,95
144,192,193167,1,0,0:0:0:0:
352,192,193378,2,0,L|464:176,1,95
248,160,193800,2,0,L|128:144,1,95
