osu file format v14

[General]
AudioFilename: audio.mp3
AudioLeadIn: 0
PreviewTime: 72584
Countdown: 0
SampleSet: Soft
StackLeniency: 0.7
Mode: 3
LetterboxInBreaks: 0
SpecialStyle: 0
WidescreenStoryboard: 0

[Editor]
Bookmarks: 22203,41116,134377,210029,233508,273942,294812,306513,327383,337818
DistanceSpacing: 1.5
BeatDivisor: 4
GridSize: 4
TimelineZoom: 2.9

[Metadata]
Title:winter tale
TitleUnicode:winter tale
Artist:Ogura Yui
ArtistUnicode:小倉唯
Creator:Remuring
Version:
Source:
Tags:christmas xmas Future Strike ViVid Strike!
BeatmapID:1639203
BeatmapSetID:780305

[Difficulty]
HPDrainRate:5
CircleSize:7
OverallDifficulty:5
ApproachRate:5
SliderMultiplier:1.4
SliderTickRate:1

[Events]
//Background and Video events
0,0,"890609.jpg",0,0
//Break Periods
//Storyboard Layer 0 (Background)
//Storyboard Layer 1 (Fail)
//Storyboard Layer 2 (Pass)
//Storyboard Layer 3 (Foreground)
//Storyboard Sound Samples

[TimingPoints]
682,326.086956521739,4,2,1,50,1,0
39812,-66.6666666666667,4,2,1,50,0,0
39893,-200,4,2,1,50,0,0
39912,-66.6666666666667,4,2,1,50,0,0
39975,-66.6666666666667,4,2,1,50,0,0
40056,-200,4,2,1,50,0,0
40138,-66.6666666666667,4,2,1,50,0,0
40219,-200,4,2,1,50,0,0
40301,-100,4,2,1,50,0,0
40464,-200,4,2,1,50,0,0
40627,-66.6666666666667,4,2,1,50,0,0
40790,-200,4,2,1,50,0,0
40953,-66.6666666666667,4,2,1,50,0,0
41116,-100,4,2,1,50,0,0
101116,-66.6666666666667,4,2,1,50,0,0
101197,-200,4,2,1,50,0,0
101279,-66.6666666666667,4,2,1,50,0,0
101360,-200,4,2,1,50,0,0
101442,-66.6666666666667,4,2,1,50,0,0
101523,-200,4,2,1,50,0,0
101605,-100,4,2,1,50,0,0
101768,-200,4,2,1,50,0,0
101931,-66.6666666666667,4,2,1,50,0,0
102094,-200,4,2,1,50,0,0
102257,-66.6666666666667,4,2,1,50,0,0
102420,-100,4,2,1,50,0,0
209992,326.086956521739,4,2,1,50,1,0
211296,-66.6666666666667,4,2,1,50,0,0
211377,-200,4,2,1,50,0,0
211459,-66.6666666666667,4,2,1,50,0,0
211540,-200,4,2,1,50,0,0
211622,-100,4,2,1,50,0,0
212274,-58.8235294117647,4,2,1,50,0,0
212356,-333.333333333333,4,2,1,50,0,0
212600,-100,4,2,1,50,0,0
250426,-66.6666666666667,4,2,1,50,0,0
250507,-200,4,2,1,50,0,0
250589,-66.6666666666667,4,2,1,50,0,0
250670,-200,4,2,1,50,0,0
250752,-66.6666666666667,4,2,1,50,0,0
250833,-200,4,2,1,50,0,0
250915,-100,4,2,1,50,0,0
251078,-200,4,2,1,50,0,0
251241,-66.6666666666667,4,2,1,50,0,0
251404,-200,4,2,1,50,0,0
251567,-66.6666666666667,4,2,1,50,0,0
251730,-100,4,2,1,50,0,0
260698,-58.8235294117647,4,2,1,50,0,0
260780,-333.333333333333,4,2,1,50,0,0
261024,-58.8235294117647,4,2,1,50,0,0
261113,-333.333333333333,4,2,1,50,0,0
261350,-58.8235294117647,4,2,1,50,0,0
261432,-333.333333333333,4,2,1,50,0,0
261676,-66.6666666666667,4,2,1,50,0,0
261758,-200,4,2,1,50,0,0
261839,-58.8235294117647,4,2,1,50,0,0
261921,-333.333333333333,4,2,1,50,0,0
262165,-111.111111111111,4,2,1,50,0,0
267383,-100,4,2,1,50,0,0
271133,-58.8235294117647,4,2,1,50,0,0
271215,-333.333333333333,4,2,1,50,0,0
271459,-58.8235294117647,4,2,1,50,0,0
271548,-333.333333333333,4,2,1,50,0,0
271785,-58.8235294117647,4,2,1,50,0,0
271867,-333.333333333333,4,2,1,50,0,0
272111,-66.6666666666667,4,2,1,50,0,0
272193,-200,4,2,1,50,0,0
272274,-66.6666666666667,4,2,1,50,0,0
272356,-200,4,2,1,50,0,0
272437,-58.8235294117647,4,2,1,50,0,0
272519,-333.333333333333,4,2,1,50,0,0
272763,-66.6666666666667,4,2,1,50,0,0
272845,-200,4,2,1,50,0,0
272926,-100,4,2,1,50,0,0
293470,-66.6666666666667,4,2,1,50,0,0
293551,-200,4,2,1,50,0,0
293633,-66.6666666666667,4,2,1,50,0,0
293714,-200,4,2,1,50,0,0
293796,-66.6666666666667,4,2,1,50,0,0
293877,-200,4,2,1,50,0,0
293959,-100,4,2,1,50,0,0
294122,-200,4,2,1,50,0,0
294285,-66.6666666666667,4,2,1,50,0,0
294448,-200,4,2,1,50,0,0
294611,-66.6666666666667,4,2,1,50,0,0
294774,-100,4,2,1,50,0,0
299665,-58.8235294117647,4,2,1,50,0,0
299754,-333.333333333333,4,2,1,50,0,0
299992,-100,4,2,1,50,0,0
302600,-66.6666666666667,4,2,1,50,0,0
302681,-200,4,2,1,50,0,0
302763,-66.6666666666667,4,2,1,50,0,0
302844,-200,4,2,1,50,0,0
302926,-66.6666666666667,4,2,1,50,0,0
303007,-200,4,2,1,50,0,0
303252,-66.6666666666667,4,2,1,50,0,0
303333,-200,4,2,1,50,0,0
303415,-66.6666666666667,4,2,1,50,0,0
303496,-200,4,2,1,50,0,0
303578,-66.6666666666667,4,2,1,50,0,0
303659,-200,4,2,1,50,0,0
303905,-66.6666666666667,4,2,1,50,0,0
303986,-200,4,2,1,50,0,0
304068,-66.6666666666667,4,2,1,50,0,0
304149,-200,4,2,1,50,0,0
304231,-66.6666666666667,4,2,1,50,0,0
304312,-200,4,2,1,50,0,0
304557,-66.6666666666667,4,2,1,50,0,0
304638,-200,4,2,1,50,0,0
304883,-66.6666666666667,4,2,1,50,0,0
304964,-200,4,2,1,50,0,0
305209,-100,4,2,1,50,0,0
336513,-66.6666666666667,4,2,1,50,0,0
336594,-200,4,2,1,50,0,0
336676,-66.6666666666667,4,2,1,50,0,0
336757,-200,4,2,1,50,0,0
336839,-100,4,2,1,50,0,0
337491,-58.8235294117647,4,2,1,50,0,0
337573,-333.333333333333,4,2,1,50,0,0
337817,-100,4,2,1,50,0,0

[HitObjects]
182,192,192,5,0,0:0:0:0:
256,192,355,1,0,0:0:0:0:
329,192,518,1,0,0:0:0:0:
402,192,682,1,0,0:0:0:0:
36,192,682,1,0,0:0:0:0:
475,192,682,128,0,1171:0:0:0:0:
109,192,736,1,0,0:0:0:0:
182,192,790,1,0,0:0:0:0:
329,192,1171,128,0,1334:0:0:0:0:
182,192,1171,1,0,0:0:0:0:
475,192,1334,128,0,1660:0:0:0:0:
36,192,1334,1,0,0:0:0:0:
402,192,1660,128,0,1823:0:0:0:0:
182,192,1660,1,0,0:0:0:0:
329,192,1823,128,0,2638:0:0:0:0:
109,192,1823,1,0,0:0:0:0:
36,192,1986,1,0,0:0:0:0:
256,192,1986,1,0,0:0:0:70:BeLL.wav
475,192,1986,1,0,0:0:0:0:
182,192,2638,1,0,0:0:0:0:
36,192,2638,1,0,0:0:0:0:
329,192,2801,1,0,0:0:0:0:
256,192,2964,1,0,0:0:0:0:
182,192,3127,1,0,0:0:0:0:
36,192,3290,128,0,3779:0:0:0:0:
109,192,3290,1,0,0:0:0:0:
475,192,3290,1,0,0:0:0:0:
182,192,3779,128,0,3942:0:0:0:0:
329,192,3779,1,0,0:0:0:0:
36,192,3942,128,0,4268:0:0:0:0:
475,192,3942,1,0,0:0:0:0:
109,192,4268,128,0,4431:0:0:0:0:
329,192,4268,1,0,0:0:0:0:
182,192,4431,128,0,5247:0:0:0:0:
402,192,4431,1,0,0:0:0:0:
475,192,4595,1,0,0:0:0:0:
36,192,4595,1,0,0:0:0:0:
402,192,4649,1,0,0:0:0:0:
329,192,4703,1,0,0:0:0:0:
329,192,5247,1,0,0:0:0:0:
475,192,5247,1,0,0:0:0:0:
182,192,5410,1,0,0:0:0:0:
256,192,5573,1,0,0:0:0:0:
329,192,5736,1,0,0:0:0:0:
402,192,5899,1,0,0:0:0:0:
36,192,5899,1,0,0:0:0:0:
475,192,5899,128,0,6388:0:0:0:0:
256,192,6225,128,0,6714:0:0:0:0:
109,192,6225,1,0,0:0:0:0:
36,192,6551,128,0,7203:0:0:0:0:
182,192,6551,1,0,0:0:0:0:
329,192,6714,128,0,6877:0:0:0:0:
256,192,6877,128,0,7040:0:0:0:0:
475,192,7040,1,0,0:0:0:0:
182,192,7040,128,0,7203:0:0:0:0:
402,192,7122,1,0,0:0:0:0:
329,192,7203,128,0,7529:0:0:0:0:
475,192,7203,1,0,0:0:0:0:
109,192,7203,1,0,0:0:0:70:BeLL.wav
109,192,7529,128,0,8018:0:0:0:0:
475,192,7529,1,0,0:0:0:0:
256,192,7692,128,0,8018:0:0:0:0:
402,192,7692,1,0,0:0:0:0:
329,192,7855,1,0,0:0:0:0:
402,192,8181,128,0,8508:0:0:0:0:
182,192,8181,1,0,0:0:0:0:
36,192,8181,1,0,0:0:0:0:
36,192,8508,128,0,8997:0:0:0:0:
182,192,8508,1,0,0:0:0:0:
329,192,8508,1,0,0:0:0:0:
475,192,8834,1,0,0:0:0:0:
182,192,8997,128,0,9160:0:0:0:0:
329,192,8997,1,0,0:0:0:0:
36,192,9160,128,0,9486:0:0:0:0:
475,192,9160,1,0,0:0:0:0:
182,192,9486,128,0,9649:0:0:0:0:
329,192,9486,1,0,0:0:0:0:
329,192,9649,128,0,10464:0:0:0:0:
475,192,9649,1,0,0:0:0:0:
36,192,9812,1,0,0:0:0:0:
256,192,9812,1,0,0:0:0:0:
182,192,10464,1,0,0:0:0:0:
36,192,10464,1,0,0:0:0:0:
182,192,10790,1,0,0:0:0:0:
256,192,10953,1,0,0:0:0:0:
329,192,11116,128,0,11442:0:0:0:0:
109,192,11116,1,0,0:0:0:0:
36,192,11116,128,0,11768:0:0:0:0:
402,192,11442,128,0,11768:0:0:0:0:
182,192,11442,1,0,0:0:0:0:
475,192,11768,128,0,12095:0:0:0:0:
256,192,11768,1,0,0:0:0:0:
36,192,11931,1,0,0:0:0:0:
329,192,12095,128,0,12421:0:0:0:0:
109,192,12095,1,0,0:0:0:0:
182,192,12258,1,0,0:0:0:0:
109,192,12339,1,0,0:0:0:0:
475,192,12421,128,0,12910:0:0:0:0:
36,192,12421,1,0,0:0:0:0:
256,192,12421,1,0,0:0:0:70:BeLL.wav
402,192,13073,128,0,13562:0:0:0:0:
182,192,13073,1,0,0:0:0:0:
36,192,13073,1,0,0:0:0:0:
36,192,13725,128,0,14051:0:0:0:0:
256,192,13725,1,0,0:0:0:0:
475,192,13725,1,0,0:0:0:0:
182,192,14051,128,0,14214:0:0:0:0:
329,192,14051,1,0,0:0:0:0:
36,192,14214,128,0,14703:0:0:0:0:
475,192,14214,1,0,0:0:0:0:
256,192,14377,1,0,0:0:0:0:
329,192,14540,1,0,0:0:0:0:
109,192,14703,128,0,15029:0:0:0:0:
402,192,14703,1,0,0:0:0:0:
182,192,15029,128,0,15518:0:0:0:0:
475,192,15029,1,0,0:0:0:0:
329,192,15029,1,0,0:0:0:0:
329,192,15681,1,0,0:0:0:0:
36,192,15681,1,0,0:0:0:0:
475,192,15681,1,0,0:0:0:0:
256,192,15845,1,0,0:0:0:0:
182,192,16008,128,0,16334:0:0:0:0:
256,192,16334,1,0,0:0:0:0:
36,192,16334,1,0,0:0:0:0:
475,192,16334,128,0,16986:0:0:0:0:
329,192,16823,1,0,0:0:0:0:
109,192,16823,1,0,0:0:0:0:
402,192,16986,1,0,0:0:0:0:
182,192,17312,128,0,17638:0:0:0:0:
475,192,17312,1,0,0:0:0:0:
402,192,17475,1,0,0:0:0:0:
109,192,17638,128,0,18127:0:0:0:0:
329,192,17638,1,0,0:0:0:70:BeLL.wav
36,192,17638,1,0,0:0:0:0:
36,192,18290,128,0,18942:0:0:0:0:
182,192,18290,1,0,0:0:0:0:
402,192,18290,1,0,0:0:0:0:
256,192,18942,128,0,19595:0:0:0:0:
475,192,18942,1,0,0:0:0:0:
329,192,18942,1,0,0:0:0:0:
182,192,19758,1,0,0:0:0:0:
256,192,19921,1,0,0:0:0:0:
329,192,20084,1,0,0:0:0:0:
402,192,20247,128,0,21551:0:0:0:0:
36,192,20247,1,0,0:0:0:0:
475,192,20247,1,0,0:0:0:0:
109,192,20899,128,0,21551:0:0:0:0:
36,192,20899,1,0,0:0:0:0:
475,192,20899,1,0,0:0:0:0:
256,192,21551,1,0,0:0:0:0:
182,192,22203,1,0,0:0:0:70:kick3.wav
36,192,22203,1,0,0:0:0:0:
329,192,22203,1,0,0:0:0:0:
475,192,22203,1,0,0:0:0:0:
256,192,22203,1,0,0:0:0:70:BassD.wav
36,192,22366,1,0,0:0:0:0:
109,192,22366,1,0,0:0:0:70:BassD.wav
402,192,22366,1,0,0:0:0:0:
475,192,22366,1,0,0:0:0:0:
182,192,22448,1,0,0:0:0:70:BassD.wav
329,192,22448,1,0,0:0:0:0:
256,192,22529,1,0,0:0:0:70:BassD.wav
475,192,22529,1,0,0:0:0:0:
36,192,22529,1,0,0:0:0:0:
109,192,22529,1,0,0:0:0:70:kick3.wav
402,192,22529,1,0,0:0:0:0:
109,192,22692,1,0,0:0:0:70:BassD.wav
402,192,22692,1,0,0:0:0:0:
182,192,22774,1,0,0:0:0:70:BassD.wav
329,192,22774,1,0,0:0:0:0:
256,192,22855,128,0,24160:0:0:0:70:soft-hitfinish2.wav
402,192,22855,1,0,0:0:0:0:
475,192,22855,1,0,0:0:0:70:BassS.wav
36,192,22855,128,0,23018:0:0:0:0:
109,192,22855,128,0,23018:0:0:0:0:
329,192,23018,1,0,0:0:0:0:
109,192,23181,128,0,23345:0:0:0:0:
182,192,23181,128,0,23345:0:0:0:0:
475,192,23181,1,0,0:0:0:70:kick3.wav
402,192,23345,1,0,0:0:0:0:
329,192,23508,1,0,0:0:0:70:BassS.wav
36,192,23508,1,0,0:0:0:0:
109,192,23671,128,0,23752:0:0:0:0:
182,192,23671,128,0,23752:0:0:0:0:
402,192,23671,1,0,0:0:0:0:
182,192,23834,128,0,23915:0:0:0:0:
36,192,23834,128,0,23915:0:0:0:0:
475,192,23834,1,0,0:0:0:70:kick3.wav
36,192,23997,128,0,24078:0:0:0:0:
109,192,23997,128,0,24078:0:0:0:0:
329,192,23997,1,0,0:0:0:0:
402,192,24160,128,0,24323:0:0:0:0:
475,192,24160,128,0,24323:0:0:0:0:
109,192,24160,1,0,0:0:0:0:
36,192,24160,1,0,0:0:0:70:BassS.wav
182,192,24323,1,0,0:0:0:0:
329,192,24486,128,0,24649:0:0:0:0:
402,192,24486,128,0,24649:0:0:0:0:
36,192,24486,1,0,0:0:0:70:kick3.wav
109,192,24649,1,0,0:0:0:0:
182,192,24812,1,0,0:0:0:70:BassS.wav
475,192,24812,1,0,0:0:0:0:
329,192,24975,128,0,25056:0:0:0:0:
402,192,24975,128,0,25056:0:0:0:0:
109,192,24975,1,0,0:0:0:0:
329,192,25138,128,0,25220:0:0:0:0:
475,192,25138,128,0,25220:0:0:0:0:
36,192,25138,1,0,0:0:0:70:kick3.wav
402,192,25301,128,0,25383:0:0:0:0:
475,192,25301,128,0,25383:0:0:0:0:
182,192,25301,1,0,0:0:0:0:
36,192,25464,128,0,25627:0:0:0:0:
256,192,25464,128,0,25627:0:0:0:0:
109,192,25464,1,0,0:0:0:70:BassS.wav
329,192,25627,1,0,0:0:0:0:
475,192,25627,1,0,0:0:0:0:
36,192,25790,128,0,25953:0:0:0:0:
256,192,25790,128,0,25953:0:0:0:0:
109,192,25790,1,0,0:0:0:70:kick3.wav
329,192,25953,1,0,0:0:0:0:
475,192,25953,1,0,0:0:0:0:
256,192,26116,128,0,26279:0:0:0:0:
475,192,26116,128,0,26279:0:0:0:0:
402,192,26116,1,0,0:0:0:70:BassS.wav
182,192,26279,1,0,0:0:0:0:
36,192,26279,1,0,0:0:0:0:
256,192,26442,128,0,26605:0:0:0:0:
475,192,26442,128,0,26605:0:0:0:0:
402,192,26442,1,0,0:0:0:70:kick3.wav
182,192,26605,1,0,0:0:0:0:
36,192,26605,1,0,0:0:0:0:
36,192,26768,128,0,26850:0:0:0:0:
329,192,26768,128,0,26850:0:0:0:0:
182,192,26768,1,0,0:0:0:0:
182,192,26931,128,0,27013:0:0:0:0:
475,192,26931,128,0,27013:0:0:0:0:
329,192,26931,1,0,0:0:0:0:
109,192,27095,128,0,27176:0:0:0:0:
402,192,27095,128,0,27176:0:0:0:0:
256,192,27095,1,0,0:0:0:0:
329,192,27258,128,0,27339:0:0:0:0:
36,192,27258,128,0,27339:0:0:0:0:
182,192,27258,1,0,0:0:0:0:
109,192,27421,1,0,0:0:0:0:
402,192,27421,1,0,0:0:0:0:
36,192,27584,128,0,27665:0:0:0:0:
329,192,27584,128,0,27665:0:0:0:0:
182,192,27584,1,0,0:0:0:0:
109,192,27747,128,0,27828:0:0:0:0:
402,192,27747,128,0,27828:0:0:0:0:
256,192,27747,1,0,0:0:0:0:
475,192,27910,128,0,27991:0:0:0:0:
182,192,27910,128,0,27991:0:0:0:0:
329,192,27910,1,0,0:0:0:0:
36,192,28073,128,0,28236:0:0:0:0:
329,192,28073,128,0,28236:0:0:0:0:
182,192,28073,1,0,0:0:0:0:
475,192,28073,1,0,0:0:0:0:
256,192,28236,1,0,0:0:0:0:
36,192,28399,128,0,28562:0:0:0:0:
329,192,28399,128,0,28562:0:0:0:0:
182,192,28399,1,0,0:0:0:0:
256,192,28562,1,0,0:0:0:0:
182,192,28725,128,0,28806:0:0:0:0:
475,192,28725,128,0,28806:0:0:0:0:
329,192,28725,1,0,0:0:0:0:
402,192,28888,128,0,28970:0:0:0:0:
109,192,28888,128,0,28970:0:0:0:0:
256,192,28888,1,0,0:0:0:0:
182,192,29051,128,0,29133:0:0:0:0:
475,192,29051,128,0,29133:0:0:0:0:
329,192,29051,1,0,0:0:0:0:
36,192,29214,1,0,0:0:0:0:
256,192,29377,128,0,29459:0:0:0:0:
109,192,29377,128,0,29459:0:0:0:0:
475,192,29377,1,0,0:0:0:0:
182,192,29540,128,0,29622:0:0:0:0:
329,192,29540,128,0,29622:0:0:0:0:
36,192,29540,1,0,0:0:0:0:
256,192,29703,128,0,29785:0:0:0:0:
402,192,29703,128,0,29785:0:0:0:0:
109,192,29703,1,0,0:0:0:0:
182,192,29866,1,0,0:0:0:0:
329,192,29866,128,0,30029:0:0:0:0:
475,192,29866,128,0,30029:0:0:0:0:
256,192,30029,1,0,0:0:0:0:
36,192,30029,1,0,0:0:0:0:
329,192,30192,128,0,30274:0:0:0:0:
475,192,30192,128,0,30274:0:0:0:0:
109,192,30192,1,0,0:0:0:0:
36,192,30355,128,0,30518:0:0:0:0:
182,192,30355,128,0,30518:0:0:0:0:
402,192,30355,1,0,0:0:0:0:
329,192,30518,1,0,0:0:0:0:
256,192,30681,1,0,0:0:0:0:
36,192,30681,1,0,0:0:0:0:
475,192,30681,1,0,0:0:0:0:
182,192,30845,1,0,0:0:0:0:
329,192,30845,1,0,0:0:0:0:
109,192,31008,1,0,0:0:0:0:
256,192,31008,1,0,0:0:0:0:
402,192,31008,1,0,0:0:0:0:
329,192,31171,1,0,0:0:0:0:
182,192,31171,1,0,0:0:0:0:
36,192,31334,1,0,0:0:0:0:
256,192,31334,1,0,0:0:0:0:
475,192,31334,1,0,0:0:0:0:
182,192,31497,1,0,0:0:0:0:
329,192,31497,1,0,0:0:0:0:
256,192,31660,1,0,0:0:0:0:
36,192,31660,1,0,0:0:0:0:
475,192,31660,1,0,0:0:0:0:
109,192,31823,1,0,0:0:0:0:
402,192,31823,1,0,0:0:0:0:
182,192,31986,128,0,32067:0:0:0:0:
256,192,31986,128,0,32067:0:0:0:0:
329,192,31986,128,0,32067:0:0:0:0:
256,192,32149,128,0,32230:0:0:0:0:
182,192,32149,128,0,32230:0:0:0:0:
329,192,32149,128,0,32230:0:0:0:0:
256,192,32312,128,0,32964:0:0:0:0:
109,192,32312,1,0,0:0:0:0:
402,192,32312,1,0,0:0:0:0:
182,192,32475,1,0,0:0:0:0:
329,192,32475,1,0,0:0:0:0:
109,192,32556,1,0,0:0:0:0:
402,192,32556,1,0,0:0:0:0:
36,192,32638,1,0,0:0:0:0:
475,192,32638,1,0,0:0:0:0:
182,192,32720,1,0,0:0:0:0:
329,192,32720,1,0,0:0:0:0:
36,192,32801,1,0,0:0:0:0:
475,192,32801,1,0,0:0:0:0:
402,192,32883,1,0,0:0:0:0:
109,192,32883,1,0,0:0:0:0:
182,192,32964,1,0,0:0:0:0:
329,192,32964,1,0,0:0:0:0:
36,192,32964,1,0,0:0:0:0:
475,192,32964,1,0,0:0:0:0:
109,192,33127,1,0,0:0:0:0:
402,192,33127,1,0,0:0:0:0:
329,192,33209,1,0,0:0:0:0:
182,192,33209,1,0,0:0:0:0:
256,192,33290,1,0,0:0:0:0:
475,192,33290,1,0,0:0:0:0:
402,192,33290,1,0,0:0:0:0:
36,192,33290,128,0,33453:0:0:0:0:
109,192,33290,128,0,33453:0:0:0:0:
329,192,33453,1,0,0:0:0:0:
109,192,33616,128,0,33779:0:0:0:0:
182,192,33616,128,0,33779:0:0:0:0:
475,192,33616,1,0,0:0:0:0:
402,192,33779,1,0,0:0:0:0:
256,192,33942,1,0,0:0:0:0:
475,192,33942,1,0,0:0:0:0:
109,192,34105,128,0,34187:0:0:0:0:
36,192,34105,128,0,34187:0:0:0:0:
329,192,34105,1,0,0:0:0:0:
36,192,34268,128,0,34350:0:0:0:0:
182,192,34268,128,0,34350:0:0:0:0:
402,192,34268,1,0,0:0:0:0:
182,192,34431,128,0,34513:0:0:0:0:
109,192,34431,128,0,34513:0:0:0:0:
329,192,34431,1,0,0:0:0:0:
36,192,34595,1,0,0:0:0:0:
109,192,34595,1,0,0:0:0:0:
475,192,34595,128,0,34758:0:0:0:0:
402,192,34595,128,0,34758:0:0:0:0:
182,192,34758,1,0,0:0:0:0:
402,192,34921,128,0,35084:0:0:0:0:
329,192,34921,128,0,35084:0:0:0:0:
36,192,34921,1,0,0:0:0:0:
109,192,35084,1,0,0:0:0:0:
256,192,35247,1,0,0:0:0:0:
36,192,35247,1,0,0:0:0:0:
402,192,35410,128,0,35491:0:0:0:0:
475,192,35410,128,0,35491:0:0:0:0:
182,192,35410,1,0,0:0:0:0:
475,192,35573,128,0,35654:0:0:0:0:
329,192,35573,128,0,35654:0:0:0:0:
109,192,35573,1,0,0:0:0:0:
329,192,35736,128,0,35817:0:0:0:0:
402,192,35736,128,0,35817:0:0:0:0:
182,192,35736,1,0,0:0:0:0:
475,192,35899,128,0,36062:0:0:0:0:
256,192,35899,128,0,36062:0:0:0:0:
402,192,35899,1,0,0:0:0:0:
182,192,36062,1,0,0:0:0:0:
36,192,36062,1,0,0:0:0:0:
475,192,36225,128,0,36388:0:0:0:0:
256,192,36225,128,0,36388:0:0:0:0:
402,192,36225,1,0,0:0:0:0:
182,192,36388,1,0,0:0:0:0:
36,192,36388,1,0,0:0:0:0:
256,192,36551,128,0,36714:0:0:0:0:
36,192,36551,128,0,36714:0:0:0:0:
109,192,36551,1,0,0:0:0:0:
329,192,36714,1,0,0:0:0:0:
475,192,36714,1,0,0:0:0:0:
256,192,36877,128,0,37040:0:0:0:0:
36,192,36877,128,0,37040:0:0:0:0:
109,192,36877,1,0,0:0:0:0:
329,192,37040,1,0,0:0:0:0:
475,192,37040,1,0,0:0:0:0:
475,192,37203,128,0,37285:0:0:0:0:
182,192,37203,128,0,37285:0:0:0:0:
329,192,37203,1,0,0:0:0:0:
329,192,37366,128,0,37448:0:0:0:0:
36,192,37366,128,0,37448:0:0:0:0:
182,192,37366,1,0,0:0:0:0:
402,192,37529,128,0,37611:0:0:0:0:
109,192,37529,128,0,37611:0:0:0:0:
256,192,37529,1,0,0:0:0:0:
182,192,37692,128,0,37774:0:0:0:0:
475,192,37692,128,0,37774:0:0:0:0:
329,192,37692,1,0,0:0:0:0:
402,192,37855,1,0,0:0:0:0:
109,192,37855,1,0,0:0:0:0:
475,192,38018,128,0,38100:0:0:0:0:
182,192,38018,128,0,38100:0:0:0:0:
329,192,38018,1,0,0:0:0:0:
402,192,38181,128,0,38263:0:0:0:0:
109,192,38181,128,0,38263:0:0:0:0:
256,192,38181,1,0,0:0:0:0:
36,192,38345,128,0,38426:0:0:0:0:
329,192,38345,128,0,38426:0:0:0:0:
182,192,38345,1,0,0:0:0:0:
475,192,38508,128,0,38671:0:0:0:0:
182,192,38508,128,0,38671:0:0:0:0:
329,192,38508,1,0,0:0:0:0:
36,192,38508,1,0,0:0:0:0:
256,192,38671,1,0,0:0:0:0:
475,192,38834,128,0,38997:0:0:0:0:
182,192,38834,128,0,38997:0:0:0:0:
329,192,38834,1,0,0:0:0:0:
256,192,38997,1,0,0:0:0:0:
329,192,39160,128,0,39241:0:0:0:0:
36,192,39160,128,0,39241:0:0:0:0:
182,192,39160,1,0,0:0:0:0:
109,192,39323,128,0,39404:0:0:0:0:
402,192,39323,128,0,39404:0:0:0:0:
256,192,39323,1,0,0:0:0:0:
329,192,39486,128,0,39567:0:0:0:0:
36,192,39486,128,0,39567:0:0:0:0:
182,192,39486,1,0,0:0:0:0:
256,192,39649,1,0,0:0:0:0:
182,192,39812,1,0,0:0:0:0:
36,192,39812,1,0,0:0:0:0:
109,192,39812,1,0,0:0:0:0:
402,192,39812,1,0,0:0:0:0:
329,192,39812,1,0,0:0:0:0:
475,192,39812,1,0,0:0:0:0:
36,192,39975,1,0,0:0:0:0:
109,192,39975,1,0,0:0:0:0:
182,192,39975,1,0,0:0:0:0:
329,192,39975,1,0,0:0:0:0:
402,192,39975,1,0,0:0:0:0:
475,192,39975,1,0,0:0:0:0:
475,192,40138,1,0,0:0:0:0:
402,192,40138,1,0,0:0:0:0:
329,192,40138,1,0,0:0:0:0:
182,192,40138,1,0,0:0:0:0:
109,192,40138,1,0,0:0:0:0:
36,192,40138,1,0,0:0:0:0:
329,192,40464,1,0,0:0:0:0:
109,192,40464,1,0,0:0:0:0:
36,192,40464,1,0,0:0:0:0:
256,192,40464,1,0,0:0:0:0:
475,192,40464,1,0,0:0:0:0:
402,192,40464,1,0,0:0:0:0:
36,192,40790,1,0,0:0:0:0:
109,192,40790,1,0,0:0:0:0:
182,192,40790,1,0,0:0:0:0:
256,192,40790,1,0,0:0:0:0:
402,192,40790,1,0,0:0:0:0:
475,192,40790,1,0,0:0:0:0:
182,192,41116,1,0,0:0:0:0:
36,192,41116,1,0,0:0:0:0:
329,192,41116,1,0,0:0:0:0:
256,192,41116,1,0,0:0:0:0:
475,192,41116,1,0,0:0:0:0:
109,192,41279,1,0,0:0:0:0:
182,192,41279,1,0,0:0:0:0:
329,192,41279,1,0,0:0:0:0:
402,192,41279,1,0,0:0:0:0:
36,192,41442,1,0,0:0:0:0:
475,192,41442,1,0,0:0:0:0:
109,192,41442,1,0,0:0:0:0:
256,192,41442,1,0,0:0:0:0:
402,192,41442,1,0,0:0:0:0:
182,192,43236,1,0,0:0:0:0:
256,192,43236,1,0,0:0:0:0:
329,192,43236,1,0,0:0:0:0:
109,192,43236,1,0,0:0:0:0:
402,192,43236,1,0,0:0:0:0:
109,192,43562,1,0,0:0:0:0:
182,192,43562,1,0,0:0:0:0:
256,192,43562,1,0,0:0:0:0:
402,192,43562,1,0,0:0:0:0:
329,192,43562,1,0,0:0:0:0:
475,192,43725,1,0,0:0:0:0:
402,192,43725,1,0,0:0:0:0:
36,192,43725,1,0,0:0:0:0:
109,192,43725,1,0,0:0:0:0:
256,192,43725,1,0,0:0:0:0:
109,192,43888,1,0,0:0:0:0:
329,192,43888,1,0,0:0:0:0:
182,192,43888,1,0,0:0:0:0:
402,192,43888,1,0,0:0:0:0:
182,192,44051,1,0,0:0:0:0:
36,192,44051,1,0,0:0:0:0:
475,192,44051,1,0,0:0:0:0:
329,192,44051,1,0,0:0:0:0:
256,192,44051,1,0,0:0:0:0:
182,192,45845,1,0,0:0:0:0:
109,192,45845,1,0,0:0:0:0:
256,192,45845,1,0,0:0:0:0:
329,192,45845,1,0,0:0:0:0:
402,192,45845,1,0,0:0:0:0:
402,192,46171,1,0,0:0:0:0:
329,192,46171,1,0,0:0:0:0:
256,192,46171,1,0,0:0:0:0:
182,192,46171,1,0,0:0:0:0:
109,192,46171,1,0,0:0:0:0:
36,192,46334,1,0,0:0:0:0:
109,192,46334,1,0,0:0:0:0:
402,192,46334,1,0,0:0:0:0:
475,192,46334,1,0,0:0:0:0:
256,192,46334,1,0,0:0:0:0:
182,192,46660,1,0,0:0:0:0:
329,192,46660,1,0,0:0:0:0:
109,192,46823,1,0,0:0:0:0:
36,192,46823,1,0,0:0:0:0:
256,192,46986,1,0,0:0:0:0:
402,192,46986,1,0,0:0:0:0:
182,192,47149,1,0,0:0:0:0:
36,192,47149,1,0,0:0:0:0:
329,192,47312,1,0,0:0:0:0:
475,192,47312,1,0,0:0:0:0:
182,192,47312,1,0,0:0:0:0:
256,192,47475,1,0,0:0:0:0:
182,192,47638,1,0,0:0:0:0:
36,192,47638,1,0,0:0:0:0:
475,192,47638,1,0,0:0:0:0:
329,192,47801,1,0,0:0:0:0:
475,192,47801,1,0,0:0:0:0:
109,192,47964,1,0,0:0:0:0:
256,192,47964,1,0,0:0:0:0:
402,192,47964,1,0,0:0:0:0:
182,192,48127,1,0,0:0:0:0:
36,192,48127,1,0,0:0:0:0:
329,192,48290,1,0,0:0:0:0:
475,192,48290,1,0,0:0:0:0:
182,192,48290,1,0,0:0:0:0:
109,192,48453,1,0,0:0:0:0:
256,192,48616,1,0,0:0:0:0:
475,192,48616,1,0,0:0:0:0:
36,192,48616,1,0,0:0:0:0:
329,192,48779,1,0,0:0:0:0:
36,192,48942,1,0,0:0:0:0:
109,192,48942,1,0,0:0:0:0:
402,192,48942,1,0,0:0:0:0:
475,192,48942,1,0,0:0:0:0:
256,192,48942,1,0,0:0:0:0:
182,192,49268,1,0,0:0:0:0:
256,192,49268,1,0,0:0:0:70:Clap.wav
329,192,49268,1,0,0:0:0:0:
329,192,49431,1,0,0:0:0:0:
256,192,49431,1,0,0:0:0:70:Clap.wav
182,192,49431,1,0,0:0:0:0:
402,192,49595,1,0,0:0:0:0:
475,192,49595,1,0,0:0:0:0:
329,192,49758,1,0,0:0:0:0:
182,192,49758,1,0,0:0:0:0:
36,192,49921,1,0,0:0:0:0:
109,192,49921,1,0,0:0:0:0:
256,192,49921,1,0,0:0:0:70:Clap.wav
256,192,50084,1,0,0:0:0:0:
402,192,50084,1,0,0:0:0:0:
475,192,50084,1,0,0:0:0:0:
182,192,50410,1,0,0:0:0:0:
329,192,50410,1,0,0:0:0:0:
402,192,50410,1,0,0:0:0:0:
109,192,50573,1,0,0:0:0:0:
36,192,50573,1,0,0:0:0:0:
256,192,50573,1,0,0:0:0:70:Clap.wav
36,192,50736,1,0,0:0:0:0:
109,192,50736,1,0,0:0:0:0:
256,192,50736,1,0,0:0:0:70:Clap.wav
329,192,50899,1,0,0:0:0:0:
475,192,50899,1,0,0:0:0:0:
329,192,51062,1,0,0:0:0:0:
475,192,51062,1,0,0:0:0:0:
109,192,51225,1,0,0:0:0:0:
36,192,51225,1,0,0:0:0:0:
256,192,51225,1,0,0:0:0:70:Clap.wav
329,192,51388,1,0,0:0:0:0:
475,192,51388,1,0,0:0:0:0:
256,192,51470,1,0,0:0:0:0:
475,192,51551,1,0,0:0:0:0:
402,192,51551,1,0,0:0:0:0:
109,192,51551,1,0,0:0:0:0:
36,192,51551,1,0,0:0:0:0:
182,192,51551,1,0,0:0:0:0:
329,192,51877,1,0,0:0:0:0:
182,192,51877,1,0,0:0:0:0:
402,192,52040,1,0,0:0:0:0:
475,192,52040,1,0,0:0:0:0:
256,192,52203,1,0,0:0:0:0:
109,192,52203,1,0,0:0:0:0:
329,192,52366,1,0,0:0:0:0:
475,192,52366,1,0,0:0:0:0:
182,192,52529,1,0,0:0:0:0:
36,192,52529,1,0,0:0:0:0:
329,192,52529,1,0,0:0:0:0:
256,192,52692,1,0,0:0:0:0:
329,192,52855,1,0,0:0:0:0:
475,192,52855,1,0,0:0:0:0:
36,192,52855,1,0,0:0:0:0:
182,192,53018,1,0,0:0:0:0:
36,192,53018,1,0,0:0:0:0:
402,192,53181,1,0,0:0:0:0:
256,192,53181,1,0,0:0:0:0:
109,192,53181,1,0,0:0:0:0:
329,192,53345,1,0,0:0:0:0:
475,192,53345,1,0,0:0:0:0:
182,192,53508,1,0,0:0:0:0:
36,192,53508,1,0,0:0:0:0:
329,192,53508,1,0,0:0:0:0:
402,192,53671,1,0,0:0:0:0:
256,192,53834,1,0,0:0:0:0:
36,192,53834,1,0,0:0:0:0:
475,192,53834,1,0,0:0:0:0:
182,192,53997,1,0,0:0:0:0:
36,192,54160,1,0,0:0:0:0:
329,192,54160,1,0,0:0:0:0:
475,192,54160,1,0,0:0:0:0:
182,192,54486,1,0,0:0:0:0:
329,192,54486,1,0,0:0:0:0:
109,192,54649,1,0,0:0:0:0:
36,192,54649,1,0,0:0:0:0:
256,192,54812,1,0,0:0:0:0:
402,192,54812,1,0,0:0:0:0:
182,192,54975,1,0,0:0:0:0:
36,192,54975,1,0,0:0:0:0:
329,192,55138,1,0,0:0:0:0:
475,192,55138,1,0,0:0:0:0:
182,192,55138,1,0,0:0:0:0:
256,192,55301,1,0,0:0:0:0:
182,192,55464,1,0,0:0:0:0:
36,192,55464,1,0,0:0:0:0:
475,192,55464,1,0,0:0:0:0:
329,192,55627,1,0,0:0:0:0:
475,192,55627,1,0,0:0:0:0:
109,192,55790,1,0,0:0:0:0:
256,192,55790,1,0,0:0:0:0:
402,192,55790,1,0,0:0:0:0:
182,192,55953,1,0,0:0:0:0:
36,192,55953,1,0,0:0:0:0:
329,192,56116,1,0,0:0:0:0:
475,192,56116,1,0,0:0:0:0:
182,192,56116,1,0,0:0:0:0:
109,192,56279,1,0,0:0:0:0:
256,192,56442,1,0,0:0:0:0:
475,192,56442,1,0,0:0:0:0:
36,192,56442,1,0,0:0:0:0:
329,192,56605,1,0,0:0:0:0:
402,192,56768,1,0,0:0:0:0:
475,192,56768,1,0,0:0:0:0:
36,192,56768,1,0,0:0:0:0:
182,192,56768,1,0,0:0:0:0:
256,192,56931,1,0,0:0:0:0:
475,192,56931,1,0,0:0:0:0:
329,192,57095,1,0,0:0:0:0:
109,192,57095,1,0,0:0:0:0:
182,192,57258,1,0,0:0:0:0:
402,192,57258,1,0,0:0:0:0:
256,192,57421,1,0,0:0:0:0:
475,192,57421,1,0,0:0:0:0:
182,192,57584,1,0,0:0:0:0:
402,192,57584,1,0,0:0:0:0:
36,192,57747,1,0,0:0:0:0:
329,192,57747,1,0,0:0:0:0:
109,192,57747,1,0,0:0:0:0:
256,192,57910,1,0,0:0:0:0:
475,192,57910,1,0,0:0:0:0:
182,192,58073,1,0,0:0:0:0:
36,192,58073,1,0,0:0:0:0:
402,192,58073,1,0,0:0:0:0:
329,192,58236,1,0,0:0:0:0:
109,192,58399,1,0,0:0:0:0:
256,192,58399,1,0,0:0:0:0:
475,192,58399,1,0,0:0:0:0:
402,192,58562,1,0,0:0:0:0:
329,192,58725,1,0,0:0:0:0:
36,192,58725,1,0,0:0:0:0:
256,192,58847,1,0,0:0:0:0:
182,192,58888,1,0,0:0:0:0:
475,192,58888,1,0,0:0:0:0:
109,192,59051,1,0,0:0:0:0:
402,192,59051,1,0,0:0:0:0:
36,192,59051,1,0,0:0:0:0:
182,192,59214,1,0,0:0:0:0:
256,192,59377,1,0,0:0:0:0:
475,192,59377,1,0,0:0:0:0:
36,192,59377,1,0,0:0:0:0:
329,192,59540,1,0,0:0:0:0:
402,192,59703,1,0,0:0:0:0:
182,192,59703,1,0,0:0:0:0:
36,192,59703,1,0,0:0:0:0:
256,192,59866,1,0,0:0:0:0:
109,192,60029,1,0,0:0:0:0:
329,192,60029,1,0,0:0:0:0:
475,192,60029,1,0,0:0:0:0:
182,192,60192,1,0,0:0:0:0:
256,192,60355,1,0,0:0:0:0:
402,192,60355,1,0,0:0:0:0:
109,192,60518,1,0,0:0:0:0:
36,192,60518,1,0,0:0:0:0:
329,192,60518,1,0,0:0:0:0:
475,192,60518,1,0,0:0:0:0:
182,192,60518,1,0,0:0:0:0:
36,192,60845,1,0,0:0:0:0:
109,192,60845,1,0,0:0:0:0:
182,192,60845,1,0,0:0:0:0:
329,192,60845,1,0,0:0:0:0:
475,192,60845,1,0,0:0:0:0:
329,192,61171,1,0,0:0:0:0:
402,192,61171,1,0,0:0:0:0:
475,192,61171,1,0,0:0:0:0:
182,192,61171,1,0,0:0:0:0:
36,192,61171,1,0,0:0:0:0:
109,192,61334,1,0,0:0:0:0:
256,192,61334,1,0,0:0:0:0:
36,192,61497,1,0,0:0:0:0:
182,192,61497,1,0,0:0:0:0:
329,192,61497,1,0,0:0:0:0:
402,192,61497,1,0,0:0:0:0:
475,192,61497,1,0,0:0:0:0:
256,192,61578,1,0,0:0:0:0:
182,192,61660,1,0,0:0:0:0:
329,192,61660,1,0,0:0:0:0:
402,192,61660,1,0,0:0:0:0:
475,192,61660,1,0,0:0:0:0:
36,192,61660,1,0,0:0:0:0:
109,192,61823,1,0,0:0:0:0:
182,192,61904,1,0,0:0:0:0:
256,192,61986,1,0,0:0:0:0:
402,192,61986,1,0,0:0:0:0:
109,192,61986,1,0,0:0:0:0:
36,192,61986,1,0,0:0:0:0:
475,192,61986,128,0,62475:0:0:0:0:
402,192,62475,128,0,62638:0:0:0:0:
109,192,62475,1,0,0:0:0:0:
475,192,62638,128,0,63290:0:0:0:0:
36,192,62638,1,0,0:0:0:70:Clap.wav
182,192,62964,1,0,0:0:0:0:
256,192,63127,1,0,0:0:0:0:
329,192,63290,1,0,0:0:0:0:
36,192,63290,128,0,63616:0:0:0:0:
182,192,63616,128,0,63942:0:0:0:0:
475,192,63616,1,0,0:0:0:0:
329,192,63942,128,0,64268:0:0:0:0:
36,192,63942,1,0,0:0:0:70:Clap.wav
475,192,64268,128,0,64595:0:0:0:0:
182,192,64268,1,0,0:0:0:0:
256,192,64595,128,0,64921:0:0:0:0:
36,192,64595,1,0,0:0:0:0:
109,192,64595,1,0,0:0:0:0:
256,192,65084,1,0,0:0:0:0:
36,192,65247,1,0,0:0:0:70:Clap.wav
182,192,65247,128,0,65410:0:0:0:0:
256,192,65410,128,0,65573:0:0:0:0:
329,192,65573,128,0,65736:0:0:0:0:
475,192,65573,1,0,0:0:0:0:
182,192,65736,128,0,65899:0:0:0:0:
36,192,65736,1,0,0:0:0:0:
475,192,65899,128,0,66388:0:0:0:0:
36,192,65899,1,0,0:0:0:0:
109,192,65980,1,0,0:0:0:0:
329,192,66062,1,0,0:0:0:0:
256,192,66143,1,0,0:0:0:0:
109,192,66225,1,0,0:0:0:0:
182,192,66306,1,0,0:0:0:0:
402,192,66388,128,0,66551:0:0:0:0:
36,192,66388,1,0,0:0:0:0:
109,192,66470,1,0,0:0:0:0:
329,192,66551,128,0,66714:0:0:0:0:
182,192,66551,1,0,0:0:0:0:
109,192,66605,1,0,0:0:0:0:
36,192,66660,1,0,0:0:0:0:
475,192,66714,128,0,66877:0:0:0:0:
256,192,66714,1,0,0:0:0:0:
182,192,66768,1,0,0:0:0:0:
109,192,66823,1,0,0:0:0:0:
36,192,66877,1,0,0:0:0:0:
329,192,66877,1,0,0:0:0:0:
256,192,66931,1,0,0:0:0:0:
182,192,66986,1,0,0:0:0:0:
109,192,67040,1,0,0:0:0:0:
402,192,67040,1,0,0:0:0:0:
329,192,67095,1,0,0:0:0:0:
256,192,67149,1,0,0:0:0:0:
109,192,67203,1,0,0:0:0:0:
182,192,67203,1,0,0:0:0:0:
36,192,67203,1,0,0:0:0:0:
402,192,67203,1,0,0:0:0:0:
475,192,67203,1,0,0:0:0:0:
329,192,67529,1,0,0:0:0:0:
475,192,67529,1,0,0:0:0:0:
402,192,67529,1,0,0:0:0:0:
109,192,67529,1,0,0:0:0:0:
36,192,67529,1,0,0:0:0:0:
109,192,67855,1,0,0:0:0:0:
329,192,67855,1,0,0:0:0:0:
36,192,67855,1,0,0:0:0:0:
182,192,68018,1,0,0:0:0:0:
402,192,68018,1,0,0:0:0:0:
256,192,68181,1,0,0:0:0:0:
475,192,68181,1,0,0:0:0:0:
36,192,68181,1,0,0:0:0:0:
109,192,68181,1,0,0:0:0:0:
329,192,68181,1,0,0:0:0:0:
329,192,68508,1,0,0:0:0:0:
402,192,68508,1,0,0:0:0:0:
475,192,68508,1,0,0:0:0:0:
109,192,68508,1,0,0:0:0:0:
36,192,68508,1,0,0:0:0:0:
36,192,68834,1,0,0:0:0:0:
109,192,68834,1,0,0:0:0:0:
182,192,68834,1,0,0:0:0:0:
402,192,68834,1,0,0:0:0:0:
475,192,68834,1,0,0:0:0:0:
256,192,69160,1,0,0:0:0:0:
475,192,69160,1,0,0:0:0:0:
36,192,69160,1,0,0:0:0:0:
109,192,69323,1,0,0:0:0:0:
402,192,69323,1,0,0:0:0:0:
256,192,69486,1,0,0:0:0:0:
36,192,69486,1,0,0:0:0:0:
182,192,69486,1,0,0:0:0:0:
329,192,69486,1,0,0:0:0:0:
475,192,69486,1,0,0:0:0:0:
182,192,69649,1,0,0:0:0:0:
329,192,69649,1,0,0:0:0:0:
109,192,69812,1,0,0:0:0:0:
402,192,69812,1,0,0:0:0:0:
475,192,69812,1,0,0:0:0:0:
256,192,69812,1,0,0:0:0:0:
36,192,69812,1,0,0:0:0:0:
182,192,69975,1,0,0:0:0:0:
329,192,69975,1,0,0:0:0:0:
109,192,70138,1,0,0:0:0:0:
36,192,70138,1,0,0:0:0:0:
256,192,70138,1,0,0:0:0:0:
402,192,70138,1,0,0:0:0:0:
475,192,70138,1,0,0:0:0:0:
182,192,70301,1,0,0:0:0:0:
329,192,70301,1,0,0:0:0:0:
256,192,70464,1,0,0:0:0:0:
36,192,70464,1,0,0:0:0:0:
475,192,70464,1,0,0:0:0:0:
109,192,70627,1,0,0:0:0:0:
402,192,70627,1,0,0:0:0:0:
182,192,70790,1,0,0:0:0:0:
256,192,70790,1,0,0:0:0:0:
329,192,70790,1,0,0:0:0:0:
475,192,70790,1,0,0:0:0:0:
36,192,70790,1,0,0:0:0:0:
36,192,70953,1,0,0:0:0:0:
109,192,70953,1,0,0:0:0:0:
182,192,70953,1,0,0:0:0:0:
329,192,70953,1,0,0:0:0:0:
402,192,70953,1,0,0:0:0:0:
182,192,71279,1,0,0:0:0:0:
109,192,71279,1,0,0:0:0:0:
256,192,71279,1,0,0:0:0:0:
402,192,71279,1,0,0:0:0:0:
475,192,71279,1,0,0:0:0:0:
329,192,71605,1,0,0:0:0:0:
402,192,71605,1,0,0:0:0:0:
256,192,71605,1,0,0:0:0:0:
109,192,71605,1,0,0:0:0:0:
36,192,71605,1,0,0:0:0:0:
109,192,71931,1,0,0:0:0:0:
182,192,71931,1,0,0:0:0:0:
256,192,71931,1,0,0:0:0:0:
402,192,71931,1,0,0:0:0:0:
329,192,71931,1,0,0:0:0:0:
109,192,72095,1,0,0:0:0:0:
182,192,72095,1,0,0:0:0:0:
256,192,72095,1,0,0:0:0:0:
329,192,72095,1,0,0:0:0:0:
402,192,72095,1,0,0:0:0:0:
109,192,72258,1,0,0:0:0:0:
182,192,72258,1,0,0:0:0:0:
256,192,72258,1,0,0:0:0:0:
329,192,72258,1,0,0:0:0:0:
402,192,72258,1,0,0:0:0:0:
182,192,72584,1,0,0:0:0:0:
109,192,72584,1,0,0:0:0:0:
36,192,72584,1,0,0:0:0:0:
329,192,72584,1,0,0:0:0:0:
402,192,72584,1,0,0:0:0:0:
475,192,72584,1,0,0:0:0:0:
329,192,72747,1,0,0:0:0:0:
402,192,72747,1,0,0:0:0:0:
475,192,72747,1,0,0:0:0:0:
109,192,72747,1,0,0:0:0:0:
36,192,72747,1,0,0:0:0:0:
182,192,72747,1,0,0:0:0:0:
36,192,73073,1,0,0:0:0:0:
109,192,73073,1,0,0:0:0:0:
475,192,73073,1,0,0:0:0:0:
182,192,73073,1,0,0:0:0:0:
402,192,73073,1,0,0:0:0:0:
256,192,73154,1,0,0:0:0:0:
329,192,73154,1,0,0:0:0:0:
109,192,73236,1,0,0:0:0:0:
402,192,73236,1,0,0:0:0:0:
182,192,73317,1,0,0:0:0:0:
256,192,73317,1,0,0:0:0:0:
36,192,73399,1,0,0:0:0:0:
329,192,73399,1,0,0:0:0:0:
475,192,73399,1,0,0:0:0:0:
109,192,73399,1,0,0:0:0:0:
402,192,73399,1,0,0:0:0:0:
182,192,73480,1,0,0:0:0:0:
256,192,73480,1,0,0:0:0:0:
109,192,73562,1,0,0:0:0:0:
402,192,73562,1,0,0:0:0:0:
256,192,73643,1,0,0:0:0:0:
329,192,73643,1,0,0:0:0:0:
109,192,73725,1,0,0:0:0:0:
182,192,73725,1,0,0:0:0:0:
402,192,73725,1,0,0:0:0:0:
475,192,73725,1,0,0:0:0:0:
36,192,73725,128,0,74377:0:0:0:0:
329,192,73888,1,0,0:0:0:0:
109,192,74051,128,0,74377:0:0:0:0:
256,192,74051,1,0,0:0:0:0:
475,192,74051,1,0,0:0:0:0:
402,192,74214,1,0,0:0:0:0:
182,192,74377,1,0,0:0:0:0:
329,192,74377,1,0,0:0:0:0:
475,192,74377,1,0,0:0:0:0:
256,192,74540,1,0,0:0:0:0:
36,192,74540,1,0,0:0:0:0:
109,192,74703,1,0,0:0:0:0:
329,192,74703,1,0,0:0:0:0:
475,192,74703,1,0,0:0:0:0:
182,192,74866,1,0,0:0:0:0:
36,192,74866,1,0,0:0:0:0:
109,192,75029,128,0,75681:0:0:0:0:
329,192,75029,1,0,0:0:0:0:
475,192,75029,1,0,0:0:0:0:
402,192,75192,1,0,0:0:0:0:
36,192,75355,128,0,75681:0:0:0:0:
256,192,75355,1,0,0:0:0:0:
475,192,75355,1,0,0:0:0:0:
329,192,75518,1,0,0:0:0:0:
402,192,75681,1,0,0:0:0:0:
475,192,75681,1,0,0:0:0:0:
182,192,75681,1,0,0:0:0:0:
329,192,75845,1,0,0:0:0:0:
109,192,75845,1,0,0:0:0:0:
182,192,76008,1,0,0:0:0:0:
36,192,76008,1,0,0:0:0:0:
402,192,76008,1,0,0:0:0:0:
109,192,76171,1,0,0:0:0:0:
256,192,76171,1,0,0:0:0:0:
36,192,76334,128,0,76660:0:0:0:0:
182,192,76334,1,0,0:0:0:0:
329,192,76334,1,0,0:0:0:0:
402,192,76497,1,0,0:0:0:0:
109,192,76660,128,0,76986:0:0:0:0:
256,192,76660,1,0,0:0:0:0:
475,192,76660,1,0,0:0:0:0:
329,192,76823,1,0,0:0:0:0:
182,192,76986,128,0,77312:0:0:0:0:
402,192,76986,1,0,0:0:0:0:
475,192,76986,1,0,0:0:0:0:
329,192,77149,1,0,0:0:0:0:
256,192,77312,128,0,77638:0:0:0:0:
36,192,77312,1,0,0:0:0:0:
475,192,77312,1,0,0:0:0:0:
402,192,77475,1,0,0:0:0:0:
329,192,77638,1,0,0:0:0:0:
475,192,77638,1,0,0:0:0:0:
109,192,77638,128,0,77801:0:0:0:0:
36,192,77801,128,0,77964:0:0:0:0:
256,192,77801,1,0,0:0:0:0:
182,192,77964,128,0,78127:0:0:0:0:
402,192,77964,1,0,0:0:0:0:
475,192,77964,1,0,0:0:0:0:
109,192,78127,128,0,78290:0:0:0:0:
329,192,78127,1,0,0:0:0:0:
256,192,78290,128,0,78453:0:0:0:0:
475,192,78290,1,0,0:0:0:0:
36,192,78290,1,0,0:0:0:0:
182,192,78453,128,0,78616:0:0:0:0:
402,192,78453,1,0,0:0:0:0:
329,192,78616,128,0,78779:0:0:0:0:
36,192,78616,1,0,0:0:0:0:
475,192,78616,1,0,0:0:0:0:
256,192,78779,128,0,78942:0:0:0:0:
109,192,78779,1,0,0:0:0:0:
182,192,78942,1,0,0:0:0:0:
36,192,78942,1,0,0:0:0:0:
402,192,78942,1,0,0:0:0:0:
475,192,78942,128,0,79268:0:0:0:0:
329,192,79105,1,0,0:0:0:0:
182,192,79268,1,0,0:0:0:0:
36,192,79268,1,0,0:0:0:0:
402,192,79268,128,0,79595:0:0:0:0:
256,192,79431,1,0,0:0:0:0:
329,192,79595,1,0,0:0:0:0:
36,192,79595,1,0,0:0:0:0:
109,192,79595,128,0,79676:0:0:0:0:
402,192,79758,1,0,0:0:0:0:
182,192,79758,128,0,79839:0:0:0:0:
475,192,79921,1,0,0:0:0:0:
36,192,79921,1,0,0:0:0:0:
256,192,79921,128,0,80002:0:0:0:0:
329,192,80084,1,0,0:0:0:0:
36,192,80247,1,0,0:0:0:0:
475,192,80247,1,0,0:0:0:0:
182,192,80247,128,0,80328:0:0:0:0:
256,192,80410,1,0,0:0:0:0:
109,192,80410,128,0,80491:0:0:0:0:
475,192,80573,1,0,0:0:0:0:
36,192,80573,1,0,0:0:0:0:
329,192,80573,128,0,80654:0:0:0:0:
256,192,80736,1,0,0:0:0:0:
402,192,80736,128,0,80980:0:0:0:0:
182,192,80899,1,0,0:0:0:0:
36,192,80899,1,0,0:0:0:0:
402,192,81062,1,0,0:0:0:0:
329,192,81062,128,0,81143:0:0:0:0:
109,192,81225,1,0,0:0:0:0:
475,192,81225,1,0,0:0:0:0:
256,192,81225,128,0,81388:0:0:0:0:
402,192,81388,1,0,0:0:0:0:
329,192,81551,1,0,0:0:0:0:
182,192,81551,1,0,0:0:0:0:
182,192,81714,1,0,0:0:0:0:
329,192,81714,1,0,0:0:0:0:
182,192,81877,1,0,0:0:0:0:
36,192,81877,1,0,0:0:0:0:
329,192,81877,1,0,0:0:0:0:
475,192,81877,1,0,0:0:0:0:
36,192,82040,1,0,0:0:0:0:
475,192,82040,1,0,0:0:0:0:
182,192,82122,1,0,0:0:0:0:
329,192,82122,1,0,0:0:0:0:
109,192,82203,1,0,0:0:0:0:
402,192,82203,1,0,0:0:0:0:
402,192,82366,1,0,0:0:0:0:
109,192,82366,1,0,0:0:0:0:
36,192,82529,1,0,0:0:0:0:
182,192,82529,1,0,0:0:0:0:
329,192,82529,1,0,0:0:0:0:
475,192,82529,1,0,0:0:0:0:
109,192,82692,1,0,0:0:0:0:
402,192,82692,1,0,0:0:0:0:
329,192,82774,1,0,0:0:0:0:
182,192,82774,1,0,0:0:0:0:
475,192,82855,1,0,0:0:0:0:
402,192,82855,1,0,0:0:0:0:
109,192,82855,1,0,0:0:0:0:
36,192,82855,1,0,0:0:0:0:
256,192,82855,1,0,0:0:0:0:
109,192,83018,1,0,0:0:0:0:
329,192,83018,1,0,0:0:0:0:
402,192,83018,1,0,0:0:0:0:
182,192,83018,1,0,0:0:0:0:
256,192,83018,1,0,0:0:0:0:
182,192,83181,1,0,0:0:0:0:
329,192,83181,1,0,0:0:0:0:
36,192,83181,1,0,0:0:0:0:
475,192,83181,1,0,0:0:0:0:
109,192,83345,1,0,0:0:0:0:
182,192,83345,1,0,0:0:0:0:
256,192,83345,1,0,0:0:0:0:
329,192,83345,1,0,0:0:0:0:
402,192,83345,1,0,0:0:0:0:
36,192,83508,1,0,0:0:0:0:
475,192,83508,1,0,0:0:0:0:
402,192,83589,1,0,0:0:0:0:
109,192,83589,1,0,0:0:0:0:
182,192,83671,1,0,0:0:0:0:
329,192,83671,1,0,0:0:0:0:
256,192,83671,1,0,0:0:0:0:
36,192,83671,1,0,0:0:0:0:
475,192,83671,1,0,0:0:0:0:
109,192,83752,1,0,0:0:0:0:
402,192,83752,1,0,0:0:0:0:
36,192,83834,1,0,0:0:0:0:
475,192,83834,1,0,0:0:0:0:
182,192,83834,1,0,0:0:0:0:
329,192,83834,1,0,0:0:0:0:
256,192,83834,1,0,0:0:0:0:
109,192,83997,1,0,0:0:0:0:
402,192,83997,1,0,0:0:0:0:
36,192,83997,1,0,0:0:0:0:
475,192,83997,1,0,0:0:0:0:
182,192,84078,1,0,0:0:0:0:
329,192,84078,1,0,0:0:0:0:
402,192,84160,1,0,0:0:0:0:
256,192,84160,1,0,0:0:0:0:
109,192,84160,1,0,0:0:0:0:
36,192,84160,1,0,0:0:0:0:
475,192,84160,128,0,84812:0:0:0:0:
182,192,84323,1,0,0:0:0:0:
402,192,84486,128,0,84812:0:0:0:0:
256,192,84486,1,0,0:0:0:0:
36,192,84486,1,0,0:0:0:0:
109,192,84649,1,0,0:0:0:0:
329,192,84812,1,0,0:0:0:0:
182,192,84812,1,0,0:0:0:0:
36,192,84812,1,0,0:0:0:0:
256,192,84975,1,0,0:0:0:0:
475,192,84975,1,0,0:0:0:0:
402,192,85138,1,0,0:0:0:0:
182,192,85138,1,0,0:0:0:0:
36,192,85138,1,0,0:0:0:0:
329,192,85301,1,0,0:0:0:0:
475,192,85301,1,0,0:0:0:0:
402,192,85464,128,0,86116:0:0:0:0:
182,192,85464,1,0,0:0:0:0:
36,192,85464,1,0,0:0:0:0:
109,192,85627,1,0,0:0:0:0:
475,192,85790,128,0,86116:0:0:0:0:
256,192,85790,1,0,0:0:0:0:
36,192,85790,1,0,0:0:0:0:
182,192,85953,1,0,0:0:0:0:
109,192,86116,1,0,0:0:0:0:
36,192,86116,1,0,0:0:0:0:
329,192,86116,1,0,0:0:0:0:
182,192,86279,1,0,0:0:0:0:
402,192,86279,1,0,0:0:0:0:
329,192,86442,1,0,0:0:0:0:
475,192,86442,1,0,0:0:0:0:
109,192,86442,1,0,0:0:0:0:
402,192,86605,1,0,0:0:0:0:
256,192,86605,1,0,0:0:0:0:
475,192,86768,128,0,87095:0:0:0:0:
329,192,86768,1,0,0:0:0:0:
182,192,86768,1,0,0:0:0:0:
109,192,86931,1,0,0:0:0:0:
402,192,87095,128,0,87421:0:0:0:0:
256,192,87095,1,0,0:0:0:0:
36,192,87095,1,0,0:0:0:0:
182,192,87258,1,0,0:0:0:0:
329,192,87421,128,0,87747:0:0:0:0:
109,192,87421,1,0,0:0:0:0:
36,192,87421,1,0,0:0:0:0:
182,192,87584,1,0,0:0:0:0:
256,192,87747,128,0,88073:0:0:0:0:
475,192,87747,1,0,0:0:0:0:
36,192,87747,1,0,0:0:0:0:
109,192,87910,1,0,0:0:0:0:
182,192,88073,1,0,0:0:0:0:
36,192,88073,1,0,0:0:0:0:
402,192,88073,128,0,88236:0:0:0:0:
475,192,88236,128,0,88399:0:0:0:0:
256,192,88236,1,0,0:0:0:0:
109,192,88399,1,0,0:0:0:0:
36,192,88399,1,0,0:0:0:0:
329,192,88399,128,0,88562:0:0:0:0:
402,192,88562,128,0,88725:0:0:0:0:
182,192,88562,1,0,0:0:0:0:
36,192,88725,1,0,0:0:0:0:
475,192,88725,1,0,0:0:0:0:
256,192,88725,128,0,88888:0:0:0:0:
329,192,88888,128,0,89051:0:0:0:0:
109,192,88888,1,0,0:0:0:0:
475,192,89051,1,0,0:0:0:0:
36,192,89051,1,0,0:0:0:0:
182,192,89051,128,0,89214:0:0:0:0:
256,192,89214,128,0,89377:0:0:0:0:
402,192,89214,1,0,0:0:0:0:
329,192,89377,1,0,0:0:0:0:
475,192,89377,1,0,0:0:0:0:
109,192,89377,1,0,0:0:0:0:
36,192,89377,128,0,89703:0:0:0:0:
182,192,89540,1,0,0:0:0:0:
329,192,89703,1,0,0:0:0:0:
475,192,89703,1,0,0:0:0:0:
109,192,89703,128,0,90029:0:0:0:0:
256,192,89866,1,0,0:0:0:0:
182,192,90029,1,0,0:0:0:0:
475,192,90029,1,0,0:0:0:0:
402,192,90029,128,0,90111:0:0:0:0:
109,192,90192,1,0,0:0:0:0:
329,192,90192,128,0,90274:0:0:0:0:
36,192,90355,1,0,0:0:0:0:
475,192,90355,1,0,0:0:0:0:
256,192,90355,128,0,90437:0:0:0:0:
182,192,90518,1,0,0:0:0:0:
475,192,90681,1,0,0:0:0:0:
36,192,90681,1,0,0:0:0:0:
329,192,90681,128,0,90763:0:0:0:0:
256,192,90845,1,0,0:0:0:0:
402,192,90845,128,0,90926:0:0:0:0:
36,192,91008,1,0,0:0:0:0:
475,192,91008,1,0,0:0:0:0:
182,192,91008,128,0,91089:0:0:0:0:
256,192,91171,1,0,0:0:0:0:
109,192,91171,128,0,91415:0:0:0:0:
36,192,91334,1,0,0:0:0:0:
475,192,91334,1,0,0:0:0:0:
329,192,91497,1,0,0:0:0:0:
182,192,91497,128,0,91578:0:0:0:0:
256,192,91660,128,0,91741:0:0:0:0:
36,192,91660,1,0,0:0:0:0:
475,192,91660,1,0,0:0:0:0:
329,192,91823,128,0,91904:0:0:0:0:
182,192,91823,1,0,0:0:0:0:
182,192,91986,1,0,0:0:0:0:
329,192,91986,1,0,0:0:0:0:
329,192,92149,1,0,0:0:0:0:
182,192,92149,1,0,0:0:0:0:
182,192,92312,1,0,0:0:0:0:
475,192,92312,1,0,0:0:0:0:
36,192,92312,1,0,0:0:0:0:
329,192,92312,1,0,0:0:0:0:
36,192,92475,1,0,0:0:0:0:
475,192,92475,1,0,0:0:0:0:
182,192,92556,1,0,0:0:0:0:
329,192,92556,1,0,0:0:0:0:
109,192,92638,1,0,0:0:0:0:
402,192,92638,1,0,0:0:0:0:
402,192,92801,1,0,0:0:0:0:
109,192,92801,1,0,0:0:0:0:
182,192,92964,1,0,0:0:0:0:
329,192,92964,1,0,0:0:0:0:
475,192,92964,1,0,0:0:0:0:
36,192,92964,1,0,0:0:0:0:
109,192,93127,1,0,0:0:0:0:
402,192,93127,1,0,0:0:0:0:
329,192,93209,1,0,0:0:0:0:
182,192,93209,1,0,0:0:0:0:
256,192,93290,1,0,0:0:0:0:
402,192,93290,1,0,0:0:0:0:
475,192,93290,1,0,0:0:0:0:
109,192,93290,1,0,0:0:0:0:
36,192,93290,1,0,0:0:0:0:
36,192,93453,1,0,0:0:0:0:
182,192,93453,1,0,0:0:0:0:
256,192,93453,1,0,0:0:0:0:
329,192,93453,1,0,0:0:0:0:
475,192,93453,1,0,0:0:0:0:
182,192,93616,1,0,0:0:0:0:
109,192,93616,1,0,0:0:0:0:
256,192,93616,1,0,0:0:0:0:
329,192,93616,1,0,0:0:0:0:
402,192,93616,1,0,0:0:0:0:
182,192,93942,1,0,0:0:0:0:
109,192,93942,1,0,0:0:0:0:
36,192,93942,1,0,0:0:0:0:
329,192,93942,1,0,0:0:0:0:
402,192,93942,1,0,0:0:0:0:
475,192,93942,1,0,0:0:0:0:
182,192,94105,1,0,0:0:0:0:
329,192,94105,1,0,0:0:0:0:
475,192,94268,1,0,0:0:0:0:
329,192,94268,1,0,0:0:0:0:
402,192,94268,1,0,0:0:0:0:
182,192,94268,1,0,0:0:0:0:
109,192,94268,1,0,0:0:0:0:
36,192,94268,1,0,0:0:0:0:
109,192,94431,1,0,0:0:0:0:
402,192,94431,1,0,0:0:0:0:
182,192,94513,1,0,0:0:0:0:
329,192,94513,1,0,0:0:0:0:
256,192,94595,128,0,95899:0:0:0:0:
109,192,94595,1,0,0:0:0:0:
36,192,94595,1,0,0:0:0:0:
475,192,94595,128,0,94758:0:0:0:0:
402,192,94595,128,0,94758:0:0:0:0:
182,192,94758,1,0,0:0:0:0:
402,192,94921,128,0,95084:0:0:0:0:
329,192,94921,128,0,95084:0:0:0:0:
36,192,94921,1,0,0:0:0:0:
109,192,95084,1,0,0:0:0:0:
182,192,95247,1,0,0:0:0:0:
475,192,95247,1,0,0:0:0:0:
402,192,95410,128,0,95491:0:0:0:0:
329,192,95410,128,0,95491:0:0:0:0:
109,192,95410,1,0,0:0:0:0:
329,192,95573,128,0,95654:0:0:0:0:
475,192,95573,128,0,95654:0:0:0:0:
36,192,95573,1,0,0:0:0:0:
475,192,95736,128,0,95817:0:0:0:0:
402,192,95736,128,0,95817:0:0:0:0:
182,192,95736,1,0,0:0:0:0:
109,192,95899,128,0,96062:0:0:0:0:
36,192,95899,128,0,96062:0:0:0:0:
402,192,95899,1,0,0:0:0:0:
475,192,95899,1,0,0:0:0:0:
329,192,96062,1,0,0:0:0:0:
182,192,96225,128,0,96388:0:0:0:0:
109,192,96225,128,0,96388:0:0:0:0:
475,192,96225,1,0,0:0:0:0:
402,192,96388,1,0,0:0:0:0:
329,192,96551,1,0,0:0:0:0:
36,192,96551,1,0,0:0:0:0:
182,192,96714,128,0,96796:0:0:0:0:
109,192,96714,128,0,96796:0:0:0:0:
402,192,96714,1,0,0:0:0:0:
182,192,96877,128,0,96959:0:0:0:0:
36,192,96877,128,0,96959:0:0:0:0:
475,192,96877,1,0,0:0:0:0:
109,192,97040,128,0,97122:0:0:0:0:
36,192,97040,128,0,97122:0:0:0:0:
329,192,97040,1,0,0:0:0:0:
475,192,97203,128,0,97366:0:0:0:0:
256,192,97203,128,0,97366:0:0:0:0:
402,192,97203,1,0,0:0:0:0:
182,192,97366,1,0,0:0:0:0:
36,192,97366,1,0,0:0:0:0:
475,192,97529,128,0,97692:0:0:0:0:
256,192,97529,128,0,97692:0:0:0:0:
402,192,97529,1,0,0:0:0:0:
182,192,97692,1,0,0:0:0:0:
36,192,97692,1,0,0:0:0:0:
256,192,97855,128,0,98018:0:0:0:0:
36,192,97855,128,0,98018:0:0:0:0:
109,192,97855,1,0,0:0:0:0:
329,192,98018,1,0,0:0:0:0:
475,192,98018,1,0,0:0:0:0:
256,192,98181,128,0,98345:0:0:0:0:
36,192,98181,128,0,98345:0:0:0:0:
109,192,98181,1,0,0:0:0:0:
329,192,98345,1,0,0:0:0:0:
475,192,98345,1,0,0:0:0:0:
475,192,98508,128,0,98589:0:0:0:0:
182,192,98508,128,0,98589:0:0:0:0:
329,192,98508,1,0,0:0:0:0:
329,192,98671,128,0,98752:0:0:0:0:
36,192,98671,128,0,98752:0:0:0:0:
182,192,98671,1,0,0:0:0:0:
402,192,98834,128,0,98915:0:0:0:0:
109,192,98834,128,0,98915:0:0:0:0:
256,192,98834,1,0,0:0:0:0:
182,192,98997,128,0,99078:0:0:0:0:
475,192,98997,128,0,99078:0:0:0:0:
329,192,98997,1,0,0:0:0:0:
402,192,99160,1,0,0:0:0:0:
109,192,99160,1,0,0:0:0:0:
475,192,99323,128,0,99404:0:0:0:0:
182,192,99323,128,0,99404:0:0:0:0:
329,192,99323,1,0,0:0:0:0:
402,192,99486,128,0,99567:0:0:0:0:
109,192,99486,128,0,99567:0:0:0:0:
256,192,99486,1,0,0:0:0:0:
36,192,99649,128,0,99730:0:0:0:0:
329,192,99649,128,0,99730:0:0:0:0:
182,192,99649,1,0,0:0:0:0:
475,192,99812,128,0,99975:0:0:0:0:
182,192,99812,128,0,99975:0:0:0:0:
329,192,99812,1,0,0:0:0:0:
36,192,99812,1,0,0:0:0:0:
256,192,99975,1,0,0:0:0:0:
475,192,100138,128,0,100301:0:0:0:0:
182,192,100138,128,0,100301:0:0:0:0:
329,192,100138,1,0,0:0:0:0:
256,192,100301,1,0,0:0:0:0:
329,192,100464,128,0,100546:0:0:0:0:
36,192,100464,128,0,100546:0:0:0:0:
182,192,100464,1,0,0:0:0:0:
109,192,100627,128,0,100709:0:0:0:0:
402,192,100627,128,0,100709:0:0:0:0:
256,192,100627,1,0,0:0:0:0:
329,192,100790,128,0,100872:0:0:0:0:
36,192,100790,128,0,100872:0:0:0:0:
182,192,100790,1,0,0:0:0:0:
256,192,100953,1,0,0:0:0:0:
329,192,101116,1,0,0:0:0:0:
475,192,101116,1,0,0:0:0:0:
402,192,101116,1,0,0:0:0:0:
109,192,101116,1,0,0:0:0:0:
182,192,101116,1,0,0:0:0:0:
36,192,101116,1,0,0:0:0:0:
475,192,101279,1,0,0:0:0:0:
402,192,101279,1,0,0:0:0:0:
329,192,101279,1,0,0:0:0:0:
182,192,101279,1,0,0:0:0:0:
109,192,101279,1,0,0:0:0:0:
36,192,101279,1,0,0:0:0:0:
36,192,101442,1,0,0:0:0:0:
109,192,101442,1,0,0:0:0:0:
182,192,101442,1,0,0:0:0:0:
329,192,101442,1,0,0:0:0:0:
402,192,101442,1,0,0:0:0:0:
475,192,101442,1,0,0:0:0:0:
182,192,101768,1,0,0:0:0:0:
402,192,101768,1,0,0:0:0:0:
475,192,101768,1,0,0:0:0:0:
256,192,101768,1,0,0:0:0:0:
36,192,101768,1,0,0:0:0:0:
109,192,101768,1,0,0:0:0:0:
475,192,102095,1,0,0:0:0:0:
402,192,102095,1,0,0:0:0:0:
329,192,102095,1,0,0:0:0:0:
256,192,102095,1,0,0:0:0:0:
109,192,102095,1,0,0:0:0:0:
36,192,102095,1,0,0:0:0:0:
329,192,102421,1,0,0:0:0:0:
475,192,102421,1,0,0:0:0:0:
182,192,102421,1,0,0:0:0:0:
256,192,102421,1,0,0:0:0:0:
36,192,102421,1,0,0:0:0:0:
402,192,102584,1,0,0:0:0:0:
329,192,102584,1,0,0:0:0:0:
182,192,102584,1,0,0:0:0:0:
109,192,102584,1,0,0:0:0:0:
475,192,102747,1,0,0:0:0:0:
36,192,102747,1,0,0:0:0:0:
402,192,102747,1,0,0:0:0:0:
256,192,102747,1,0,0:0:0:0:
109,192,102747,1,0,0:0:0:0:
109,192,103888,1,0,0:0:0:0:
182,192,103888,1,0,0:0:0:0:
256,192,103888,1,0,0:0:0:0:
402,192,103888,1,0,0:0:0:0:
329,192,103888,1,0,0:0:0:0:
109,192,104214,1,0,0:0:0:0:
182,192,104214,1,0,0:0:0:0:
256,192,104214,1,0,0:0:0:0:
329,192,104214,1,0,0:0:0:0:
402,192,104214,1,0,0:0:0:0:
402,192,104540,1,0,0:0:0:0:
329,192,104540,1,0,0:0:0:0:
256,192,104540,1,0,0:0:0:0:
182,192,104540,1,0,0:0:0:0:
109,192,104540,1,0,0:0:0:0:
109,192,104866,1,0,0:0:0:0:
182,192,104866,1,0,0:0:0:0:
256,192,104866,1,0,0:0:0:0:
329,192,104866,1,0,0:0:0:0:
402,192,104866,1,0,0:0:0:0:
109,192,105029,1,0,0:0:0:0:
36,192,105029,1,0,0:0:0:0:
402,192,105029,1,0,0:0:0:0:
475,192,105029,1,0,0:0:0:0:
256,192,105029,1,0,0:0:0:0:
36,192,105518,1,0,0:0:0:0:
109,192,105518,1,0,0:0:0:0:
256,192,105518,1,0,0:0:0:0:
402,192,105518,1,0,0:0:0:0:
475,192,105518,1,0,0:0:0:0:
182,192,106008,1,0,0:0:0:0:
256,192,106008,1,0,0:0:0:0:
329,192,106008,1,0,0:0:0:0:
475,192,106008,1,0,0:0:0:0:
36,192,106008,1,0,0:0:0:0:
182,192,107149,1,0,0:0:0:0:
109,192,107149,1,0,0:0:0:0:
256,192,107149,1,0,0:0:0:0:
329,192,107149,1,0,0:0:0:0:
402,192,107149,1,0,0:0:0:0:
402,192,107312,1,0,0:0:0:0:
329,192,107312,1,0,0:0:0:0:
256,192,107312,1,0,0:0:0:0:
182,192,107312,1,0,0:0:0:0:
109,192,107312,1,0,0:0:0:0:
36,192,107638,1,0,0:0:0:0:
256,192,107638,1,0,0:0:0:0:
402,192,107638,1,0,0:0:0:0:
475,192,107638,1,0,0:0:0:0:
109,192,107638,128,0,107720:0:0:0:0:
182,192,107801,128,0,107883:0:0:0:0:
329,192,107964,1,0,0:0:0:0:
475,192,107964,1,0,0:0:0:0:
36,192,107964,128,0,108046:0:0:0:0:
36,192,108127,128,0,108209:0:0:0:0:
475,192,108290,1,0,0:0:0:0:
402,192,108290,1,0,0:0:0:0:
182,192,108290,128,0,108372:0:0:0:0:
109,192,108453,128,0,108535:0:0:0:0:
329,192,108616,1,0,0:0:0:0:
475,192,108616,1,0,0:0:0:0:
109,192,108616,128,0,108698:0:0:0:0:
256,192,108779,128,0,108861:0:0:0:0:
182,192,108942,1,0,0:0:0:0:
36,192,108942,1,0,0:0:0:0:
402,192,108942,128,0,109024:0:0:0:0:
402,192,109105,128,0,109187:0:0:0:0:
475,192,109268,1,0,0:0:0:0:
109,192,109268,1,0,0:0:0:0:
256,192,109268,128,0,109350:0:0:0:0:
329,192,109431,128,0,109513:0:0:0:0:
182,192,109595,1,0,0:0:0:0:
36,192,109595,1,0,0:0:0:0:
329,192,109595,128,0,109676:0:0:0:0:
475,192,109758,128,0,109839:0:0:0:0:
109,192,109921,1,0,0:0:0:0:
36,192,109921,1,0,0:0:0:0:
329,192,109921,128,0,110002:0:0:0:0:
475,192,110084,128,0,110165:0:0:0:0:
36,192,110247,1,0,0:0:0:0:
109,192,110247,1,0,0:0:0:0:
402,192,110247,1,0,0:0:0:0:
475,192,110247,1,0,0:0:0:0:
256,192,110247,1,0,0:0:0:0:
182,192,110573,1,0,0:0:0:0:
256,192,110573,1,0,0:0:0:70:Clap.wav
329,192,110573,1,0,0:0:0:0:
329,192,110736,1,0,0:0:0:0:
256,192,110736,1,0,0:0:0:70:Clap.wav
182,192,110736,1,0,0:0:0:0:
402,192,110899,1,0,0:0:0:0:
475,192,110899,1,0,0:0:0:0:
329,192,111062,1,0,0:0:0:0:
182,192,111062,1,0,0:0:0:0:
36,192,111225,1,0,0:0:0:0:
109,192,111225,1,0,0:0:0:0:
256,192,111225,1,0,0:0:0:70:Clap.wav
256,192,111388,1,0,0:0:0:0:
402,192,111388,1,0,0:0:0:0:
475,192,111388,1,0,0:0:0:0:
182,192,111714,1,0,0:0:0:0:
329,192,111714,1,0,0:0:0:0:
402,192,111714,1,0,0:0:0:0:
109,192,111877,1,0,0:0:0:0:
36,192,111877,1,0,0:0:0:0:
256,192,111877,1,0,0:0:0:70:Clap.wav
36,192,112040,1,0,0:0:0:0:
109,192,112040,1,0,0:0:0:0:
256,192,112040,1,0,0:0:0:70:Clap.wav
402,192,112203,1,0,0:0:0:0:
475,192,112203,1,0,0:0:0:0:
329,192,112285,1,0,0:0:0:0:
256,192,112285,1,0,0:0:0:0:
36,192,112366,1,0,0:0:0:0:
109,192,112366,1,0,0:0:0:0:
256,192,112448,1,0,0:0:0:0:
182,192,112448,1,0,0:0:0:0:
329,192,112529,1,0,0:0:0:0:
402,192,112529,1,0,0:0:0:70:Clap.wav
475,192,112529,1,0,0:0:0:0:
182,192,112611,1,0,0:0:0:0:
109,192,112611,1,0,0:0:0:0:
329,192,112692,1,0,0:0:0:0:
402,192,112692,1,0,0:0:0:0:
256,192,112774,1,0,0:0:0:0:
182,192,112774,1,0,0:0:0:0:
36,192,112855,1,0,0:0:0:0:
109,192,112855,1,0,0:0:0:0:
402,192,112855,1,0,0:0:0:0:
475,192,112855,1,0,0:0:0:0:
329,192,112855,1,0,0:0:0:0:
182,192,113181,1,0,0:0:0:0:
329,192,113181,1,0,0:0:0:0:
109,192,113345,1,0,0:0:0:0:
36,192,113345,1,0,0:0:0:0:
256,192,113508,1,0,0:0:0:0:
402,192,113508,1,0,0:0:0:0:
182,192,113671,1,0,0:0:0:0:
36,192,113671,1,0,0:0:0:0:
329,192,113834,1,0,0:0:0:0:
475,192,113834,1,0,0:0:0:0:
182,192,113834,1,0,0:0:0:0:
256,192,113997,1,0,0:0:0:0:
182,192,114160,1,0,0:0:0:0:
36,192,114160,1,0,0:0:0:0:
475,192,114160,1,0,0:0:0:0:
329,192,114323,1,0,0:0:0:0:
475,192,114323,1,0,0:0:0:0:
109,192,114486,1,0,0:0:0:0:
256,192,114486,1,0,0:0:0:0:
402,192,114486,1,0,0:0:0:0:
182,192,114649,1,0,0:0:0:0:
36,192,114649,1,0,0:0:0:0:
329,192,114812,1,0,0:0:0:0:
475,192,114812,1,0,0:0:0:0:
182,192,114812,1,0,0:0:0:0:
109,192,114975,1,0,0:0:0:0:
256,192,115138,1,0,0:0:0:0:
475,192,115138,1,0,0:0:0:0:
36,192,115138,1,0,0:0:0:0:
329,192,115301,1,0,0:0:0:0:
475,192,115464,1,0,0:0:0:0:
182,192,115464,1,0,0:0:0:0:
36,192,115464,1,0,0:0:0:0:
329,192,115790,1,0,0:0:0:0:
182,192,115790,1,0,0:0:0:0:
402,192,115953,1,0,0:0:0:0:
475,192,115953,1,0,0:0:0:0:
256,192,116116,1,0,0:0:0:0:
109,192,116116,1,0,0:0:0:0:
329,192,116279,1,0,0:0:0:0:
475,192,116279,1,0,0:0:0:0:
182,192,116442,1,0,0:0:0:0:
36,192,116442,1,0,0:0:0:0:
329,192,116442,1,0,0:0:0:0:
256,192,116605,1,0,0:0:0:0:
329,192,116768,1,0,0:0:0:0:
475,192,116768,1,0,0:0:0:0:
36,192,116768,1,0,0:0:0:0:
182,192,116931,1,0,0:0:0:0:
36,192,116931,1,0,0:0:0:0:
402,192,117095,1,0,0:0:0:0:
256,192,117095,1,0,0:0:0:0:
109,192,117095,1,0,0:0:0:0:
329,192,117258,1,0,0:0:0:0:
475,192,117258,1,0,0:0:0:0:
182,192,117421,1,0,0:0:0:0:
36,192,117421,1,0,0:0:0:0:
329,192,117421,1,0,0:0:0:0:
402,192,117584,1,0,0:0:0:0:
256,192,117747,1,0,0:0:0:0:
36,192,117747,1,0,0:0:0:0:
475,192,117747,1,0,0:0:0:0:
182,192,117910,1,0,0:0:0:0:
109,192,118073,1,0,0:0:0:0:
475,192,118073,1,0,0:0:0:0:
402,192,118073,1,0,0:0:0:0:
329,192,118073,1,0,0:0:0:0:
256,192,118236,1,0,0:0:0:0:
36,192,118236,1,0,0:0:0:0:
182,192,118399,1,0,0:0:0:0:
402,192,118399,1,0,0:0:0:0:
329,192,118562,1,0,0:0:0:0:
109,192,118562,1,0,0:0:0:0:
256,192,118725,1,0,0:0:0:0:
36,192,118725,1,0,0:0:0:0:
329,192,118888,1,0,0:0:0:0:
109,192,118888,1,0,0:0:0:0:
475,192,119051,1,0,0:0:0:0:
182,192,119051,1,0,0:0:0:0:
402,192,119051,1,0,0:0:0:0:
256,192,119214,1,0,0:0:0:0:
36,192,119214,1,0,0:0:0:0:
329,192,119377,1,0,0:0:0:0:
475,192,119377,1,0,0:0:0:0:
109,192,119377,1,0,0:0:0:0:
182,192,119540,1,0,0:0:0:0:
402,192,119703,1,0,0:0:0:0:
256,192,119703,1,0,0:0:0:0:
36,192,119703,1,0,0:0:0:0:
109,192,119866,1,0,0:0:0:0:
182,192,120029,1,0,0:0:0:0:
475,192,120029,1,0,0:0:0:0:
256,192,120152,1,0,0:0:0:0:
329,192,120192,1,0,0:0:0:0:
36,192,120192,1,0,0:0:0:0:
402,192,120355,1,0,0:0:0:0:
109,192,120355,1,0,0:0:0:0:
475,192,120355,1,0,0:0:0:0:
329,192,120518,1,0,0:0:0:0:
256,192,120681,1,0,0:0:0:0:
36,192,120681,1,0,0:0:0:0:
475,192,120681,1,0,0:0:0:0:
182,192,120845,1,0,0:0:0:0:
109,192,121008,1,0,0:0:0:0:
329,192,121008,1,0,0:0:0:0:
475,192,121008,1,0,0:0:0:0:
256,192,121171,1,0,0:0:0:0:
402,192,121334,1,0,0:0:0:0:
182,192,121334,1,0,0:0:0:0:
36,192,121334,1,0,0:0:0:0:
329,192,121497,1,0,0:0:0:0:
256,192,121660,1,0,0:0:0:0:
109,192,121660,1,0,0:0:0:0:
402,192,121823,1,0,0:0:0:0:
475,192,121823,1,0,0:0:0:0:
182,192,121823,1,0,0:0:0:0:
36,192,121823,1,0,0:0:0:0:
329,192,121823,1,0,0:0:0:0:
475,192,122149,1,0,0:0:0:0:
402,192,122149,1,0,0:0:0:0:
329,192,122149,1,0,0:0:0:0:
182,192,122149,1,0,0:0:0:0:
36,192,122149,1,0,0:0:0:0:
182,192,122475,1,0,0:0:0:0:
109,192,122475,1,0,0:0:0:0:
36,192,122475,1,0,0:0:0:0:
329,192,122475,1,0,0:0:0:0:
475,192,122475,1,0,0:0:0:0:
402,192,122638,1,0,0:0:0:0:
256,192,122638,1,0,0:0:0:0:
475,192,122801,1,0,0:0:0:0:
329,192,122801,1,0,0:0:0:0:
182,192,122801,1,0,0:0:0:0:
109,192,122801,1,0,0:0:0:0:
36,192,122801,1,0,0:0:0:0:
256,192,122883,1,0,0:0:0:0:
329,192,122964,1,0,0:0:0:0:
182,192,122964,1,0,0:0:0:0:
109,192,122964,1,0,0:0:0:0:
36,192,122964,1,0,0:0:0:0:
475,192,122964,1,0,0:0:0:0:
402,192,123127,1,0,0:0:0:0:
329,192,123209,1,0,0:0:0:0:
256,192,123290,1,0,0:0:0:0:
109,192,123290,1,0,0:0:0:0:
402,192,123290,1,0,0:0:0:0:
475,192,123290,1,0,0:0:0:0:
36,192,123290,128,0,123779:0:0:0:0:
109,192,123779,128,0,123942:0:0:0:0:
402,192,123779,1,0,0:0:0:0:
36,192,123942,128,0,124595:0:0:0:0:
475,192,123942,1,0,0:0:0:70:Clap.wav
329,192,124268,1,0,0:0:0:0:
256,192,124431,1,0,0:0:0:0:
182,192,124595,1,0,0:0:0:0:
475,192,124595,128,0,124921:0:0:0:0:
329,192,124921,128,0,125247:0:0:0:0:
36,192,124921,1,0,0:0:0:0:
182,192,125247,128,0,125573:0:0:0:0:
475,192,125247,1,0,0:0:0:70:Clap.wav
36,192,125573,128,0,125899:0:0:0:0:
329,192,125573,1,0,0:0:0:0:
256,192,125899,128,0,126225:0:0:0:0:
475,192,125899,1,0,0:0:0:0:
402,192,125899,1,0,0:0:0:0:
256,192,126388,1,0,0:0:0:0:
475,192,126551,1,0,0:0:0:70:Clap.wav
329,192,126551,128,0,126714:0:0:0:0:
256,192,126714,128,0,126877:0:0:0:0:
182,192,126877,128,0,127040:0:0:0:0:
36,192,126877,1,0,0:0:0:0:
329,192,127040,128,0,127203:0:0:0:0:
475,192,127040,1,0,0:0:0:0:
36,192,127203,128,0,127692:0:0:0:0:
475,192,127203,1,0,0:0:0:0:
402,192,127312,1,0,0:0:0:0:
182,192,127312,1,0,0:0:0:0:
256,192,127421,1,0,0:0:0:0:
475,192,127421,1,0,0:0:0:0:
329,192,127529,1,0,0:0:0:0:
109,192,127529,1,0,0:0:0:0:
182,192,127638,1,0,0:0:0:0:
402,192,127638,1,0,0:0:0:0:
109,192,127692,128,0,127855:0:0:0:0:
475,192,127747,1,0,0:0:0:0:
256,192,127747,1,0,0:0:0:0:
182,192,127855,128,0,128018:0:0:0:0:
329,192,127855,1,0,0:0:0:0:
402,192,127910,1,0,0:0:0:0:
475,192,127964,1,0,0:0:0:0:
36,192,128018,128,0,128181:0:0:0:0:
256,192,128018,1,0,0:0:0:0:
329,192,128073,1,0,0:0:0:0:
402,192,128127,1,0,0:0:0:0:
475,192,128181,1,0,0:0:0:0:
182,192,128181,1,0,0:0:0:0:
256,192,128236,1,0,0:0:0:0:
329,192,128290,1,0,0:0:0:0:
402,192,128345,1,0,0:0:0:0:
109,192,128345,1,0,0:0:0:0:
182,192,128399,1,0,0:0:0:0:
256,192,128453,1,0,0:0:0:0:
402,192,128508,1,0,0:0:0:0:
329,192,128508,1,0,0:0:0:0:
475,192,128508,1,0,0:0:0:0:
109,192,128508,1,0,0:0:0:0:
36,192,128508,1,0,0:0:0:0:
182,192,128834,1,0,0:0:0:0:
36,192,128834,1,0,0:0:0:0:
109,192,128834,1,0,0:0:0:0:
402,192,128834,1,0,0:0:0:0:
475,192,128834,1,0,0:0:0:0:
402,192,129160,1,0,0:0:0:0:
182,192,129160,1,0,0:0:0:0:
475,192,129160,1,0,0:0:0:0:
329,192,129323,1,0,0:0:0:0:
109,192,129323,1,0,0:0:0:0:
256,192,129486,1,0,0:0:0:0:
36,192,129486,1,0,0:0:0:0:
475,192,129486,1,0,0:0:0:0:
402,192,129486,1,0,0:0:0:0:
182,192,129486,1,0,0:0:0:0:
182,192,129812,1,0,0:0:0:0:
109,192,129812,1,0,0:0:0:0:
36,192,129812,1,0,0:0:0:0:
402,192,129812,1,0,0:0:0:0:
475,192,129812,1,0,0:0:0:0:
475,192,130138,1,0,0:0:0:0:
402,192,130138,1,0,0:0:0:0:
329,192,130138,1,0,0:0:0:0:
109,192,130138,1,0,0:0:0:0:
36,192,130138,1,0,0:0:0:0:
256,192,130464,1,0,0:0:0:0:
36,192,130464,1,0,0:0:0:0:
475,192,130464,1,0,0:0:0:0:
402,192,130627,1,0,0:0:0:0:
109,192,130627,1,0,0:0:0:0:
256,192,130790,1,0,0:0:0:0:
475,192,130790,1,0,0:0:0:0:
329,192,130790,1,0,0:0:0:0:
182,192,130790,1,0,0:0:0:0:
36,192,130790,1,0,0:0:0:0:
329,192,130953,1,0,0:0:0:0:
182,192,130953,1,0,0:0:0:0:
402,192,131116,1,0,0:0:0:0:
109,192,131116,1,0,0:0:0:0:
36,192,131116,1,0,0:0:0:0:
256,192,131116,1,0,0:0:0:0:
475,192,131116,1,0,0:0:0:0:
329,192,131279,1,0,0:0:0:0:
182,192,131279,1,0,0:0:0:0:
402,192,131442,1,0,0:0:0:0:
475,192,131442,1,0,0:0:0:0:
256,192,131442,1,0,0:0:0:0:
109,192,131442,1,0,0:0:0:0:
36,192,131442,1,0,0:0:0:0:
329,192,131605,1,0,0:0:0:0:
182,192,131605,1,0,0:0:0:0:
256,192,131768,1,0,0:0:0:0:
475,192,131768,1,0,0:0:0:0:
36,192,131768,1,0,0:0:0:0:
402,192,131931,1,0,0:0:0:0:
109,192,131931,1,0,0:0:0:0:
329,192,132095,1,0,0:0:0:0:
256,192,132095,1,0,0:0:0:0:
182,192,132095,1,0,0:0:0:0:
36,192,132095,1,0,0:0:0:0:
475,192,132095,1,0,0:0:0:0:
475,192,132258,1,0,0:0:0:0:
402,192,132258,1,0,0:0:0:0:
329,192,132258,1,0,0:0:0:0:
182,192,132258,1,0,0:0:0:0:
109,192,132258,1,0,0:0:0:0:
329,192,132584,1,0,0:0:0:0:
402,192,132584,1,0,0:0:0:0:
256,192,132584,1,0,0:0:0:0:
109,192,132584,1,0,0:0:0:0:
36,192,132584,1,0,0:0:0:0:
182,192,132910,1,0,0:0:0:0:
109,192,132910,1,0,0:0:0:0:
256,192,132910,1,0,0:0:0:0:
402,192,132910,1,0,0:0:0:0:
475,192,132910,1,0,0:0:0:0:
402,192,133236,1,0,0:0:0:0:
329,192,133236,1,0,0:0:0:0:
256,192,133236,1,0,0:0:0:0:
109,192,133236,1,0,0:0:0:0:
182,192,133236,1,0,0:0:0:0:
402,192,133399,1,0,0:0:0:0:
329,192,133399,1,0,0:0:0:0:
256,192,133399,1,0,0:0:0:0:
182,192,133399,1,0,0:0:0:0:
109,192,133399,1,0,0:0:0:0:
402,192,133562,1,0,0:0:0:0:
329,192,133562,1,0,0:0:0:0:
256,192,133562,1,0,0:0:0:0:
182,192,133562,1,0,0:0:0:0:
109,192,133562,1,0,0:0:0:0:
329,192,133888,1,0,0:0:0:0:
402,192,133888,1,0,0:0:0:0:
475,192,133888,1,0,0:0:0:0:
182,192,133888,1,0,0:0:0:0:
109,192,133888,1,0,0:0:0:0:
36,192,133888,1,0,0:0:0:0:
182,192,134051,1,0,0:0:0:0:
109,192,134051,1,0,0:0:0:0:
36,192,134051,1,0,0:0:0:0:
402,192,134051,1,0,0:0:0:0:
475,192,134051,1,0,0:0:0:0:
329,192,134051,1,0,0:0:0:0:
475,192,134377,1,0,0:0:0:0:
402,192,134377,1,0,0:0:0:0:
36,192,134377,1,0,0:0:0:0:
329,192,134377,1,0,0:0:0:0:
109,192,134377,1,0,0:0:0:0:
256,192,134459,1,0,0:0:0:0:
182,192,134459,1,0,0:0:0:0:
402,192,134540,1,0,0:0:0:0:
109,192,134540,1,0,0:0:0:0:
329,192,134622,1,0,0:0:0:0:
256,192,134622,1,0,0:0:0:0:
475,192,134703,1,0,0:0:0:0:
182,192,134703,1,0,0:0:0:0:
36,192,134703,1,0,0:0:0:0:
402,192,134703,1,0,0:0:0:0:
109,192,134703,1,0,0:0:0:0:
329,192,134785,1,0,0:0:0:0:
256,192,134785,1,0,0:0:0:0:
402,192,134866,1,0,0:0:0:0:
109,192,134866,1,0,0:0:0:0:
256,192,134948,1,0,0:0:0:0:
182,192,134948,1,0,0:0:0:0:
36,192,135029,128,0,135681:0:0:0:0:
109,192,135029,1,0,0:0:0:0:
329,192,135029,1,0,0:0:0:0:
402,192,135029,1,0,0:0:0:0:
475,192,135029,1,0,0:0:0:0:
256,192,135192,1,0,0:0:0:0:
109,192,135355,128,0,135681:0:0:0:0:
182,192,135355,128,0,135681:0:0:0:0:
475,192,135355,1,0,0:0:0:0:
402,192,135518,1,0,0:0:0:0:
256,192,135681,1,0,0:0:0:0:
329,192,135681,1,0,0:0:0:0:
475,192,135681,1,0,0:0:0:0:
402,192,135845,128,0,136008:0:0:0:0:
182,192,135845,1,0,0:0:0:0:
329,192,136008,128,0,136171:0:0:0:0:
109,192,136008,1,0,0:0:0:0:
475,192,136008,1,0,0:0:0:0:
256,192,136171,128,0,136334:0:0:0:0:
36,192,136171,1,0,0:0:0:0:
182,192,136334,128,0,136986:0:0:0:0:
402,192,136334,1,0,0:0:0:0:
475,192,136334,1,0,0:0:0:0:
329,192,136497,1,0,0:0:0:0:
109,192,136660,128,0,136986:0:0:0:0:
36,192,136660,128,0,136986:0:0:0:0:
475,192,136660,1,0,0:0:0:0:
402,192,136823,1,0,0:0:0:0:
256,192,136986,1,0,0:0:0:0:
329,192,136986,1,0,0:0:0:0:
475,192,136986,1,0,0:0:0:0:
402,192,137149,1,0,0:0:0:0:
109,192,137149,128,0,137312:0:0:0:0:
36,192,137312,1,0,0:0:0:0:
182,192,137312,128,0,137475:0:0:0:0:
329,192,137312,1,0,0:0:0:0:
256,192,137475,128,0,137638:0:0:0:0:
402,192,137475,1,0,0:0:0:0:
36,192,137638,128,0,138290:0:0:0:0:
182,192,137638,1,0,0:0:0:0:
329,192,137638,1,0,0:0:0:0:
402,192,137801,1,0,0:0:0:0:
109,192,137964,128,0,138616:0:0:0:0:
256,192,137964,1,0,0:0:0:0:
475,192,137964,1,0,0:0:0:0:
329,192,138127,1,0,0:0:0:0:
182,192,138290,128,0,138942:0:0:0:0:
402,192,138290,1,0,0:0:0:0:
475,192,138290,1,0,0:0:0:0:
329,192,138453,1,0,0:0:0:0:
256,192,138616,128,0,138942:0:0:0:0:
36,192,138616,1,0,0:0:0:0:
475,192,138616,1,0,0:0:0:0:
402,192,138779,1,0,0:0:0:0:
329,192,138942,1,0,0:0:0:0:
475,192,138942,1,0,0:0:0:0:
109,192,138942,128,0,139268:0:0:0:0:
36,192,139105,128,0,139268:0:0:0:0:
256,192,139105,1,0,0:0:0:0:
182,192,139268,128,0,139595:0:0:0:0:
402,192,139268,1,0,0:0:0:0:
475,192,139268,1,0,0:0:0:0:
109,192,139431,128,0,139595:0:0:0:0:
329,192,139431,1,0,0:0:0:0:
256,192,139595,128,0,139921:0:0:0:0:
475,192,139595,1,0,0:0:0:0:
36,192,139595,1,0,0:0:0:0:
182,192,139758,128,0,139921:0:0:0:0:
402,192,139758,1,0,0:0:0:0:
329,192,139921,128,0,140247:0:0:0:0:
36,192,139921,1,0,0:0:0:0:
475,192,139921,1,0,0:0:0:0:
256,192,140084,128,0,140247:0:0:0:0:
109,192,140084,1,0,0:0:0:0:
182,192,140247,1,0,0:0:0:0:
36,192,140247,1,0,0:0:0:0:
402,192,140247,1,0,0:0:0:0:
475,192,140247,128,0,140573:0:0:0:0:
329,192,140410,1,0,0:0:0:0:
182,192,140573,1,0,0:0:0:0:
36,192,140573,1,0,0:0:0:0:
402,192,140573,128,0,140899:0:0:0:0:
256,192,140736,1,0,0:0:0:0:
36,192,140899,1,0,0:0:0:0:
109,192,140899,128,0,140980:0:0:0:0:
329,192,140899,128,0,140980:0:0:0:0:
182,192,141062,128,0,141143:0:0:0:0:
402,192,141062,128,0,141143:0:0:0:0:
36,192,141225,1,0,0:0:0:0:
256,192,141225,128,0,141306:0:0:0:0:
475,192,141225,128,0,141306:0:0:0:0:
329,192,141388,1,0,0:0:0:0:
475,192,141551,1,0,0:0:0:0:
182,192,141551,128,0,141633:0:0:0:0:
36,192,141551,128,0,141633:0:0:0:0:
109,192,141714,128,0,141796:0:0:0:0:
256,192,141714,128,0,141796:0:0:0:0:
36,192,141877,1,0,0:0:0:0:
329,192,141877,128,0,141959:0:0:0:0:
475,192,141877,128,0,141959:0:0:0:0:
256,192,142040,128,0,142285:0:0:0:0:
402,192,142040,128,0,142285:0:0:0:0:
182,192,142203,1,0,0:0:0:0:
36,192,142203,1,0,0:0:0:0:
329,192,142366,128,0,142448:0:0:0:0:
402,192,142366,128,0,142448:0:0:0:0:
475,192,142529,1,0,0:0:0:0:
256,192,142529,128,0,142692:0:0:0:0:
109,192,142529,128,0,142692:0:0:0:0:
402,192,142692,1,0,0:0:0:0:
182,192,142855,1,0,0:0:0:0:
36,192,142855,1,0,0:0:0:0:
36,192,143018,1,0,0:0:0:0:
182,192,143018,1,0,0:0:0:0:
182,192,143181,1,0,0:0:0:0:
36,192,143181,1,0,0:0:0:0:
329,192,143181,1,0,0:0:0:0:
475,192,143181,1,0,0:0:0:0:
329,192,143345,1,0,0:0:0:0:
475,192,143345,1,0,0:0:0:0:
182,192,143426,1,0,0:0:0:0:
475,192,143508,1,0,0:0:0:0:
329,192,143508,1,0,0:0:0:0:
475,192,143671,1,0,0:0:0:0:
329,192,143671,1,0,0:0:0:0:
36,192,143834,1,0,0:0:0:0:
182,192,143834,1,0,0:0:0:0:
329,192,143834,1,0,0:0:0:0:
475,192,143834,1,0,0:0:0:0:
109,192,143997,1,0,0:0:0:0:
402,192,143997,1,0,0:0:0:0:
329,192,144078,1,0,0:0:0:0:
182,192,144078,1,0,0:0:0:0:
475,192,144160,1,0,0:0:0:0:
402,192,144160,1,0,0:0:0:0:
109,192,144160,1,0,0:0:0:0:
36,192,144160,1,0,0:0:0:0:
256,192,144160,1,0,0:0:0:0:
109,192,144323,1,0,0:0:0:0:
329,192,144323,1,0,0:0:0:0:
402,192,144323,1,0,0:0:0:0:
182,192,144323,1,0,0:0:0:0:
256,192,144323,1,0,0:0:0:0:
182,192,144486,1,0,0:0:0:0:
329,192,144486,1,0,0:0:0:0:
36,192,144486,1,0,0:0:0:0:
475,192,144486,1,0,0:0:0:0:
109,192,144649,1,0,0:0:0:0:
182,192,144649,1,0,0:0:0:0:
256,192,144649,1,0,0:0:0:0:
329,192,144649,1,0,0:0:0:0:
402,192,144649,1,0,0:0:0:0:
36,192,144812,1,0,0:0:0:0:
475,192,144812,1,0,0:0:0:0:
402,192,144893,1,0,0:0:0:0:
109,192,144893,1,0,0:0:0:0:
182,192,144975,1,0,0:0:0:0:
329,192,144975,1,0,0:0:0:0:
256,192,144975,1,0,0:0:0:0:
36,192,144975,1,0,0:0:0:0:
475,192,144975,1,0,0:0:0:0:
109,192,145056,1,0,0:0:0:0:
402,192,145056,1,0,0:0:0:0:
36,192,145138,1,0,0:0:0:0:
475,192,145138,1,0,0:0:0:0:
182,192,145138,1,0,0:0:0:0:
329,192,145138,1,0,0:0:0:0:
256,192,145138,1,0,0:0:0:0:
109,192,145301,1,0,0:0:0:0:
402,192,145301,1,0,0:0:0:0:
36,192,145301,1,0,0:0:0:0:
475,192,145301,1,0,0:0:0:0:
182,192,145383,1,0,0:0:0:0:
329,192,145383,1,0,0:0:0:0:
475,192,145464,128,0,146116:0:0:0:0:
402,192,145464,1,0,0:0:0:0:
256,192,145464,1,0,0:0:0:0:
109,192,145464,1,0,0:0:0:0:
36,192,145464,1,0,0:0:0:0:
182,192,145627,1,0,0:0:0:0:
402,192,145790,128,0,146116:0:0:0:0:
329,192,145790,128,0,146116:0:0:0:0:
36,192,145790,1,0,0:0:0:0:
109,192,145953,1,0,0:0:0:0:
256,192,146116,1,0,0:0:0:0:
182,192,146116,1,0,0:0:0:0:
36,192,146116,1,0,0:0:0:0:
109,192,146279,128,0,146442:0:0:0:0:
329,192,146279,1,0,0:0:0:0:
182,192,146442,128,0,146605:0:0:0:0:
402,192,146442,1,0,0:0:0:0:
36,192,146442,1,0,0:0:0:0:
256,192,146605,128,0,146768:0:0:0:0:
475,192,146605,1,0,0:0:0:0:
329,192,146768,128,0,147421:0:0:0:0:
109,192,146768,1,0,0:0:0:0:
36,192,146768,1,0,0:0:0:0:
182,192,146931,1,0,0:0:0:0:
402,192,147095,128,0,147421:0:0:0:0:
475,192,147095,128,0,147421:0:0:0:0:
36,192,147095,1,0,0:0:0:0:
109,192,147258,1,0,0:0:0:0:
256,192,147421,1,0,0:0:0:0:
182,192,147421,1,0,0:0:0:0:
36,192,147421,1,0,0:0:0:0:
109,192,147584,1,0,0:0:0:0:
402,192,147584,128,0,147747:0:0:0:0:
475,192,147747,1,0,0:0:0:0:
329,192,147747,128,0,147910:0:0:0:0:
182,192,147747,1,0,0:0:0:0:
256,192,147910,128,0,148073:0:0:0:0:
109,192,147910,1,0,0:0:0:0:
182,192,148073,1,0,0:0:0:0:
329,192,148073,1,0,0:0:0:0:
475,192,148073,128,0,148725:0:0:0:0:
109,192,148236,1,0,0:0:0:0:
402,192,148399,128,0,149051:0:0:0:0:
36,192,148399,1,0,0:0:0:0:
256,192,148399,1,0,0:0:0:0:
182,192,148562,1,0,0:0:0:0:
329,192,148725,128,0,149377:0:0:0:0:
109,192,148725,1,0,0:0:0:0:
36,192,148725,1,0,0:0:0:0:
182,192,148888,1,0,0:0:0:0:
256,192,149051,128,0,149377:0:0:0:0:
475,192,149051,1,0,0:0:0:0:
36,192,149051,1,0,0:0:0:0:
109,192,149214,1,0,0:0:0:0:
182,192,149377,1,0,0:0:0:0:
36,192,149377,1,0,0:0:0:0:
402,192,149377,128,0,149703:0:0:0:0:
475,192,149540,128,0,149703:0:0:0:0:
256,192,149540,1,0,0:0:0:0:
329,192,149703,128,0,150029:0:0:0:0:
109,192,149703,1,0,0:0:0:0:
36,192,149703,1,0,0:0:0:0:
402,192,149866,128,0,150029:0:0:0:0:
182,192,149866,1,0,0:0:0:0:
256,192,150029,128,0,150355:0:0:0:0:
36,192,150029,1,0,0:0:0:0:
475,192,150029,1,0,0:0:0:0:
329,192,150192,128,0,150355:0:0:0:0:
109,192,150192,1,0,0:0:0:0:
182,192,150355,128,0,150681:0:0:0:0:
475,192,150355,1,0,0:0:0:0:
36,192,150355,1,0,0:0:0:0:
256,192,150518,128,0,150681:0:0:0:0:
402,192,150518,1,0,0:0:0:0:
329,192,150681,1,0,0:0:0:0:
475,192,150681,1,0,0:0:0:0:
109,192,150681,1,0,0:0:0:0:
36,192,150681,128,0,151008:0:0:0:0:
182,192,150845,1,0,0:0:0:0:
329,192,151008,1,0,0:0:0:0:
475,192,151008,1,0,0:0:0:0:
109,192,151008,128,0,151334:0:0:0:0:
256,192,151171,1,0,0:0:0:0:
475,192,151334,1,0,0:0:0:0:
402,192,151334,128,0,151415:0:0:0:0:
182,192,151334,128,0,151415:0:0:0:0:
329,192,151497,128,0,151578:0:0:0:0:
109,192,151497,128,0,151578:0:0:0:0:
475,192,151660,1,0,0:0:0:0:
256,192,151660,128,0,151741:0:0:0:0:
36,192,151660,128,0,151741:0:0:0:0:
182,192,151823,1,0,0:0:0:0:
36,192,151986,1,0,0:0:0:0:
329,192,151986,128,0,152067:0:0:0:0:
475,192,151986,128,0,152067:0:0:0:0:
402,192,152149,128,0,152230:0:0:0:0:
256,192,152149,128,0,152230:0:0:0:0:
475,192,152312,1,0,0:0:0:0:
182,192,152312,128,0,152393:0:0:0:0:
36,192,152312,128,0,152393:0:0:0:0:
109,192,152475,128,0,152720:0:0:0:0:
256,192,152475,128,0,152720:0:0:0:0:
329,192,152638,1,0,0:0:0:0:
475,192,152638,1,0,0:0:0:0:
182,192,152801,128,0,152883:0:0:0:0:
109,192,152801,128,0,152883:0:0:0:0:
36,192,152964,1,0,0:0:0:0:
256,192,152964,128,0,153209:0:0:0:0:
402,192,152964,128,0,153209:0:0:0:0:
36,192,153127,128,0,153209:0:0:0:0:
109,192,153127,128,0,153209:0:0:0:0:
329,192,153290,1,0,0:0:0:0:
475,192,153290,1,0,0:0:0:0:
475,192,153453,1,0,0:0:0:0:
329,192,153453,1,0,0:0:0:0:
329,192,153616,1,0,0:0:0:0:
475,192,153616,1,0,0:0:0:0:
182,192,153616,1,0,0:0:0:0:
36,192,153616,1,0,0:0:0:0:
182,192,153779,1,0,0:0:0:0:
36,192,153779,1,0,0:0:0:0:
329,192,153861,1,0,0:0:0:0:
182,192,153942,1,0,0:0:0:0:
36,192,153942,1,0,0:0:0:0:
36,192,154105,1,0,0:0:0:0:
182,192,154105,1,0,0:0:0:0:
475,192,154268,1,0,0:0:0:0:
329,192,154268,1,0,0:0:0:0:
182,192,154268,1,0,0:0:0:0:
36,192,154268,1,0,0:0:0:0:
402,192,154431,1,0,0:0:0:0:
109,192,154431,1,0,0:0:0:0:
182,192,154513,1,0,0:0:0:0:
329,192,154513,1,0,0:0:0:0:
256,192,154595,1,0,0:0:0:0:
109,192,154595,1,0,0:0:0:0:
36,192,154595,1,0,0:0:0:0:
402,192,154595,1,0,0:0:0:0:
475,192,154595,1,0,0:0:0:0:
475,192,154758,1,0,0:0:0:0:
329,192,154758,1,0,0:0:0:0:
256,192,154758,1,0,0:0:0:0:
182,192,154758,1,0,0:0:0:0:
36,192,154758,1,0,0:0:0:0:
329,192,154921,1,0,0:0:0:0:
402,192,154921,1,0,0:0:0:0:
256,192,154921,1,0,0:0:0:0:
182,192,154921,1,0,0:0:0:0:
109,192,154921,1,0,0:0:0:0:
329,192,155247,1,0,0:0:0:0:
402,192,155247,1,0,0:0:0:0:
475,192,155247,1,0,0:0:0:0:
182,192,155247,1,0,0:0:0:0:
109,192,155247,1,0,0:0:0:0:
36,192,155247,1,0,0:0:0:0:
329,192,155410,1,0,0:0:0:0:
182,192,155410,1,0,0:0:0:0:
36,192,155573,1,0,0:0:0:0:
182,192,155573,1,0,0:0:0:0:
109,192,155573,1,0,0:0:0:0:
329,192,155573,1,0,0:0:0:0:
402,192,155573,1,0,0:0:0:0:
475,192,155573,1,0,0:0:0:0:
402,192,155736,1,0,0:0:0:0:
109,192,155736,1,0,0:0:0:0:
329,192,155817,1,0,0:0:0:0:
182,192,155817,1,0,0:0:0:0:
256,192,155899,128,0,157203:0:0:0:0:
36,192,155899,128,0,156143:0:0:0:0:
109,192,155899,128,0,156143:0:0:0:0:
402,192,155899,128,0,156143:0:0:0:0:
475,192,155899,128,0,156143:0:0:0:0:
109,192,156225,1,0,0:0:0:0:
36,192,156225,1,0,0:0:0:0:
402,192,156225,1,0,0:0:0:0:
475,192,156225,1,0,0:0:0:0:
182,192,156388,1,0,0:0:0:0:
329,192,156551,1,0,0:0:0:0:
475,192,156551,1,0,0:0:0:0:
36,192,156551,1,0,0:0:0:0:
182,192,156714,1,0,0:0:0:0:
475,192,156714,1,0,0:0:0:0:
36,192,156714,1,0,0:0:0:0:
36,192,156877,1,0,0:0:0:0:
109,192,156877,1,0,0:0:0:0:
402,192,156877,1,0,0:0:0:0:
182,192,157040,1,0,0:0:0:0:
329,192,157040,1,0,0:0:0:0:
475,192,157040,1,0,0:0:0:0:
182,192,157366,1,0,0:0:0:0:
36,192,157366,1,0,0:0:0:0:
329,192,157366,1,0,0:0:0:0:
402,192,157529,1,0,0:0:0:0:
475,192,157529,1,0,0:0:0:0:
109,192,157529,1,0,0:0:0:0:
182,192,157692,1,0,0:0:0:0:
329,192,157692,1,0,0:0:0:0:
36,192,157692,1,0,0:0:0:0:
109,192,158018,1,0,0:0:0:0:
256,192,158018,1,0,0:0:0:0:
402,192,158018,1,0,0:0:0:0:
182,192,158181,1,0,0:0:0:0:
329,192,158181,1,0,0:0:0:0:
475,192,158181,1,0,0:0:0:0:
109,192,158508,1,0,0:0:0:0:
36,192,158508,1,0,0:0:0:0:
329,192,158508,1,0,0:0:0:0:
109,192,158834,1,0,0:0:0:0:
182,192,158834,1,0,0:0:0:0:
402,192,158834,1,0,0:0:0:0:
109,192,158997,1,0,0:0:0:0:
402,192,158997,1,0,0:0:0:0:
182,192,159160,1,0,0:0:0:0:
475,192,159160,1,0,0:0:0:0:
329,192,159160,1,0,0:0:0:0:
182,192,159323,1,0,0:0:0:0:
329,192,159323,1,0,0:0:0:0:
36,192,159323,1,0,0:0:0:0:
256,192,159486,1,0,0:0:0:0:
475,192,159486,1,0,0:0:0:0:
402,192,159486,1,0,0:0:0:0:
182,192,159649,1,0,0:0:0:0:
36,192,159649,1,0,0:0:0:0:
182,192,159975,1,0,0:0:0:0:
329,192,159975,1,0,0:0:0:0:
109,192,160138,1,0,0:0:0:70:Clap.wav
256,192,160138,1,0,0:0:0:0:
36,192,160138,1,0,0:0:0:0:
402,192,160138,1,0,0:0:0:0:
475,192,160138,1,0,0:0:0:0:
475,192,160301,1,0,0:0:0:0:
109,192,160301,1,0,0:0:0:0:
256,192,160301,1,0,0:0:0:70:Clap.wav
402,192,160301,1,0,0:0:0:0:
36,192,160301,1,0,0:0:0:0:
182,192,160464,1,0,0:0:0:0:
329,192,160464,1,0,0:0:0:0:
36,192,160627,1,0,0:0:0:0:
256,192,160627,1,0,0:0:0:0:
475,192,160627,1,0,0:0:0:0:
182,192,160790,1,0,0:0:0:0:
256,192,160790,1,0,0:0:0:70:Clap.wav
36,192,160790,1,0,0:0:0:0:
402,192,160790,1,0,0:0:0:0:
475,192,160790,1,0,0:0:0:0:
109,192,161116,1,0,0:0:0:0:
36,192,161116,1,0,0:0:0:0:
256,192,161116,1,0,0:0:0:0:
329,192,161116,1,0,0:0:0:0:
475,192,161116,1,0,0:0:0:0:
182,192,161279,1,0,0:0:0:0:
329,192,161442,1,0,0:0:0:0:
475,192,161442,1,0,0:0:0:0:
109,192,161442,1,0,0:0:0:0:
329,192,161605,1,0,0:0:0:0:
36,192,161768,1,0,0:0:0:0:
256,192,161768,1,0,0:0:0:0:
475,192,161768,1,0,0:0:0:0:
182,192,161931,1,0,0:0:0:0:
402,192,161931,1,0,0:0:0:0:
109,192,161931,1,0,0:0:0:0:
329,192,162095,1,0,0:0:0:0:
475,192,162095,1,0,0:0:0:0:
36,192,162095,1,0,0:0:0:0:
109,192,162258,1,0,0:0:0:0:
256,192,162258,1,0,0:0:0:0:
402,192,162258,1,0,0:0:0:0:
109,192,162584,1,0,0:0:0:0:
256,192,162584,1,0,0:0:0:0:
402,192,162584,1,0,0:0:0:0:
329,192,162747,1,0,0:0:0:0:
475,192,162747,1,0,0:0:0:0:
182,192,162747,1,0,0:0:0:0:
402,192,162910,1,0,0:0:0:0:
256,192,162910,1,0,0:0:0:0:
109,192,162910,1,0,0:0:0:0:
182,192,163073,1,0,0:0:0:0:
329,192,163073,1,0,0:0:0:0:
36,192,163073,1,0,0:0:0:0:
109,192,163236,1,0,0:0:0:0:
256,192,163236,1,0,0:0:0:0:
475,192,163236,1,0,0:0:0:0:
329,192,163317,1,0,0:0:0:0:
36,192,163399,1,0,0:0:0:0:
182,192,163399,1,0,0:0:0:0:
402,192,163399,1,0,0:0:0:0:
402,192,163725,1,0,0:0:0:0:
475,192,163725,1,0,0:0:0:0:
182,192,163725,1,0,0:0:0:0:
36,192,163725,1,0,0:0:0:0:
109,192,163725,1,0,0:0:0:0:
329,192,163888,1,0,0:0:0:0:
402,192,163888,1,0,0:0:0:0:
475,192,163888,1,0,0:0:0:0:
109,192,163888,1,0,0:0:0:0:
36,192,163888,1,0,0:0:0:0:
36,192,164051,1,0,0:0:0:0:
109,192,164051,1,0,0:0:0:0:
182,192,164051,1,0,0:0:0:0:
402,192,164051,1,0,0:0:0:0:
475,192,164051,1,0,0:0:0:0:
329,192,164377,1,0,0:0:0:0:
109,192,164377,1,0,0:0:0:0:
402,192,164377,1,0,0:0:0:0:
36,192,164377,1,0,0:0:0:0:
475,192,164377,1,0,0:0:0:0:
402,192,164540,1,0,0:0:0:0:
109,192,164540,1,0,0:0:0:0:
475,192,164540,1,0,0:0:0:0:
36,192,164540,1,0,0:0:0:0:
182,192,164540,1,0,0:0:0:0:
402,192,164703,1,0,0:0:0:0:
109,192,164703,1,0,0:0:0:0:
475,192,164703,1,0,0:0:0:0:
36,192,164703,1,0,0:0:0:0:
329,192,164703,1,0,0:0:0:0:
182,192,165029,1,0,0:0:0:0:
256,192,165029,1,0,0:0:0:0:
36,192,165029,1,0,0:0:0:0:
329,192,165029,1,0,0:0:0:0:
475,192,165029,1,0,0:0:0:0:
109,192,165192,1,0,0:0:0:0:
182,192,165192,1,0,0:0:0:0:
256,192,165192,1,0,0:0:0:0:
329,192,165192,1,0,0:0:0:0:
402,192,165192,1,0,0:0:0:0:
109,192,165355,1,0,0:0:0:0:
36,192,165355,1,0,0:0:0:0:
256,192,165355,1,0,0:0:0:0:
402,192,165355,1,0,0:0:0:0:
475,192,165355,1,0,0:0:0:0:
109,192,165518,1,0,0:0:0:0:
402,192,165518,1,0,0:0:0:0:
182,192,165600,1,0,0:0:0:0:
329,192,165600,1,0,0:0:0:0:
256,192,165681,1,0,0:0:0:0:
402,192,165681,1,0,0:0:0:0:
475,192,165681,1,0,0:0:0:0:
109,192,165681,1,0,0:0:0:0:
36,192,165681,1,0,0:0:0:0:
182,192,166008,1,0,0:0:0:0:
109,192,166008,1,0,0:0:0:0:
329,192,166008,1,0,0:0:0:0:
402,192,166008,1,0,0:0:0:0:
256,192,166008,1,0,0:0:0:0:
475,192,166334,128,0,167556:0:0:0:0:
36,192,166334,128,0,167556:0:0:0:0:
109,192,166334,1,0,0:0:0:0:
402,192,166334,1,0,0:0:0:0:
256,192,166334,1,0,0:0:0:0:
182,192,166415,1,0,0:0:0:0:
402,192,166497,1,0,0:0:0:0:
329,192,166578,1,0,0:0:0:0:
182,192,166660,1,0,0:0:0:0:
109,192,166741,1,0,0:0:0:0:
329,192,166823,1,0,0:0:0:0:
402,192,166904,1,0,0:0:0:0:
109,192,166986,1,0,0:0:0:70:BassS.wav
256,192,166986,1,0,0:0:0:0:
182,192,167067,1,0,0:0:0:70:BassS.wav
329,192,167067,1,0,0:0:0:0:
256,192,167149,1,0,0:0:0:70:BassS.wav
402,192,167149,1,0,0:0:0:0:
182,192,167230,1,0,0:0:0:70:BassS.wav
329,192,167230,1,0,0:0:0:0:
256,192,167312,1,0,0:0:0:0:
109,192,167312,1,0,0:0:0:70:BassS.wav
182,192,167393,1,0,0:0:0:70:BassS.wav
329,192,167393,1,0,0:0:0:0:
256,192,167475,1,0,0:0:0:70:BassS.wav
402,192,167475,1,0,0:0:0:0:
329,192,167556,1,0,0:0:0:0:
182,192,167556,1,0,0:0:0:70:BassS.wav
109,192,167638,1,0,0:0:0:0:
36,192,167638,1,0,0:0:0:0:
402,192,167638,1,0,0:0:0:0:
475,192,167638,1,0,0:0:0:0:
256,192,167638,128,0,168453:0:0:0:0:
182,192,167801,1,0,0:0:0:0:
329,192,167801,1,0,0:0:0:0:
36,192,167801,1,0,0:0:0:0:
36,192,167964,1,0,0:0:0:0:
475,192,167964,1,0,0:0:0:0:
329,192,167964,1,0,0:0:0:0:
329,192,168127,1,0,0:0:0:0:
475,192,168127,1,0,0:0:0:0:
182,192,168127,1,0,0:0:0:0:
36,192,168290,1,0,0:0:0:0:
109,192,168290,1,0,0:0:0:0:
402,192,168290,1,0,0:0:0:0:
182,192,168453,128,0,168616:0:0:0:0:
329,192,168453,1,0,0:0:0:0:
109,192,168616,128,0,168779:0:0:0:0:
256,192,168616,1,0,0:0:0:0:
402,192,168616,1,0,0:0:0:0:
36,192,168779,128,0,169758:0:0:0:0:
182,192,168779,1,0,0:0:0:0:
329,192,168942,1,0,0:0:0:0:
475,192,168942,1,0,0:0:0:0:
109,192,168942,1,0,0:0:0:0:
182,192,169105,1,0,0:0:0:0:
329,192,169105,1,0,0:0:0:0:
475,192,169105,1,0,0:0:0:0:
109,192,169268,1,0,0:0:0:0:
256,192,169268,1,0,0:0:0:0:
402,192,169268,1,0,0:0:0:0:
109,192,169431,1,0,0:0:0:0:
256,192,169431,1,0,0:0:0:0:
475,192,169431,1,0,0:0:0:0:
329,192,169595,1,0,0:0:0:0:
475,192,169595,1,0,0:0:0:0:
182,192,169595,1,0,0:0:0:0:
109,192,169758,1,0,0:0:0:0:
256,192,169758,1,0,0:0:0:0:
329,192,169921,1,0,0:0:0:0:
475,192,169921,1,0,0:0:0:0:
36,192,169921,128,0,170084:0:0:0:0:
182,192,170084,128,0,170165:0:0:0:0:
402,192,170084,1,0,0:0:0:0:
109,192,170165,128,0,170247:0:0:0:0:
36,192,170247,128,0,170736:0:0:0:0:
256,192,170247,1,0,0:0:0:0:
475,192,170247,1,0,0:0:0:0:
182,192,170410,1,0,0:0:0:0:
329,192,170410,1,0,0:0:0:0:
475,192,170410,1,0,0:0:0:0:
109,192,170573,1,0,0:0:0:0:
256,192,170573,1,0,0:0:0:0:
402,192,170573,1,0,0:0:0:0:
182,192,170736,128,0,171225:0:0:0:0:
329,192,170736,1,0,0:0:0:0:
475,192,170736,1,0,0:0:0:0:
109,192,170899,1,0,0:0:0:0:
36,192,170899,1,0,0:0:0:0:
256,192,170899,1,0,0:0:0:0:
402,192,171062,1,0,0:0:0:0:
475,192,171062,1,0,0:0:0:0:
329,192,171225,128,0,171388:0:0:0:0:
109,192,171225,1,0,0:0:0:0:
36,192,171225,1,0,0:0:0:0:
182,192,171388,128,0,171551:0:0:0:0:
402,192,171388,1,0,0:0:0:0:
475,192,171551,128,0,172040:0:0:0:0:
329,192,171551,1,0,0:0:0:0:
36,192,171551,1,0,0:0:0:0:
109,192,171714,1,0,0:0:0:0:
256,192,171714,1,0,0:0:0:0:
402,192,171714,1,0,0:0:0:0:
329,192,171877,128,0,172040:0:0:0:0:
182,192,171877,1,0,0:0:0:0:
36,192,171877,1,0,0:0:0:0:
402,192,172040,128,0,172529:0:0:0:0:
109,192,172040,1,0,0:0:0:0:
256,192,172040,1,0,0:0:0:0:
182,192,172203,1,0,0:0:0:0:
329,192,172203,1,0,0:0:0:0:
475,192,172203,1,0,0:0:0:0:
109,192,172366,1,0,0:0:0:0:
256,192,172366,1,0,0:0:0:0:
109,192,172529,128,0,172855:0:0:0:0:
36,192,172529,1,0,0:0:0:0:
182,192,172529,1,0,0:0:0:0:
329,192,172692,1,0,0:0:0:0:
475,192,172692,1,0,0:0:0:0:
256,192,172855,128,0,173997:0:0:0:0:
36,192,172855,1,0,0:0:0:0:
182,192,172855,1,0,0:0:0:0:
402,192,172855,1,0,0:0:0:0:
475,192,172855,1,0,0:0:0:0:
109,192,173018,1,0,0:0:0:0:
329,192,173018,1,0,0:0:0:0:
475,192,173018,1,0,0:0:0:0:
182,192,173181,1,0,0:0:0:0:
402,192,173181,1,0,0:0:0:0:
36,192,173181,1,0,0:0:0:0:
182,192,173345,1,0,0:0:0:0:
402,192,173345,1,0,0:0:0:0:
475,192,173345,1,0,0:0:0:0:
329,192,173508,1,0,0:0:0:0:
109,192,173508,1,0,0:0:0:0:
36,192,173508,1,0,0:0:0:0:
182,192,173671,1,0,0:0:0:0:
475,192,173671,1,0,0:0:0:0:
109,192,173834,1,0,0:0:0:0:
402,192,173834,1,0,0:0:0:0:
36,192,173834,1,0,0:0:0:0:
182,192,173997,1,0,0:0:0:0:
475,192,173997,1,0,0:0:0:0:
329,192,174160,128,0,174486:0:0:0:0:
256,192,174160,1,0,0:0:0:0:
36,192,174160,1,0,0:0:0:0:
36,192,174323,1,0,0:0:0:0:
256,192,174323,1,0,0:0:0:0:
475,192,174323,1,0,0:0:0:0:
475,192,174486,128,0,174649:0:0:0:0:
109,192,174486,1,0,0:0:0:0:
402,192,174486,1,0,0:0:0:0:
329,192,174649,128,0,174975:0:0:0:0:
182,192,174649,1,0,0:0:0:0:
36,192,174649,1,0,0:0:0:0:
109,192,174812,1,0,0:0:0:0:
182,192,174812,1,0,0:0:0:0:
36,192,174812,1,0,0:0:0:0:
402,192,174975,128,0,175138:0:0:0:0:
256,192,174975,1,0,0:0:0:0:
475,192,175138,128,0,175464:0:0:0:0:
109,192,175138,1,0,0:0:0:0:
36,192,175138,1,0,0:0:0:0:
329,192,175301,128,0,175464:0:0:0:0:
182,192,175301,1,0,0:0:0:0:
256,192,175464,1,0,0:0:0:0:
182,192,175464,1,0,0:0:0:0:
109,192,175464,1,0,0:0:0:0:
36,192,175464,1,0,0:0:0:0:
402,192,175464,1,0,0:0:0:0:
256,192,175627,1,0,0:0:0:0:
182,192,175627,1,0,0:0:0:0:
109,192,175627,1,0,0:0:0:0:
36,192,175627,1,0,0:0:0:0:
402,192,175627,1,0,0:0:0:0:
329,192,175790,1,0,0:0:0:0:
402,192,175790,1,0,0:0:0:0:
475,192,175790,1,0,0:0:0:0:
182,192,175790,1,0,0:0:0:0:
109,192,175790,1,0,0:0:0:0:
36,192,175790,1,0,0:0:0:0:
109,192,175953,1,0,0:0:0:0:
402,192,175953,1,0,0:0:0:0:
329,192,176035,1,0,0:0:0:0:
182,192,176035,1,0,0:0:0:0:
256,192,176116,1,0,0:0:0:0:
402,192,176116,1,0,0:0:0:0:
475,192,176116,1,0,0:0:0:0:
109,192,176116,1,0,0:0:0:0:
36,192,176116,1,0,0:0:0:0:
36,192,176279,1,0,0:0:0:0:
109,192,176279,1,0,0:0:0:0:
256,192,176279,1,0,0:0:0:0:
402,192,176279,1,0,0:0:0:0:
475,192,176279,1,0,0:0:0:0:
182,192,176442,1,0,0:0:0:0:
109,192,176442,1,0,0:0:0:0:
36,192,176442,1,0,0:0:0:0:
329,192,176442,1,0,0:0:0:0:
402,192,176442,1,0,0:0:0:0:
475,192,176442,1,0,0:0:0:0:
182,192,176605,1,0,0:0:0:0:
329,192,176605,1,0,0:0:0:0:
109,192,176687,1,0,0:0:0:0:
402,192,176687,1,0,0:0:0:0:
36,192,176768,1,0,0:0:0:0:
182,192,176768,1,0,0:0:0:0:
256,192,176768,1,0,0:0:0:0:
329,192,176768,1,0,0:0:0:0:
475,192,176768,1,0,0:0:0:0:
36,192,176931,1,0,0:0:0:0:
109,192,176931,1,0,0:0:0:0:
256,192,176931,1,0,0:0:0:0:
402,192,176931,1,0,0:0:0:0:
475,192,176931,1,0,0:0:0:0:
36,192,177095,1,0,0:0:0:0:
475,192,177095,1,0,0:0:0:0:
256,192,177095,1,0,0:0:0:0:
109,192,177176,1,0,0:0:0:0:
402,192,177176,1,0,0:0:0:0:
182,192,177258,1,0,0:0:0:0:
256,192,177258,1,0,0:0:0:0:
329,192,177258,1,0,0:0:0:0:
36,192,177258,1,0,0:0:0:0:
475,192,177258,1,0,0:0:0:0:
109,192,177339,1,0,0:0:0:0:
402,192,177339,1,0,0:0:0:0:
182,192,177421,1,0,0:0:0:0:
475,192,177421,1,0,0:0:0:0:
109,192,177502,1,0,0:0:0:0:
402,192,177502,1,0,0:0:0:0:
36,192,177584,1,0,0:0:0:0:
256,192,177584,1,0,0:0:0:0:
475,192,177584,1,0,0:0:0:0:
109,192,177665,1,0,0:0:0:0:
402,192,177665,1,0,0:0:0:0:
36,192,177747,1,0,0:0:0:0:
329,192,177747,1,0,0:0:0:0:
475,192,177747,1,0,0:0:0:0:
182,192,177747,1,0,0:0:0:0:
109,192,177828,1,0,0:0:0:0:
256,192,177828,1,0,0:0:0:0:
182,192,177910,1,0,0:0:0:0:
329,192,177910,1,0,0:0:0:0:
475,192,177910,1,0,0:0:0:0:
256,192,177991,1,0,0:0:0:0:
402,192,177991,1,0,0:0:0:0:
182,192,178073,1,0,0:0:0:0:
109,192,178073,1,0,0:0:0:0:
329,192,178073,1,0,0:0:0:0:
475,192,178073,1,0,0:0:0:0:
36,192,178073,128,0,178888:0:0:0:0:
256,192,178236,1,0,0:0:0:0:
402,192,178236,1,0,0:0:0:0:
109,192,178236,1,0,0:0:0:0:
182,192,178399,1,0,0:0:0:0:
329,192,178399,1,0,0:0:0:0:
475,192,178399,1,0,0:0:0:0:
109,192,178562,1,0,0:0:0:0:
256,192,178562,1,0,0:0:0:0:
402,192,178562,1,0,0:0:0:0:
329,192,178725,1,0,0:0:0:0:
475,192,178725,1,0,0:0:0:0:
182,192,178725,1,0,0:0:0:0:
256,192,178888,128,0,178970:0:0:0:0:
475,192,178888,1,0,0:0:0:0:
182,192,179051,128,0,179133:0:0:0:0:
36,192,179051,1,0,0:0:0:0:
329,192,179051,1,0,0:0:0:0:
109,192,179214,128,0,180192:0:0:0:0:
329,192,179214,1,0,0:0:0:0:
36,192,179377,1,0,0:0:0:0:
256,192,179377,1,0,0:0:0:0:
475,192,179377,1,0,0:0:0:0:
182,192,179540,1,0,0:0:0:0:
329,192,179540,1,0,0:0:0:0:
475,192,179540,1,0,0:0:0:0:
36,192,179703,1,0,0:0:0:0:
256,192,179703,1,0,0:0:0:0:
475,192,179703,1,0,0:0:0:0:
182,192,179866,1,0,0:0:0:0:
36,192,179866,1,0,0:0:0:0:
329,192,179866,1,0,0:0:0:0:
256,192,180029,1,0,0:0:0:0:
402,192,180029,1,0,0:0:0:0:
475,192,180029,1,0,0:0:0:0:
329,192,180192,128,0,180274:0:0:0:0:
182,192,180192,1,0,0:0:0:0:
475,192,180192,1,0,0:0:0:0:
256,192,180355,128,0,180437:0:0:0:0:
109,192,180355,1,0,0:0:0:0:
36,192,180355,1,0,0:0:0:0:
182,192,180518,128,0,180845:0:0:0:0:
329,192,180518,1,0,0:0:0:0:
36,192,180681,1,0,0:0:0:0:
256,192,180681,1,0,0:0:0:0:
475,192,180681,1,0,0:0:0:0:
402,192,180845,128,0,180926:0:0:0:0:
109,192,180845,1,0,0:0:0:0:
329,192,180845,1,0,0:0:0:0:
329,192,181008,128,0,181089:0:0:0:0:
182,192,181008,1,0,0:0:0:0:
36,192,181008,1,0,0:0:0:0:
256,192,181171,128,0,181497:0:0:0:0:
109,192,181171,1,0,0:0:0:0:
402,192,181171,1,0,0:0:0:0:
182,192,181334,1,0,0:0:0:0:
329,192,181334,1,0,0:0:0:0:
475,192,181334,1,0,0:0:0:0:
402,192,181497,128,0,181660:0:0:0:0:
109,192,181497,1,0,0:0:0:0:
329,192,181660,128,0,181986:0:0:0:0:
182,192,181660,1,0,0:0:0:0:
36,192,181660,1,0,0:0:0:0:
182,192,181823,128,0,181986:0:0:0:0:
475,192,181986,128,0,182475:0:0:0:0:
36,192,181986,1,0,0:0:0:0:
256,192,181986,1,0,0:0:0:0:
109,192,181986,1,0,0:0:0:0:
182,192,182149,1,0,0:0:0:0:
329,192,182149,1,0,0:0:0:0:
36,192,182149,1,0,0:0:0:0:
109,192,182312,1,0,0:0:0:0:
256,192,182312,1,0,0:0:0:0:
402,192,182312,1,0,0:0:0:0:
402,192,182475,128,0,182964:0:0:0:0:
182,192,182475,1,0,0:0:0:0:
36,192,182475,1,0,0:0:0:0:
109,192,182638,1,0,0:0:0:0:
256,192,182638,1,0,0:0:0:0:
475,192,182638,1,0,0:0:0:0:
182,192,182801,1,0,0:0:0:0:
36,192,182801,1,0,0:0:0:0:
329,192,182964,128,0,183127:0:0:0:0:
109,192,182964,1,0,0:0:0:0:
36,192,182964,1,0,0:0:0:0:
402,192,183127,128,0,183290:0:0:0:0:
182,192,183127,1,0,0:0:0:0:
256,192,183290,128,0,184431:0:0:0:0:
36,192,183290,1,0,0:0:0:0:
109,192,183290,1,0,0:0:0:0:
475,192,183290,1,0,0:0:0:0:
329,192,183290,1,0,0:0:0:0:
182,192,183453,1,0,0:0:0:0:
36,192,183453,1,0,0:0:0:0:
402,192,183453,1,0,0:0:0:0:
329,192,183616,1,0,0:0:0:0:
475,192,183616,1,0,0:0:0:0:
109,192,183616,1,0,0:0:0:0:
182,192,183779,1,0,0:0:0:0:
36,192,183779,1,0,0:0:0:0:
402,192,183779,1,0,0:0:0:0:
36,192,183942,1,0,0:0:0:0:
109,192,183942,1,0,0:0:0:0:
329,192,183942,1,0,0:0:0:0:
402,192,184105,1,0,0:0:0:0:
475,192,184105,1,0,0:0:0:0:
182,192,184105,1,0,0:0:0:0:
109,192,184268,1,0,0:0:0:0:
36,192,184268,1,0,0:0:0:0:
475,192,184268,1,0,0:0:0:0:
402,192,184431,1,0,0:0:0:0:
475,192,184431,1,0,0:0:0:0:
36,192,184431,1,0,0:0:0:0:
182,192,184595,128,0,184758:0:0:0:0:
36,192,184595,1,0,0:0:0:0:
329,192,184595,1,0,0:0:0:0:
36,192,184758,128,0,184921:0:0:0:0:
402,192,184758,1,0,0:0:0:0:
329,192,184921,128,0,185084:0:0:0:0:
475,192,184921,1,0,0:0:0:0:
182,192,184921,1,0,0:0:0:0:
182,192,185084,128,0,185410:0:0:0:0:
36,192,185084,1,0,0:0:0:0:
36,192,185247,1,0,0:0:0:0:
256,192,185247,1,0,0:0:0:0:
475,192,185247,1,0,0:0:0:0:
402,192,185410,128,0,185573:0:0:0:0:
109,192,185410,1,0,0:0:0:0:
256,192,185573,128,0,185899:0:0:0:0:
36,192,185573,1,0,0:0:0:0:
182,192,185573,1,0,0:0:0:0:
475,192,185736,128,0,185899:0:0:0:0:
109,192,185736,1,0,0:0:0:0:
402,192,185899,1,0,0:0:0:0:
329,192,185899,1,0,0:0:0:0:
182,192,185899,1,0,0:0:0:0:
109,192,185899,1,0,0:0:0:0:
36,192,185899,1,0,0:0:0:0:
36,192,186062,1,0,0:0:0:0:
109,192,186062,1,0,0:0:0:0:
182,192,186062,1,0,0:0:0:0:
329,192,186062,1,0,0:0:0:0:
402,192,186062,1,0,0:0:0:0:
329,192,186225,1,0,0:0:0:0:
402,192,186225,1,0,0:0:0:0:
475,192,186225,1,0,0:0:0:0:
109,192,186225,1,0,0:0:0:0:
36,192,186225,1,0,0:0:0:0:
256,192,186225,1,0,0:0:0:0:
36,192,186388,1,0,0:0:0:0:
109,192,186388,1,0,0:0:0:0:
329,192,186388,1,0,0:0:0:0:
475,192,186388,1,0,0:0:0:0:
402,192,186470,1,0,0:0:0:0:
256,192,186470,1,0,0:0:0:0:
182,192,186551,1,0,0:0:0:0:
36,192,186551,1,0,0:0:0:0:
109,192,186551,1,0,0:0:0:0:
329,192,186551,1,0,0:0:0:0:
475,192,186551,1,0,0:0:0:0:
182,192,186714,1,0,0:0:0:0:
109,192,186714,1,0,0:0:0:0:
36,192,186714,1,0,0:0:0:0:
329,192,186714,1,0,0:0:0:0:
475,192,186714,1,0,0:0:0:0:
256,192,186877,1,0,0:0:0:0:
182,192,186877,1,0,0:0:0:0:
36,192,186877,1,0,0:0:0:0:
109,192,186877,1,0,0:0:0:0:
402,192,186877,1,0,0:0:0:0:
475,192,186877,1,0,0:0:0:0:
182,192,187040,1,0,0:0:0:0:
36,192,187040,1,0,0:0:0:0:
402,192,187040,1,0,0:0:0:0:
475,192,187040,1,0,0:0:0:0:
109,192,187122,1,0,0:0:0:0:
256,192,187122,1,0,0:0:0:0:
182,192,187203,1,0,0:0:0:0:
329,192,187203,1,0,0:0:0:0:
402,192,187203,1,0,0:0:0:0:
475,192,187203,1,0,0:0:0:0:
36,192,187203,1,0,0:0:0:0:
36,192,187366,1,0,0:0:0:0:
182,192,187366,1,0,0:0:0:0:
329,192,187366,1,0,0:0:0:0:
402,192,187366,1,0,0:0:0:0:
475,192,187366,1,0,0:0:0:0:
182,192,187529,1,0,0:0:0:0:
475,192,187529,1,0,0:0:0:0:
402,192,187529,1,0,0:0:0:0:
329,192,187529,1,0,0:0:0:0:
36,192,187529,1,0,0:0:0:0:
329,192,188018,5,0,0:0:0:0:
256,192,188181,1,0,0:0:0:0:
182,192,188345,1,0,0:0:0:0:
109,192,188508,1,0,0:0:0:0:
475,192,188508,1,0,0:0:0:0:
36,192,188508,128,0,188997:0:0:0:0:
402,192,188562,1,0,0:0:0:0:
329,192,188616,1,0,0:0:0:0:
182,192,188997,128,0,189160:0:0:0:0:
329,192,188997,1,0,0:0:0:0:
36,192,189160,128,0,189486:0:0:0:0:
475,192,189160,1,0,0:0:0:0:
109,192,189486,128,0,189649:0:0:0:0:
329,192,189486,1,0,0:0:0:0:
182,192,189649,128,0,190464:0:0:0:0:
402,192,189649,1,0,0:0:0:0:
475,192,189812,1,0,0:0:0:0:
256,192,189812,1,0,0:0:0:70:BeLL.wav
36,192,189812,1,0,0:0:0:0:
329,192,190464,1,0,0:0:0:0:
475,192,190464,1,0,0:0:0:0:
182,192,190627,1,0,0:0:0:0:
256,192,190790,1,0,0:0:0:0:
329,192,190953,1,0,0:0:0:0:
475,192,191116,128,0,191605:0:0:0:0:
402,192,191116,1,0,0:0:0:0:
36,192,191116,1,0,0:0:0:0:
329,192,191605,128,0,191768:0:0:0:0:
182,192,191605,1,0,0:0:0:0:
475,192,191768,128,0,192095:0:0:0:0:
36,192,191768,1,0,0:0:0:0:
402,192,192095,128,0,192258:0:0:0:0:
182,192,192095,1,0,0:0:0:0:
329,192,192258,128,0,193073:0:0:0:0:
109,192,192258,1,0,0:0:0:0:
36,192,192421,1,0,0:0:0:0:
475,192,192421,1,0,0:0:0:0:
109,192,192475,1,0,0:0:0:0:
182,192,192529,1,0,0:0:0:0:
182,192,193073,1,0,0:0:0:0:
36,192,193073,1,0,0:0:0:0:
329,192,193236,1,0,0:0:0:0:
256,192,193399,1,0,0:0:0:0:
182,192,193562,1,0,0:0:0:0:
109,192,193725,1,0,0:0:0:0:
475,192,193725,1,0,0:0:0:0:
36,192,193725,128,0,194214:0:0:0:0:
256,192,194051,128,0,194540:0:0:0:0:
402,192,194051,1,0,0:0:0:0:
475,192,194377,128,0,195029:0:0:0:0:
329,192,194377,1,0,0:0:0:0:
182,192,194540,128,0,194703:0:0:0:0:
256,192,194703,128,0,194866:0:0:0:0:
36,192,194866,1,0,0:0:0:0:
329,192,194866,128,0,195029:0:0:0:0:
109,192,194948,1,0,0:0:0:0:
182,192,195029,128,0,195355:0:0:0:0:
36,192,195029,1,0,0:0:0:0:
402,192,195029,1,0,0:0:0:70:BeLL.wav
402,192,195355,128,0,195845:0:0:0:0:
36,192,195355,1,0,0:0:0:0:
256,192,195518,128,0,195845:0:0:0:0:
109,192,195518,1,0,0:0:0:0:
182,192,195681,1,0,0:0:0:0:
109,192,196008,128,0,196334:0:0:0:0:
329,192,196008,1,0,0:0:0:0:
475,192,196008,1,0,0:0:0:0:
475,192,196334,128,0,196823:0:0:0:0:
329,192,196334,1,0,0:0:0:0:
182,192,196334,1,0,0:0:0:0:
36,192,196660,1,0,0:0:0:0:
329,192,196823,128,0,196986:0:0:0:0:
182,192,196823,1,0,0:0:0:0:
475,192,196986,128,0,197312:0:0:0:0:
36,192,196986,1,0,0:0:0:0:
329,192,197312,128,0,197475:0:0:0:0:
182,192,197312,1,0,0:0:0:0:
182,192,197475,128,0,198290:0:0:0:0:
36,192,197475,1,0,0:0:0:0:
475,192,197638,1,0,0:0:0:0:
256,192,197638,1,0,0:0:0:0:
329,192,198290,1,0,0:0:0:0:
475,192,198290,1,0,0:0:0:0:
329,192,198616,1,0,0:0:0:0:
256,192,198779,1,0,0:0:0:0:
182,192,198942,128,0,199268:0:0:0:0:
402,192,198942,1,0,0:0:0:0:
475,192,198942,128,0,199595:0:0:0:0:
109,192,199268,128,0,199595:0:0:0:0:
329,192,199268,1,0,0:0:0:0:
36,192,199595,128,0,199921:0:0:0:0:
256,192,199595,1,0,0:0:0:0:
475,192,199758,1,0,0:0:0:0:
182,192,199921,128,0,200247:0:0:0:0:
402,192,199921,1,0,0:0:0:0:
329,192,200084,1,0,0:0:0:0:
402,192,200165,1,0,0:0:0:0:
36,192,200247,128,0,200736:0:0:0:0:
475,192,200247,1,0,0:0:0:0:
256,192,200247,1,0,0:0:0:70:BeLL.wav
109,192,200899,128,0,201388:0:0:0:0:
329,192,200899,1,0,0:0:0:0:
475,192,200899,1,0,0:0:0:0:
475,192,201551,128,0,201877:0:0:0:0:
256,192,201551,1,0,0:0:0:0:
36,192,201551,1,0,0:0:0:0:
329,192,201877,128,0,202040:0:0:0:0:
182,192,201877,1,0,0:0:0:0:
475,192,202040,128,0,202529:0:0:0:0:
36,192,202040,1,0,0:0:0:0:
256,192,202203,1,0,0:0:0:0:
182,192,202366,1,0,0:0:0:0:
402,192,202529,128,0,202855:0:0:0:0:
109,192,202529,1,0,0:0:0:0:
329,192,202855,128,0,203345:0:0:0:0:
36,192,202855,1,0,0:0:0:0:
182,192,202855,1,0,0:0:0:0:
182,192,203508,1,0,0:0:0:0:
475,192,203508,1,0,0:0:0:0:
36,192,203508,1,0,0:0:0:0:
256,192,203671,1,0,0:0:0:0:
329,192,203834,128,0,204160:0:0:0:0:
256,192,204160,1,0,0:0:0:0:
475,192,204160,1,0,0:0:0:0:
36,192,204160,128,0,204812:0:0:0:0:
182,192,204649,1,0,0:0:0:0:
402,192,204649,1,0,0:0:0:0:
109,192,204812,1,0,0:0:0:0:
329,192,205138,128,0,205464:0:0:0:0:
36,192,205138,1,0,0:0:0:0:
109,192,205301,1,0,0:0:0:0:
402,192,205464,128,0,205953:0:0:0:0:
182,192,205464,1,0,0:0:0:70:BeLL.wav
475,192,205464,1,0,0:0:0:0:
475,192,206116,128,0,206768:0:0:0:0:
329,192,206116,1,0,0:0:0:0:
109,192,206116,1,0,0:0:0:0:
256,192,206768,128,0,207421:0:0:0:0:
36,192,206768,1,0,0:0:0:0:
182,192,206768,1,0,0:0:0:0:
329,192,207584,1,0,0:0:0:0:
256,192,207747,1,0,0:0:0:0:
182,192,207910,1,0,0:0:0:0:
109,192,208073,128,0,209377:0:0:0:0:
475,192,208073,1,0,0:0:0:0:
36,192,208073,1,0,0:0:0:0:
402,192,208725,128,0,209377:0:0:0:0:
475,192,208725,1,0,0:0:0:0:
36,192,208725,1,0,0:0:0:0:
256,192,209377,1,0,0:0:0:0:
475,192,209992,128,0,210481:0:0:0:0:
36,192,209992,128,0,210481:0:0:0:0:
182,192,209992,128,0,210481:0:0:0:0:
329,192,209992,128,0,210481:0:0:0:0:
109,192,210481,1,0,0:0:0:0:
402,192,210481,1,0,0:0:0:0:
256,192,210562,1,0,0:0:0:0:
109,192,210644,128,0,211214:0:0:0:0:
402,192,210644,128,0,211214:0:0:0:0:
475,192,210644,128,0,211214:0:0:0:0:
36,192,210644,128,0,211214:0:0:0:0:
182,192,210644,1,0,0:0:0:0:
329,192,210644,1,0,0:0:0:0:
256,192,210970,1,0,0:0:0:0:
182,192,211296,1,0,0:0:0:0:
329,192,211296,1,0,0:0:0:0:
36,192,211296,1,0,0:0:0:0:
475,192,211296,1,0,0:0:0:0:
182,192,211459,1,0,0:0:0:0:
36,192,211459,1,0,0:0:0:0:
329,192,211459,1,0,0:0:0:0:
475,192,211459,1,0,0:0:0:0:
402,192,211622,1,0,0:0:0:0:
329,192,211622,1,0,0:0:0:0:
182,192,211622,1,0,0:0:0:0:
109,192,211622,1,0,0:0:0:0:
256,192,212111,128,0,212274:0:0:0:0:
475,192,212274,1,0,0:0:0:0:
36,192,212274,1,0,0:0:0:0:
475,192,212600,128,0,213252:0:0:0:0:
36,192,212600,1,0,0:0:0:0:
256,192,212600,1,0,0:0:0:0:
402,192,212600,1,0,0:0:0:0:
109,192,212600,1,0,0:0:0:0:
182,192,212763,1,0,0:0:0:0:
402,192,212926,128,0,213252:0:0:0:0:
329,192,212926,1,0,0:0:0:0:
36,192,212926,1,0,0:0:0:0:
109,192,213089,1,0,0:0:0:0:
36,192,213252,1,0,0:0:0:0:
182,192,213252,1,0,0:0:0:0:
256,192,213252,1,0,0:0:0:0:
109,192,213415,1,0,0:0:0:0:
256,192,213415,1,0,0:0:0:0:
329,192,213415,1,0,0:0:0:0:
182,192,213578,1,0,0:0:0:0:
329,192,213578,1,0,0:0:0:0:
402,192,213578,1,0,0:0:0:0:
36,192,213578,1,0,0:0:0:0:
256,192,213742,1,0,0:0:0:0:
402,192,213742,1,0,0:0:0:0:
475,192,213742,1,0,0:0:0:0:
36,192,213905,128,0,214557:0:0:0:0:
475,192,213905,1,0,0:0:0:0:
182,192,213905,1,0,0:0:0:0:
329,192,214068,1,0,0:0:0:0:
109,192,214231,128,0,214557:0:0:0:0:
182,192,214231,1,0,0:0:0:0:
475,192,214231,1,0,0:0:0:0:
402,192,214394,1,0,0:0:0:0:
329,192,214557,1,0,0:0:0:0:
256,192,214557,1,0,0:0:0:0:
475,192,214557,1,0,0:0:0:0:
182,192,214720,1,0,0:0:0:0:
256,192,214720,1,0,0:0:0:0:
402,192,214720,1,0,0:0:0:0:
329,192,214883,1,0,0:0:0:0:
182,192,214883,1,0,0:0:0:0:
109,192,214883,1,0,0:0:0:0:
475,192,214883,1,0,0:0:0:0:
256,192,215046,1,0,0:0:0:0:
109,192,215046,1,0,0:0:0:0:
36,192,215046,1,0,0:0:0:0:
475,192,215209,128,0,215535:0:0:0:0:
182,192,215209,1,0,0:0:0:0:
329,192,215209,1,0,0:0:0:0:
256,192,215372,1,0,0:0:0:0:
329,192,215535,128,0,215861:0:0:0:0:
36,192,215535,1,0,0:0:0:0:
182,192,215535,1,0,0:0:0:0:
256,192,215698,1,0,0:0:0:0:
36,192,215861,128,0,216187:0:0:0:0:
182,192,215861,1,0,0:0:0:0:
475,192,215861,1,0,0:0:0:0:
329,192,216024,1,0,0:0:0:0:
475,192,216187,128,0,216513:0:0:0:0:
182,192,216187,1,0,0:0:0:0:
402,192,216187,1,0,0:0:0:0:
256,192,216350,1,0,0:0:0:0:
36,192,216513,128,0,216676:0:0:0:0:
182,192,216513,1,0,0:0:0:0:
329,192,216513,1,0,0:0:0:0:
109,192,216676,128,0,216839:0:0:0:0:
256,192,216676,1,0,0:0:0:0:
402,192,216676,1,0,0:0:0:0:
182,192,216839,128,0,217002:0:0:0:0:
329,192,216839,1,0,0:0:0:0:
475,192,216839,1,0,0:0:0:0:
36,192,217002,128,0,217165:0:0:0:0:
256,192,217002,1,0,0:0:0:0:
402,192,217002,1,0,0:0:0:0:
475,192,217165,128,0,217328:0:0:0:0:
329,192,217165,128,0,217328:0:0:0:0:
182,192,217165,1,0,0:0:0:0:
402,192,217328,128,0,217492:0:0:0:0:
256,192,217328,128,0,217492:0:0:0:0:
109,192,217328,1,0,0:0:0:0:
329,192,217492,128,0,217655:0:0:0:0:
182,192,217492,128,0,217655:0:0:0:0:
36,192,217492,1,0,0:0:0:0:
256,192,217655,128,0,217818:0:0:0:0:
109,192,217655,128,0,217818:0:0:0:0:
475,192,217655,1,0,0:0:0:0:
36,192,217818,1,0,0:0:0:0:
329,192,217818,1,0,0:0:0:0:
402,192,217818,1,0,0:0:0:0:
182,192,217981,1,0,0:0:0:0:
36,192,218144,1,0,0:0:0:0:
256,192,218144,1,0,0:0:0:0:
402,192,218144,1,0,0:0:0:0:
329,192,218307,1,0,0:0:0:0:
36,192,218470,1,0,0:0:0:0:
182,192,218470,1,0,0:0:0:0:
475,192,218470,1,0,0:0:0:0:
109,192,218633,1,0,0:0:0:0:
256,192,218633,1,0,0:0:0:0:
329,192,218633,1,0,0:0:0:0:
36,192,218796,1,0,0:0:0:0:
402,192,218796,1,0,0:0:0:0:
475,192,218796,1,0,0:0:0:0:
182,192,218796,1,0,0:0:0:0:
256,192,218959,1,0,0:0:0:0:
329,192,219122,128,0,219448:0:0:0:0:
475,192,219122,128,0,219448:0:0:0:0:
109,192,219122,1,0,0:0:0:0:
182,192,219285,1,0,0:0:0:0:
36,192,219448,1,0,0:0:0:0:
256,192,219448,1,0,0:0:0:0:
182,192,219611,128,0,219937:0:0:0:0:
402,192,219611,128,0,219937:0:0:0:0:
475,192,219611,1,0,0:0:0:0:
109,192,219774,1,0,0:0:0:0:
329,192,219937,1,0,0:0:0:0:
36,192,220100,1,0,0:0:0:0:
256,192,220100,1,0,0:0:0:0:
475,192,220100,1,0,0:0:0:0:
402,192,220263,1,0,0:0:0:0:
36,192,220426,1,0,0:0:0:0:
182,192,220426,1,0,0:0:0:0:
329,192,220426,1,0,0:0:0:0:
182,192,220589,1,0,0:0:0:0:
36,192,220589,1,0,0:0:0:0:
329,192,220589,1,0,0:0:0:0:
329,192,220752,1,0,0:0:0:0:
182,192,220752,128,0,220997:0:0:0:0:
36,192,220752,128,0,220997:0:0:0:0:
475,192,220915,1,0,0:0:0:0:
402,192,220997,1,0,0:0:0:0:
182,192,221078,1,0,0:0:0:0:
329,192,221078,1,0,0:0:0:0:
475,192,221078,1,0,0:0:0:0:
182,192,221242,1,0,0:0:0:0:
329,192,221242,1,0,0:0:0:0:
475,192,221242,1,0,0:0:0:0:
329,192,221405,128,0,221649:0:0:0:0:
475,192,221405,128,0,221649:0:0:0:0:
182,192,221405,1,0,0:0:0:0:
36,192,221568,1,0,0:0:0:0:
109,192,221649,1,0,0:0:0:0:
36,192,221731,1,0,0:0:0:0:
182,192,221731,1,0,0:0:0:0:
329,192,221731,1,0,0:0:0:0:
475,192,221731,1,0,0:0:0:0:
182,192,221894,1,0,0:0:0:0:
36,192,221894,1,0,0:0:0:0:
329,192,221894,1,0,0:0:0:0:
475,192,221894,1,0,0:0:0:0:
256,192,222057,1,0,0:0:0:0:
182,192,222057,1,0,0:0:0:0:
329,192,222057,1,0,0:0:0:0:
36,192,222220,128,0,222709:0:0:0:0:
475,192,222220,128,0,222709:0:0:0:0:
109,192,222220,1,0,0:0:0:0:
402,192,222220,1,0,0:0:0:0:
182,192,222301,1,0,0:0:0:0:
329,192,222301,1,0,0:0:0:0:
256,192,222383,1,0,0:0:0:0:
109,192,222464,1,0,0:0:0:0:
402,192,222464,1,0,0:0:0:0:
182,192,222546,1,0,0:0:0:0:
256,192,222546,1,0,0:0:0:0:
329,192,222546,1,0,0:0:0:0:
109,192,222709,1,0,0:0:0:0:
402,192,222709,1,0,0:0:0:0:
256,192,222709,1,0,0:0:0:0:
182,192,222872,1,0,0:0:0:0:
36,192,222872,1,0,0:0:0:0:
329,192,222872,1,0,0:0:0:0:
475,192,222872,1,0,0:0:0:0:
36,192,223035,1,0,0:0:0:0:
475,192,223035,1,0,0:0:0:0:
36,192,223198,1,0,0:0:0:0:
475,192,223198,1,0,0:0:0:0:
182,192,223280,1,0,0:0:0:0:
329,192,223280,1,0,0:0:0:0:
36,192,223361,128,0,223687:0:0:0:0:
475,192,223361,128,0,223687:0:0:0:0:
109,192,223361,1,0,0:0:0:0:
256,192,223361,1,0,0:0:0:0:
402,192,223361,1,0,0:0:0:0:
182,192,223687,1,0,0:0:0:0:
329,192,223687,1,0,0:0:0:0:
109,192,223850,1,0,0:0:0:0:
256,192,223850,1,0,0:0:0:0:
475,192,223850,1,0,0:0:0:0:
36,192,224013,1,0,0:0:0:0:
182,192,224013,1,0,0:0:0:0:
402,192,224013,1,0,0:0:0:0:
329,192,224013,1,0,0:0:0:0:
256,192,224176,1,0,0:0:0:0:
475,192,224176,1,0,0:0:0:0:
109,192,224176,1,0,0:0:0:0:
36,192,224339,1,0,0:0:0:0:
402,192,224339,1,0,0:0:0:0:
182,192,224339,1,0,0:0:0:0:
329,192,224502,1,0,0:0:0:0:
475,192,224502,1,0,0:0:0:0:
109,192,224502,1,0,0:0:0:0:
182,192,224665,128,0,224992:0:0:0:0:
329,192,224665,128,0,224992:0:0:0:0:
36,192,224665,1,0,0:0:0:0:
475,192,224665,1,0,0:0:0:0:
256,192,224828,1,0,0:0:0:0:
36,192,224992,1,0,0:0:0:0:
109,192,224992,1,0,0:0:0:0:
402,192,224992,1,0,0:0:0:0:
475,192,224992,1,0,0:0:0:0:
109,192,225155,1,0,0:0:0:0:
329,192,225155,1,0,0:0:0:0:
475,192,225155,1,0,0:0:0:0:
182,192,225318,1,0,0:0:0:0:
36,192,225318,1,0,0:0:0:0:
402,192,225318,1,0,0:0:0:0:
256,192,225318,1,0,0:0:0:0:
109,192,225481,1,0,0:0:0:0:
475,192,225481,1,0,0:0:0:0:
329,192,225481,1,0,0:0:0:0:
402,192,225644,128,0,225970:0:0:0:0:
36,192,225644,1,0,0:0:0:0:
182,192,225644,1,0,0:0:0:0:
256,192,225807,1,0,0:0:0:0:
109,192,225970,128,0,226296:0:0:0:0:
329,192,225970,1,0,0:0:0:0:
475,192,225970,1,0,0:0:0:0:
256,192,226133,1,0,0:0:0:0:
256,192,226296,128,0,226622:0:0:0:0:
36,192,226296,1,0,0:0:0:0:
182,192,226296,1,0,0:0:0:0:
475,192,226459,1,0,0:0:0:0:
402,192,226622,128,0,226948:0:0:0:0:
329,192,226622,1,0,0:0:0:0:
475,192,226622,1,0,0:0:0:0:
36,192,226785,1,0,0:0:0:0:
36,192,226948,1,0,0:0:0:0:
182,192,226948,1,0,0:0:0:0:
256,192,226948,1,0,0:0:0:0:
329,192,227111,1,0,0:0:0:0:
256,192,227111,1,0,0:0:0:0:
109,192,227111,1,0,0:0:0:0:
36,192,227274,1,0,0:0:0:0:
182,192,227274,1,0,0:0:0:0:
402,192,227274,1,0,0:0:0:0:
475,192,227274,1,0,0:0:0:0:
256,192,227437,1,0,0:0:0:0:
329,192,227437,1,0,0:0:0:0:
109,192,227437,1,0,0:0:0:0:
36,192,227600,1,0,0:0:0:0:
182,192,227600,1,0,0:0:0:0:
475,192,227600,1,0,0:0:0:0:
402,192,227763,1,0,0:0:0:0:
256,192,227763,1,0,0:0:0:0:
109,192,227763,1,0,0:0:0:0:
36,192,227926,1,0,0:0:0:0:
182,192,227926,1,0,0:0:0:0:
475,192,227926,1,0,0:0:0:0:
329,192,227926,1,0,0:0:0:0:
256,192,228089,1,0,0:0:0:0:
36,192,228252,1,0,0:0:0:0:
109,192,228252,1,0,0:0:0:0:
329,192,228252,1,0,0:0:0:0:
402,192,228252,1,0,0:0:0:0:
475,192,228252,1,0,0:0:0:0:
182,192,228415,1,0,0:0:0:0:
256,192,228415,1,0,0:0:0:0:
36,192,228578,1,0,0:0:0:0:
329,192,228578,1,0,0:0:0:0:
475,192,228578,1,0,0:0:0:0:
109,192,228578,1,0,0:0:0:0:
256,192,228742,1,0,0:0:0:0:
402,192,228742,1,0,0:0:0:0:
36,192,228905,1,0,0:0:0:0:
109,192,228905,1,0,0:0:0:0:
329,192,228905,1,0,0:0:0:0:
36,192,229068,1,0,0:0:0:0:
182,192,229068,1,0,0:0:0:0:
329,192,229068,1,0,0:0:0:0:
36,192,229231,1,0,0:0:0:0:
256,192,229231,1,0,0:0:0:0:
329,192,229231,1,0,0:0:0:0:
475,192,229231,1,0,0:0:0:0:
182,192,229394,1,0,0:0:0:0:
402,192,229394,1,0,0:0:0:0:
329,192,229557,128,0,229883:0:0:0:0:
475,192,229557,128,0,229883:0:0:0:0:
36,192,229557,1,0,0:0:0:0:
182,192,229557,1,0,0:0:0:0:
109,192,229720,1,0,0:0:0:0:
256,192,229883,1,0,0:0:0:0:
36,192,229883,1,0,0:0:0:0:
182,192,230046,128,0,230535:0:0:0:0:
36,192,230046,128,0,230535:0:0:0:0:
402,192,230046,1,0,0:0:0:0:
475,192,230209,1,0,0:0:0:0:
256,192,230209,1,0,0:0:0:0:
329,192,230372,1,0,0:0:0:0:
402,192,230535,1,0,0:0:0:0:
475,192,230535,1,0,0:0:0:0:
256,192,230535,1,0,0:0:0:0:
109,192,230698,1,0,0:0:0:0:
329,192,230698,1,0,0:0:0:0:
36,192,230861,1,0,0:0:0:0:
182,192,230861,1,0,0:0:0:0:
402,192,230861,1,0,0:0:0:0:
182,192,231024,1,0,0:0:0:0:
36,192,231024,1,0,0:0:0:0:
402,192,231024,1,0,0:0:0:0:
36,192,231187,128,0,231350:0:0:0:0:
182,192,231187,128,0,231350:0:0:0:0:
402,192,231187,128,0,231350:0:0:0:0:
329,192,231350,1,0,0:0:0:0:
475,192,231350,1,0,0:0:0:0:
109,192,231350,1,0,0:0:0:0:
256,192,231432,1,0,0:0:0:0:
109,192,231513,1,0,0:0:0:0:
329,192,231513,1,0,0:0:0:0:
475,192,231513,1,0,0:0:0:0:
109,192,231676,1,0,0:0:0:0:
329,192,231676,1,0,0:0:0:0:
475,192,231676,1,0,0:0:0:0:
109,192,231839,128,0,232002:0:0:0:0:
329,192,231839,128,0,232002:0:0:0:0:
475,192,231839,128,0,232002:0:0:0:0:
182,192,232002,1,0,0:0:0:0:
36,192,232002,1,0,0:0:0:0:
402,192,232002,1,0,0:0:0:0:
256,192,232084,1,0,0:0:0:0:
36,192,232165,1,0,0:0:0:0:
182,192,232165,1,0,0:0:0:0:
402,192,232165,1,0,0:0:0:0:
475,192,232165,1,0,0:0:0:0:
256,192,232328,1,0,0:0:0:0:
109,192,232328,1,0,0:0:0:0:
329,192,232328,1,0,0:0:0:0:
475,192,232328,1,0,0:0:0:0:
109,192,232492,1,0,0:0:0:0:
36,192,232492,1,0,0:0:0:0:
402,192,232492,1,0,0:0:0:0:
475,192,232492,1,0,0:0:0:0:
256,192,232492,1,0,0:0:0:0:
36,192,232818,1,0,0:0:0:0:
256,192,232818,1,0,0:0:0:0:
475,192,232818,1,0,0:0:0:0:
182,192,232818,1,0,0:0:0:0:
329,192,232818,1,0,0:0:0:0:
182,192,232981,1,0,0:0:0:0:
329,192,232981,1,0,0:0:0:0:
109,192,233144,1,0,0:0:0:0:
36,192,233144,1,0,0:0:0:0:
475,192,233144,1,0,0:0:0:0:
256,192,233144,1,0,0:0:0:0:
402,192,233144,1,0,0:0:0:0:
109,192,233307,1,0,0:0:0:0:
402,192,233307,1,0,0:0:0:0:
256,192,233388,1,0,0:0:0:0:
36,192,233470,1,0,0:0:0:0:
109,192,233470,1,0,0:0:0:0:
402,192,233470,1,0,0:0:0:0:
475,192,233470,1,0,0:0:0:0:
182,192,233470,1,0,0:0:0:0:
329,192,233470,1,0,0:0:0:0:
256,192,233633,1,0,0:0:0:0:
182,192,233796,1,0,0:0:0:0:
36,192,233796,1,0,0:0:0:0:
329,192,233796,1,0,0:0:0:0:
475,192,233796,1,0,0:0:0:0:
36,192,233959,1,0,0:0:0:0:
182,192,233959,1,0,0:0:0:0:
475,192,233959,1,0,0:0:0:0:
329,192,233959,1,0,0:0:0:0:
109,192,234122,1,0,0:0:0:0:
256,192,234122,1,0,0:0:0:0:
402,192,234122,1,0,0:0:0:0:
329,192,234285,1,0,0:0:0:0:
475,192,234285,1,0,0:0:0:0:
475,192,234448,1,0,0:0:0:0:
36,192,234448,1,0,0:0:0:0:
109,192,234448,1,0,0:0:0:0:
182,192,234448,1,0,0:0:0:0:
402,192,234448,1,0,0:0:0:0:
329,192,234611,1,0,0:0:0:0:
256,192,234611,1,0,0:0:0:0:
329,192,234774,1,0,0:0:0:0:
402,192,234774,1,0,0:0:0:0:
109,192,234774,1,0,0:0:0:0:
36,192,234937,1,0,0:0:0:0:
475,192,234937,1,0,0:0:0:0:
109,192,235100,1,0,0:0:0:0:
182,192,235100,1,0,0:0:0:0:
329,192,235100,1,0,0:0:0:0:
402,192,235100,1,0,0:0:0:0:
402,192,235263,1,0,0:0:0:0:
329,192,235263,1,0,0:0:0:0:
182,192,235263,1,0,0:0:0:0:
109,192,235263,1,0,0:0:0:0:
256,192,235426,1,0,0:0:0:0:
36,192,235426,1,0,0:0:0:0:
475,192,235426,1,0,0:0:0:0:
182,192,235589,1,0,0:0:0:0:
402,192,235589,1,0,0:0:0:0:
36,192,235752,1,0,0:0:0:0:
109,192,235752,1,0,0:0:0:0:
329,192,235752,1,0,0:0:0:0:
475,192,235752,1,0,0:0:0:0:
256,192,235752,1,0,0:0:0:0:
182,192,235915,1,0,0:0:0:0:
402,192,235915,1,0,0:0:0:0:
329,192,236078,128,0,236323:0:0:0:0:
475,192,236078,128,0,236323:0:0:0:0:
36,192,236078,1,0,0:0:0:0:
256,192,236078,1,0,0:0:0:0:
109,192,236242,1,0,0:0:0:0:
329,192,236405,128,0,236649:0:0:0:0:
475,192,236405,128,0,236649:0:0:0:0:
36,192,236405,1,0,0:0:0:0:
256,192,236405,1,0,0:0:0:0:
109,192,236568,1,0,0:0:0:0:
182,192,236731,128,0,236975:0:0:0:0:
36,192,236731,128,0,236975:0:0:0:0:
256,192,236731,1,0,0:0:0:0:
475,192,236731,1,0,0:0:0:0:
329,192,236894,1,0,0:0:0:0:
256,192,237057,128,0,237301:0:0:0:0:
402,192,237057,128,0,237301:0:0:0:0:
109,192,237057,1,0,0:0:0:0:
475,192,237057,1,0,0:0:0:0:
182,192,237220,1,0,0:0:0:0:
36,192,237383,1,0,0:0:0:0:
109,192,237383,1,0,0:0:0:0:
329,192,237383,1,0,0:0:0:0:
109,192,237546,1,0,0:0:0:0:
182,192,237546,1,0,0:0:0:0:
402,192,237546,1,0,0:0:0:0:
182,192,237709,1,0,0:0:0:0:
256,192,237709,1,0,0:0:0:0:
475,192,237709,1,0,0:0:0:0:
329,192,237709,1,0,0:0:0:0:
109,192,237872,128,0,238117:0:0:0:0:
36,192,237872,128,0,238117:0:0:0:0:
329,192,237872,128,0,238117:0:0:0:0:
36,192,238198,128,0,238280:0:0:0:0:
109,192,238198,128,0,238280:0:0:0:0:
329,192,238198,128,0,238280:0:0:0:0:
256,192,238361,1,0,0:0:0:0:
475,192,238361,1,0,0:0:0:0:
36,192,238361,1,0,0:0:0:0:
329,192,238361,1,0,0:0:0:0:
402,192,238524,1,0,0:0:0:0:
182,192,238524,1,0,0:0:0:0:
36,192,238687,128,0,238850:0:0:0:0:
329,192,238687,128,0,238850:0:0:0:0:
475,192,238687,128,0,238850:0:0:0:0:
256,192,238687,1,0,0:0:0:0:
109,192,238687,1,0,0:0:0:0:
182,192,238850,1,0,0:0:0:0:
402,192,238850,1,0,0:0:0:0:
36,192,239013,128,0,239176:0:0:0:0:
475,192,239013,128,0,239176:0:0:0:0:
329,192,239013,128,0,239176:0:0:0:0:
182,192,239176,1,0,0:0:0:0:
402,192,239176,1,0,0:0:0:0:
109,192,239339,1,0,0:0:0:0:
256,192,239339,1,0,0:0:0:0:
475,192,239339,1,0,0:0:0:0:
109,192,239502,1,0,0:0:0:0:
256,192,239502,1,0,0:0:0:0:
475,192,239502,1,0,0:0:0:0:
36,192,239665,1,0,0:0:0:0:
182,192,239665,1,0,0:0:0:0:
329,192,239665,1,0,0:0:0:0:
402,192,239665,1,0,0:0:0:0:
256,192,239828,1,0,0:0:0:0:
36,192,239992,1,0,0:0:0:0:
475,192,239992,1,0,0:0:0:0:
329,192,239992,1,0,0:0:0:0:
329,192,240155,1,0,0:0:0:0:
475,192,240155,1,0,0:0:0:0:
36,192,240155,1,0,0:0:0:0:
256,192,240318,1,0,0:0:0:0:
402,192,240318,1,0,0:0:0:0:
182,192,240318,1,0,0:0:0:0:
329,192,240481,128,0,240807:0:0:0:0:
475,192,240481,128,0,240807:0:0:0:0:
109,192,240481,128,0,240807:0:0:0:0:
182,192,240807,1,0,0:0:0:0:
36,192,240807,1,0,0:0:0:0:
256,192,240970,1,0,0:0:0:0:
109,192,240970,1,0,0:0:0:0:
329,192,240970,1,0,0:0:0:0:
402,192,240970,1,0,0:0:0:0:
182,192,241133,1,0,0:0:0:0:
475,192,241133,1,0,0:0:0:0:
36,192,241296,128,0,241459:0:0:0:0:
256,192,241296,1,0,0:0:0:0:
402,192,241296,1,0,0:0:0:0:
182,192,241459,1,0,0:0:0:0:
329,192,241459,1,0,0:0:0:0:
475,192,241622,128,0,241785:0:0:0:0:
109,192,241622,1,0,0:0:0:0:
256,192,241622,1,0,0:0:0:0:
182,192,241785,1,0,0:0:0:0:
329,192,241785,1,0,0:0:0:0:
36,192,241948,128,0,242111:0:0:0:0:
256,192,241948,1,0,0:0:0:0:
475,192,241948,1,0,0:0:0:0:
109,192,242111,1,0,0:0:0:0:
329,192,242111,1,0,0:0:0:0:
475,192,242274,128,0,242437:0:0:0:0:
36,192,242274,1,0,0:0:0:0:
256,192,242274,1,0,0:0:0:0:
182,192,242437,1,0,0:0:0:0:
402,192,242437,1,0,0:0:0:0:
109,192,242600,1,0,0:0:0:0:
256,192,242600,1,0,0:0:0:0:
402,192,242600,1,0,0:0:0:0:
402,192,242763,1,0,0:0:0:0:
256,192,242763,1,0,0:0:0:0:
109,192,242763,1,0,0:0:0:0:
109,192,242926,128,0,243252:0:0:0:0:
402,192,242926,128,0,243252:0:0:0:0:
256,192,242926,1,0,0:0:0:0:
36,192,243089,1,0,0:0:0:0:
475,192,243089,1,0,0:0:0:0:
182,192,243171,1,0,0:0:0:0:
329,192,243171,1,0,0:0:0:0:
256,192,243252,1,0,0:0:0:0:
36,192,243252,1,0,0:0:0:0:
475,192,243252,1,0,0:0:0:0:
182,192,243334,1,0,0:0:0:0:
329,192,243334,1,0,0:0:0:0:
109,192,243415,1,0,0:0:0:0:
402,192,243415,1,0,0:0:0:0:
36,192,243497,1,0,0:0:0:0:
475,192,243497,1,0,0:0:0:0:
109,192,243578,1,0,0:0:0:0:
402,192,243578,1,0,0:0:0:0:
182,192,243578,1,0,0:0:0:0:
329,192,243578,1,0,0:0:0:0:
36,192,243742,1,0,0:0:0:0:
402,192,243742,1,0,0:0:0:0:
475,192,243742,1,0,0:0:0:0:
109,192,243742,1,0,0:0:0:0:
182,192,243823,1,0,0:0:0:0:
329,192,243823,1,0,0:0:0:0:
36,192,243905,1,0,0:0:0:0:
256,192,243905,1,0,0:0:0:0:
475,192,243905,1,0,0:0:0:0:
329,192,244068,1,0,0:0:0:0:
182,192,244231,1,0,0:0:0:0:
109,192,244231,1,0,0:0:0:0:
402,192,244231,1,0,0:0:0:0:
475,192,244231,1,0,0:0:0:0:
109,192,244394,1,0,0:0:0:0:
182,192,244394,1,0,0:0:0:0:
475,192,244394,1,0,0:0:0:0:
402,192,244394,1,0,0:0:0:0:
36,192,244557,1,0,0:0:0:0:
256,192,244557,1,0,0:0:0:0:
329,192,244557,1,0,0:0:0:0:
182,192,244720,1,0,0:0:0:0:
36,192,244720,1,0,0:0:0:0:
256,192,244883,1,0,0:0:0:0:
475,192,244883,1,0,0:0:0:0:
402,192,244883,1,0,0:0:0:0:
329,192,244883,1,0,0:0:0:0:
109,192,244883,1,0,0:0:0:0:
182,192,245046,1,0,0:0:0:0:
256,192,245046,1,0,0:0:0:0:
182,192,245209,1,0,0:0:0:0:
109,192,245209,1,0,0:0:0:0:
402,192,245209,1,0,0:0:0:0:
475,192,245372,1,0,0:0:0:0:
36,192,245372,1,0,0:0:0:0:
402,192,245535,1,0,0:0:0:0:
256,192,245535,1,0,0:0:0:0:
182,192,245535,1,0,0:0:0:0:
109,192,245535,1,0,0:0:0:0:
109,192,245698,1,0,0:0:0:0:
182,192,245698,1,0,0:0:0:0:
256,192,245698,1,0,0:0:0:0:
402,192,245698,1,0,0:0:0:0:
329,192,245861,1,0,0:0:0:0:
475,192,245861,1,0,0:0:0:0:
36,192,245861,1,0,0:0:0:0:
256,192,246024,1,0,0:0:0:0:
109,192,246024,1,0,0:0:0:0:
475,192,246187,1,0,0:0:0:0:
402,192,246187,1,0,0:0:0:0:
182,192,246187,1,0,0:0:0:0:
36,192,246187,1,0,0:0:0:0:
329,192,246187,1,0,0:0:0:0:
329,192,246350,1,0,0:0:0:0:
109,192,246350,1,0,0:0:0:0:
182,192,246513,128,0,246758:0:0:0:0:
36,192,246513,128,0,246758:0:0:0:0:
475,192,246513,1,0,0:0:0:0:
256,192,246513,1,0,0:0:0:0:
402,192,246676,1,0,0:0:0:0:
182,192,246839,128,0,247084:0:0:0:0:
36,192,246839,128,0,247084:0:0:0:0:
475,192,246839,1,0,0:0:0:0:
256,192,246839,1,0,0:0:0:0:
402,192,247002,1,0,0:0:0:0:
329,192,247165,128,0,247410:0:0:0:0:
475,192,247165,128,0,247410:0:0:0:0:
256,192,247165,1,0,0:0:0:0:
36,192,247165,1,0,0:0:0:0:
182,192,247328,1,0,0:0:0:0:
256,192,247492,128,0,247736:0:0:0:0:
109,192,247492,128,0,247736:0:0:0:0:
402,192,247492,1,0,0:0:0:0:
36,192,247492,1,0,0:0:0:0:
329,192,247655,1,0,0:0:0:0:
475,192,247818,1,0,0:0:0:0:
402,192,247818,1,0,0:0:0:0:
182,192,247818,1,0,0:0:0:0:
402,192,247981,1,0,0:0:0:0:
329,192,247981,1,0,0:0:0:0:
109,192,247981,1,0,0:0:0:0:
329,192,248144,1,0,0:0:0:0:
256,192,248144,1,0,0:0:0:0:
36,192,248144,1,0,0:0:0:0:
182,192,248144,1,0,0:0:0:0:
402,192,248307,128,0,248551:0:0:0:0:
475,192,248307,128,0,248551:0:0:0:0:
182,192,248307,128,0,248551:0:0:0:0:
475,192,248633,128,0,248714:0:0:0:0:
402,192,248633,128,0,248714:0:0:0:0:
182,192,248633,128,0,248714:0:0:0:0:
256,192,248796,1,0,0:0:0:0:
36,192,248796,1,0,0:0:0:0:
475,192,248796,1,0,0:0:0:0:
182,192,248796,1,0,0:0:0:0:
109,192,248959,1,0,0:0:0:0:
329,192,248959,1,0,0:0:0:0:
475,192,249122,128,0,249285:0:0:0:0:
182,192,249122,128,0,249285:0:0:0:0:
36,192,249122,128,0,249285:0:0:0:0:
256,192,249122,1,0,0:0:0:0:
402,192,249122,1,0,0:0:0:0:
329,192,249285,1,0,0:0:0:0:
109,192,249285,1,0,0:0:0:0:
475,192,249448,128,0,249611:0:0:0:0:
36,192,249448,128,0,249611:0:0:0:0:
182,192,249448,128,0,249611:0:0:0:0:
329,192,249611,1,0,0:0:0:0:
109,192,249611,1,0,0:0:0:0:
402,192,249774,1,0,0:0:0:0:
256,192,249774,1,0,0:0:0:0:
36,192,249774,1,0,0:0:0:0:
402,192,249937,1,0,0:0:0:0:
256,192,249937,1,0,0:0:0:0:
36,192,249937,1,0,0:0:0:0:
475,192,250100,1,0,0:0:0:0:
329,192,250100,1,0,0:0:0:0:
182,192,250100,1,0,0:0:0:0:
109,192,250100,1,0,0:0:0:0:
256,192,250263,1,0,0:0:0:0:
36,192,250426,1,0,0:0:0:0:
109,192,250426,1,0,0:0:0:0:
329,192,250426,1,0,0:0:0:0:
402,192,250426,1,0,0:0:0:0:
475,192,250426,1,0,0:0:0:0:
182,192,250589,1,0,0:0:0:0:
109,192,250589,1,0,0:0:0:0:
36,192,250589,1,0,0:0:0:0:
402,192,250589,1,0,0:0:0:0:
475,192,250589,1,0,0:0:0:0:
36,192,250752,1,0,0:0:0:0:
109,192,250752,1,0,0:0:0:0:
182,192,250752,1,0,0:0:0:0:
329,192,250752,1,0,0:0:0:0:
402,192,250752,1,0,0:0:0:0:
475,192,250752,1,0,0:0:0:0:
256,192,251078,128,0,251323:0:0:0:0:
475,192,251078,128,0,251323:0:0:0:0:
36,192,251078,128,0,251323:0:0:0:0:
182,192,251405,128,0,251649:0:0:0:0:
36,192,251405,128,0,251649:0:0:0:0:
329,192,251405,128,0,251649:0:0:0:0:
475,192,251405,128,0,251649:0:0:0:0:
182,192,251731,1,0,0:0:0:0:
36,192,251731,1,0,0:0:0:0:
329,192,251731,1,0,0:0:0:0:
475,192,251731,1,0,0:0:0:0:
36,192,251894,1,0,0:0:0:0:
182,192,252057,1,0,0:0:0:0:
329,192,252057,1,0,0:0:0:0:
475,192,252057,1,0,0:0:0:0:
182,192,252220,1,0,0:0:0:0:
329,192,252220,1,0,0:0:0:0:
475,192,252220,1,0,0:0:0:0:
36,192,252383,1,0,0:0:0:0:
182,192,252546,1,0,0:0:0:0:
329,192,252546,1,0,0:0:0:0:
475,192,252546,1,0,0:0:0:0:
182,192,252709,1,0,0:0:0:0:
329,192,252709,1,0,0:0:0:0:
475,192,252709,1,0,0:0:0:0:
36,192,252872,1,0,0:0:0:0:
182,192,253035,1,0,0:0:0:0:
329,192,253035,1,0,0:0:0:0:
475,192,253035,1,0,0:0:0:0:
329,192,253198,1,0,0:0:0:0:
182,192,253198,1,0,0:0:0:0:
475,192,253198,1,0,0:0:0:0:
36,192,253361,1,0,0:0:0:0:
182,192,253524,1,0,0:0:0:0:
329,192,253524,1,0,0:0:0:0:
475,192,253524,1,0,0:0:0:0:
182,192,253687,1,0,0:0:0:0:
329,192,253687,1,0,0:0:0:0:
475,192,253687,1,0,0:0:0:0:
36,192,253850,1,0,0:0:0:0:
182,192,254013,1,0,0:0:0:0:
329,192,254013,1,0,0:0:0:0:
475,192,254013,1,0,0:0:0:0:
36,192,254176,1,0,0:0:0:0:
109,192,254339,1,0,0:0:0:0:
256,192,254339,1,0,0:0:0:0:
475,192,254339,1,0,0:0:0:0:
329,192,254502,1,0,0:0:0:0:
256,192,254665,1,0,0:0:0:0:
109,192,254665,1,0,0:0:0:0:
475,192,254665,1,0,0:0:0:0:
109,192,254828,1,0,0:0:0:0:
256,192,254828,1,0,0:0:0:0:
475,192,254828,1,0,0:0:0:0:
329,192,254992,1,0,0:0:0:0:
109,192,255155,1,0,0:0:0:0:
256,192,255155,1,0,0:0:0:0:
475,192,255155,1,0,0:0:0:0:
109,192,255318,1,0,0:0:0:0:
256,192,255318,1,0,0:0:0:0:
475,192,255318,1,0,0:0:0:0:
329,192,255481,1,0,0:0:0:0:
109,192,255644,1,0,0:0:0:0:
256,192,255644,1,0,0:0:0:0:
475,192,255644,1,0,0:0:0:0:
109,192,255807,1,0,0:0:0:0:
256,192,255807,1,0,0:0:0:0:
475,192,255807,1,0,0:0:0:0:
329,192,255970,1,0,0:0:0:0:
256,192,256133,1,0,0:0:0:0:
109,192,256133,1,0,0:0:0:0:
475,192,256133,1,0,0:0:0:0:
256,192,256296,1,0,0:0:0:0:
109,192,256296,1,0,0:0:0:0:
475,192,256296,1,0,0:0:0:0:
329,192,256459,1,0,0:0:0:0:
109,192,256622,1,0,0:0:0:0:
256,192,256622,1,0,0:0:0:0:
475,192,256622,1,0,0:0:0:0:
329,192,256785,1,0,0:0:0:0:
36,192,256948,1,0,0:0:0:0:
182,192,256948,1,0,0:0:0:0:
256,192,256948,1,0,0:0:0:0:
475,192,256948,1,0,0:0:0:0:
402,192,257111,1,0,0:0:0:0:
256,192,257274,1,0,0:0:0:0:
182,192,257274,1,0,0:0:0:0:
36,192,257274,1,0,0:0:0:0:
402,192,257437,1,0,0:0:0:0:
256,192,257600,1,0,0:0:0:0:
182,192,257600,1,0,0:0:0:0:
36,192,257600,1,0,0:0:0:0:
402,192,257763,1,0,0:0:0:0:
36,192,257926,1,0,0:0:0:0:
182,192,257926,1,0,0:0:0:0:
256,192,257926,1,0,0:0:0:0:
256,192,258089,1,0,0:0:0:0:
182,192,258089,1,0,0:0:0:0:
36,192,258089,1,0,0:0:0:0:
475,192,258171,1,0,0:0:0:0:
329,192,258252,1,0,0:0:0:0:
402,192,258252,1,0,0:0:0:0:
109,192,258252,1,0,0:0:0:0:
475,192,258415,1,0,0:0:0:0:
329,192,258578,1,0,0:0:0:0:
402,192,258578,1,0,0:0:0:0:
109,192,258578,1,0,0:0:0:0:
475,192,258742,1,0,0:0:0:0:
256,192,258905,1,0,0:0:0:0:
36,192,258905,1,0,0:0:0:0:
329,192,259068,1,0,0:0:0:0:
475,192,259068,1,0,0:0:0:0:
182,192,259068,1,0,0:0:0:0:
256,192,259231,1,0,0:0:0:0:
109,192,259231,1,0,0:0:0:0:
402,192,259231,1,0,0:0:0:0:
329,192,259394,1,0,0:0:0:0:
182,192,259394,1,0,0:0:0:0:
36,192,259394,1,0,0:0:0:0:
256,192,259557,128,0,260616:0:0:0:0:
402,192,259557,128,0,260616:0:0:0:0:
475,192,259557,128,0,260616:0:0:0:0:
182,192,259557,128,0,259720:0:0:0:0:
36,192,259720,128,0,259883:0:0:0:0:
182,192,259883,128,0,260046:0:0:0:0:
109,192,260046,128,0,260209:0:0:0:0:
36,192,260209,128,0,260372:0:0:0:0:
182,192,260372,128,0,260535:0:0:0:0:
109,192,260535,128,0,260616:0:0:0:0:
36,192,260698,1,0,0:0:0:0:
256,192,260698,1,0,0:0:0:0:
402,192,260698,1,0,0:0:0:0:
475,192,260698,1,0,0:0:0:0:
109,192,260698,1,0,0:0:0:0:
109,192,261024,1,0,0:0:0:0:
36,192,261024,1,0,0:0:0:0:
256,192,261024,1,0,0:0:0:0:
329,192,261024,1,0,0:0:0:0:
475,192,261024,1,0,0:0:0:0:
109,192,261350,1,0,0:0:0:0:
182,192,261350,1,0,0:0:0:0:
329,192,261350,1,0,0:0:0:0:
402,192,261350,1,0,0:0:0:0:
256,192,261350,1,0,0:0:0:0:
182,192,261676,1,0,0:0:0:0:
36,192,261676,1,0,0:0:0:0:
329,192,261676,1,0,0:0:0:0:
475,192,261676,1,0,0:0:0:0:
182,192,261839,1,0,0:0:0:0:
109,192,261839,1,0,0:0:0:0:
36,192,261839,1,0,0:0:0:0:
329,192,261839,1,0,0:0:0:0:
402,192,261839,1,0,0:0:0:0:
475,192,261839,1,0,0:0:0:0:
475,192,262165,128,0,263470:0:0:0:0:
36,192,262165,1,0,0:0:0:0:
182,192,262165,1,0,0:0:0:0:
329,192,262165,1,0,0:0:0:0:
36,192,262328,1,0,0:0:0:0:
109,192,262492,1,0,0:0:0:0:
182,192,262655,1,0,0:0:0:0:
256,192,262818,1,0,0:0:0:0:
402,192,262818,1,0,0:0:0:0:
109,192,262818,1,0,0:0:0:0:
402,192,262981,1,0,0:0:0:0:
329,192,263144,1,0,0:0:0:0:
256,192,263307,1,0,0:0:0:0:
109,192,263307,1,0,0:0:0:0:
36,192,263470,128,0,263796:0:0:0:0:
109,192,263470,1,0,0:0:0:0:
256,192,263470,1,0,0:0:0:0:
329,192,263633,1,0,0:0:0:0:
182,192,263796,128,0,264122:0:0:0:0:
402,192,263796,1,0,0:0:0:0:
475,192,263959,1,0,0:0:0:0:
329,192,264122,128,0,264448:0:0:0:0:
36,192,264122,1,0,0:0:0:0:
256,192,264122,1,0,0:0:0:0:
402,192,264122,1,0,0:0:0:0:
36,192,264285,1,0,0:0:0:0:
475,192,264448,128,0,264774:0:0:0:0:
109,192,264448,1,0,0:0:0:0:
182,192,264611,1,0,0:0:0:0:
36,192,264774,128,0,266078:0:0:0:0:
256,192,264774,1,0,0:0:0:0:
402,192,264774,1,0,0:0:0:0:
256,192,264937,1,0,0:0:0:0:
182,192,265100,1,0,0:0:0:0:
109,192,265263,1,0,0:0:0:0:
329,192,265426,1,0,0:0:0:0:
182,192,265426,1,0,0:0:0:0:
475,192,265426,1,0,0:0:0:0:
475,192,265589,1,0,0:0:0:0:
402,192,265752,1,0,0:0:0:0:
329,192,265915,1,0,0:0:0:0:
475,192,266078,128,0,267383:0:0:0:0:
256,192,266078,1,0,0:0:0:0:
402,192,266078,1,0,0:0:0:0:
182,192,266187,1,0,0:0:0:0:
329,192,266187,1,0,0:0:0:0:
109,192,266296,1,0,0:0:0:0:
256,192,266296,1,0,0:0:0:0:
402,192,266405,1,0,0:0:0:0:
182,192,266405,1,0,0:0:0:0:
329,192,266513,1,0,0:0:0:0:
109,192,266513,1,0,0:0:0:0:
256,192,266622,1,0,0:0:0:0:
36,192,266622,1,0,0:0:0:0:
109,192,266731,1,0,0:0:0:0:
329,192,266731,1,0,0:0:0:0:
182,192,266839,1,0,0:0:0:0:
402,192,266839,1,0,0:0:0:0:
256,192,266948,1,0,0:0:0:0:
109,192,266948,1,0,0:0:0:0:
36,192,267057,1,0,0:0:0:0:
182,192,267057,1,0,0:0:0:0:
109,192,267165,1,0,0:0:0:0:
256,192,267165,1,0,0:0:0:0:
182,192,267274,1,0,0:0:0:0:
329,192,267274,1,0,0:0:0:0:
402,192,267383,1,0,0:0:0:0:
36,192,267383,128,0,267709:0:0:0:0:
109,192,267383,128,0,267709:0:0:0:0:
256,192,267383,1,0,0:0:0:0:
329,192,267546,1,0,0:0:0:0:
402,192,267546,1,0,0:0:0:0:
256,192,267709,1,0,0:0:0:0:
182,192,267709,1,0,0:0:0:0:
475,192,267709,1,0,0:0:0:0:
329,192,267872,1,0,0:0:0:0:
109,192,268035,1,0,0:0:0:0:
182,192,268035,1,0,0:0:0:0:
402,192,268035,128,0,268361:0:0:0:0:
475,192,268035,128,0,268361:0:0:0:0:
182,192,268198,1,0,0:0:0:0:
256,192,268198,1,0,0:0:0:0:
256,192,268361,1,0,0:0:0:0:
329,192,268361,1,0,0:0:0:0:
36,192,268361,1,0,0:0:0:0:
182,192,268524,1,0,0:0:0:0:
329,192,268687,128,0,269013:0:0:0:0:
475,192,268687,128,0,269013:0:0:0:0:
109,192,268687,1,0,0:0:0:0:
256,192,268687,1,0,0:0:0:0:
109,192,268850,1,0,0:0:0:0:
182,192,268850,1,0,0:0:0:0:
256,192,269013,1,0,0:0:0:0:
36,192,269013,1,0,0:0:0:0:
402,192,269013,1,0,0:0:0:0:
182,192,269176,1,0,0:0:0:0:
109,192,269339,128,0,269502:0:0:0:0:
36,192,269339,128,0,269502:0:0:0:0:
402,192,269339,1,0,0:0:0:0:
475,192,269339,1,0,0:0:0:0:
182,192,269502,128,0,269665:0:0:0:0:
256,192,269502,128,0,269665:0:0:0:0:
329,192,269502,1,0,0:0:0:0:
475,192,269665,128,0,269828:0:0:0:0:
402,192,269665,128,0,269828:0:0:0:0:
109,192,269665,1,0,0:0:0:0:
36,192,269665,1,0,0:0:0:0:
329,192,269828,128,0,269992:0:0:0:0:
256,192,269828,128,0,269992:0:0:0:0:
182,192,269828,1,0,0:0:0:0:
475,192,269992,1,0,0:0:0:0:
182,192,269992,1,0,0:0:0:0:
36,192,269992,1,0,0:0:0:0:
402,192,270073,1,0,0:0:0:0:
182,192,270155,1,0,0:0:0:0:
36,192,270155,1,0,0:0:0:0:
329,192,270155,1,0,0:0:0:0:
182,192,270318,1,0,0:0:0:0:
36,192,270318,1,0,0:0:0:0:
475,192,270318,1,0,0:0:0:0:
402,192,270399,1,0,0:0:0:0:
182,192,270481,1,0,0:0:0:0:
36,192,270481,1,0,0:0:0:0:
329,192,270481,1,0,0:0:0:0:
182,192,270644,1,0,0:0:0:0:
36,192,270644,1,0,0:0:0:0:
475,192,270644,1,0,0:0:0:0:
402,192,270725,1,0,0:0:0:0:
329,192,270807,1,0,0:0:0:0:
182,192,270807,1,0,0:0:0:0:
36,192,270807,1,0,0:0:0:0:
182,192,270970,1,0,0:0:0:0:
36,192,270970,1,0,0:0:0:0:
256,192,271051,1,0,0:0:0:0:
402,192,271051,1,0,0:0:0:0:
182,192,271133,1,0,0:0:0:0:
36,192,271133,1,0,0:0:0:0:
329,192,271133,1,0,0:0:0:0:
475,192,271133,1,0,0:0:0:0:
109,192,271459,1,0,0:0:0:0:
329,192,271459,1,0,0:0:0:0:
475,192,271459,1,0,0:0:0:0:
182,192,271459,1,0,0:0:0:0:
36,192,271785,1,0,0:0:0:0:
182,192,271785,1,0,0:0:0:0:
256,192,271785,1,0,0:0:0:0:
329,192,271785,1,0,0:0:0:0:
475,192,271785,1,0,0:0:0:0:
182,192,272111,1,0,0:0:0:0:
109,192,272111,1,0,0:0:0:0:
36,192,272111,1,0,0:0:0:0:
329,192,272111,1,0,0:0:0:0:
402,192,272111,1,0,0:0:0:0:
475,192,272111,1,0,0:0:0:0:
36,192,272274,1,0,0:0:0:0:
109,192,272274,1,0,0:0:0:0:
182,192,272274,1,0,0:0:0:0:
475,192,272274,1,0,0:0:0:0:
402,192,272274,1,0,0:0:0:0:
329,192,272274,1,0,0:0:0:0:
182,192,272437,1,0,0:0:0:0:
109,192,272437,1,0,0:0:0:0:
36,192,272437,1,0,0:0:0:0:
329,192,272437,1,0,0:0:0:0:
402,192,272437,1,0,0:0:0:0:
475,192,272437,1,0,0:0:0:0:
109,192,272763,1,0,0:0:0:0:
36,192,272763,1,0,0:0:0:0:
256,192,272763,1,0,0:0:0:0:
402,192,272763,1,0,0:0:0:0:
475,192,272763,1,0,0:0:0:0:
109,192,272926,128,0,273171:0:0:0:0:
36,192,272926,128,0,273171:0:0:0:0:
256,192,272926,128,0,273171:0:0:0:0:
402,192,272926,128,0,273171:0:0:0:0:
475,192,272926,128,0,273171:0:0:0:0:
36,192,273252,1,0,0:0:0:0:
109,192,273252,1,0,0:0:0:0:
402,192,273252,1,0,0:0:0:0:
475,192,273252,1,0,0:0:0:0:
182,192,273334,1,0,0:0:0:0:
329,192,273334,1,0,0:0:0:0:
109,192,273415,1,0,0:0:0:0:
402,192,273415,1,0,0:0:0:0:
475,192,273497,1,0,0:0:0:0:
36,192,273497,1,0,0:0:0:0:
109,192,273578,1,0,0:0:0:0:
402,192,273578,1,0,0:0:0:0:
182,192,273578,1,0,0:0:0:0:
329,192,273578,1,0,0:0:0:0:
475,192,273660,1,0,0:0:0:0:
36,192,273660,1,0,0:0:0:0:
109,192,273742,1,0,0:0:0:0:
402,192,273742,1,0,0:0:0:0:
182,192,273823,1,0,0:0:0:0:
329,192,273823,1,0,0:0:0:0:
36,192,273905,128,0,274557:0:0:0:0:
475,192,273905,1,0,0:0:0:0:
109,192,273905,1,0,0:0:0:0:
402,192,273905,1,0,0:0:0:0:
329,192,274068,1,0,0:0:0:0:
109,192,274231,128,0,274557:0:0:0:0:
182,192,274231,1,0,0:0:0:0:
475,192,274231,1,0,0:0:0:0:
402,192,274394,1,0,0:0:0:0:
475,192,274557,1,0,0:0:0:0:
329,192,274557,1,0,0:0:0:0:
256,192,274557,1,0,0:0:0:0:
402,192,274720,1,0,0:0:0:0:
256,192,274720,1,0,0:0:0:0:
182,192,274720,1,0,0:0:0:0:
329,192,274883,1,0,0:0:0:0:
182,192,274883,1,0,0:0:0:0:
109,192,274883,1,0,0:0:0:0:
475,192,274883,1,0,0:0:0:0:
256,192,275046,1,0,0:0:0:0:
109,192,275046,1,0,0:0:0:0:
36,192,275046,1,0,0:0:0:0:
475,192,275209,128,0,275861:0:0:0:0:
36,192,275209,1,0,0:0:0:0:
329,192,275209,1,0,0:0:0:0:
182,192,275372,1,0,0:0:0:0:
402,192,275536,128,0,275862:0:0:0:0:
329,192,275536,1,0,0:0:0:0:
36,192,275536,1,0,0:0:0:0:
109,192,275699,1,0,0:0:0:0:
182,192,275862,1,0,0:0:0:0:
256,192,275862,1,0,0:0:0:0:
36,192,275862,1,0,0:0:0:0:
329,192,276025,1,0,0:0:0:0:
256,192,276025,1,0,0:0:0:0:
109,192,276025,1,0,0:0:0:0:
182,192,276188,1,0,0:0:0:0:
329,192,276188,1,0,0:0:0:0:
402,192,276188,1,0,0:0:0:0:
36,192,276188,1,0,0:0:0:0:
256,192,276351,1,0,0:0:0:0:
402,192,276351,1,0,0:0:0:0:
475,192,276351,1,0,0:0:0:0:
36,192,276514,128,0,276840:0:0:0:0:
329,192,276514,1,0,0:0:0:0:
182,192,276514,1,0,0:0:0:0:
256,192,276677,1,0,0:0:0:0:
182,192,276840,128,0,277166:0:0:0:0:
475,192,276840,1,0,0:0:0:0:
329,192,276840,1,0,0:0:0:0:
256,192,277003,1,0,0:0:0:0:
475,192,277166,128,0,277493:0:0:0:0:
329,192,277166,1,0,0:0:0:0:
36,192,277166,1,0,0:0:0:0:
182,192,277329,1,0,0:0:0:0:
36,192,277492,128,0,277818:0:0:0:0:
329,192,277492,1,0,0:0:0:0:
109,192,277492,1,0,0:0:0:0:
256,192,277655,1,0,0:0:0:0:
475,192,277818,128,0,277981:0:0:0:0:
329,192,277818,1,0,0:0:0:0:
182,192,277818,1,0,0:0:0:0:
402,192,277981,128,0,278144:0:0:0:0:
256,192,277981,1,0,0:0:0:0:
109,192,277981,1,0,0:0:0:0:
329,192,278144,128,0,278307:0:0:0:0:
182,192,278144,1,0,0:0:0:0:
36,192,278144,1,0,0:0:0:0:
475,192,278307,128,0,278470:0:0:0:0:
256,192,278307,1,0,0:0:0:0:
109,192,278307,1,0,0:0:0:0:
36,192,278470,128,0,278633:0:0:0:0:
182,192,278470,128,0,278633:0:0:0:0:
329,192,278470,1,0,0:0:0:0:
109,192,278633,128,0,278796:0:0:0:0:
256,192,278633,128,0,278796:0:0:0:0:
402,192,278633,1,0,0:0:0:0:
182,192,278796,128,0,278959:0:0:0:0:
329,192,278796,128,0,278959:0:0:0:0:
475,192,278796,1,0,0:0:0:0:
256,192,278959,128,0,279122:0:0:0:0:
402,192,278959,128,0,279122:0:0:0:0:
36,192,278959,1,0,0:0:0:0:
475,192,279122,1,0,0:0:0:0:
182,192,279122,1,0,0:0:0:0:
109,192,279122,1,0,0:0:0:0:
329,192,279286,1,0,0:0:0:0:
475,192,279449,1,0,0:0:0:0:
256,192,279449,1,0,0:0:0:0:
109,192,279449,1,0,0:0:0:0:
182,192,279612,1,0,0:0:0:0:
475,192,279775,1,0,0:0:0:0:
329,192,279775,1,0,0:0:0:0:
36,192,279775,1,0,0:0:0:0:
402,192,279938,1,0,0:0:0:0:
256,192,279938,1,0,0:0:0:0:
182,192,279938,1,0,0:0:0:0:
475,192,280101,1,0,0:0:0:0:
109,192,280101,1,0,0:0:0:0:
36,192,280101,1,0,0:0:0:0:
329,192,280101,1,0,0:0:0:0:
256,192,280264,1,0,0:0:0:0:
182,192,280427,128,0,280753:0:0:0:0:
36,192,280427,128,0,280753:0:0:0:0:
402,192,280427,1,0,0:0:0:0:
329,192,280590,1,0,0:0:0:0:
475,192,280753,1,0,0:0:0:0:
256,192,280753,1,0,0:0:0:0:
329,192,280916,128,0,281243:0:0:0:0:
109,192,280916,128,0,281243:0:0:0:0:
36,192,280916,1,0,0:0:0:0:
402,192,281079,1,0,0:0:0:0:
182,192,281242,1,0,0:0:0:0:
475,192,281405,1,0,0:0:0:0:
256,192,281405,1,0,0:0:0:0:
36,192,281405,1,0,0:0:0:0:
109,192,281568,1,0,0:0:0:0:
475,192,281731,1,0,0:0:0:0:
329,192,281731,1,0,0:0:0:0:
182,192,281731,1,0,0:0:0:0:
329,192,281894,1,0,0:0:0:0:
475,192,281894,1,0,0:0:0:0:
182,192,281894,1,0,0:0:0:0:
182,192,282057,1,0,0:0:0:0:
329,192,282057,128,0,282301:0:0:0:0:
475,192,282057,128,0,282301:0:0:0:0:
36,192,282220,1,0,0:0:0:0:
109,192,282302,1,0,0:0:0:0:
329,192,282383,1,0,0:0:0:0:
182,192,282383,1,0,0:0:0:0:
36,192,282383,1,0,0:0:0:0:
329,192,282546,1,0,0:0:0:0:
182,192,282546,1,0,0:0:0:0:
36,192,282546,1,0,0:0:0:0:
182,192,282709,128,0,282954:0:0:0:0:
36,192,282709,128,0,282954:0:0:0:0:
329,192,282709,1,0,0:0:0:0:
475,192,282872,1,0,0:0:0:0:
402,192,282954,1,0,0:0:0:0:
475,192,283036,1,0,0:0:0:0:
329,192,283036,1,0,0:0:0:0:
182,192,283036,1,0,0:0:0:0:
36,192,283036,1,0,0:0:0:0:
329,192,283199,1,0,0:0:0:0:
475,192,283199,1,0,0:0:0:0:
182,192,283199,1,0,0:0:0:0:
36,192,283199,1,0,0:0:0:0:
256,192,283362,1,0,0:0:0:0:
329,192,283362,1,0,0:0:0:0:
182,192,283362,1,0,0:0:0:0:
475,192,283524,1,0,0:0:0:0:
36,192,283524,1,0,0:0:0:0:
256,192,283524,128,0,283850:0:0:0:0:
402,192,283606,1,0,0:0:0:0:
109,192,283606,1,0,0:0:0:0:
182,192,283687,1,0,0:0:0:0:
329,192,283687,1,0,0:0:0:0:
475,192,283769,1,0,0:0:0:0:
36,192,283769,1,0,0:0:0:0:
109,192,283850,1,0,0:0:0:0:
402,192,283850,1,0,0:0:0:0:
182,192,283850,1,0,0:0:0:0:
329,192,283850,1,0,0:0:0:0:
475,192,284013,1,0,0:0:0:0:
36,192,284013,1,0,0:0:0:0:
109,192,284013,1,0,0:0:0:0:
402,192,284013,1,0,0:0:0:0:
329,192,284177,1,0,0:0:0:0:
182,192,284177,1,0,0:0:0:0:
256,192,284258,1,0,0:0:0:0:
109,192,284339,1,0,0:0:0:0:
402,192,284339,1,0,0:0:0:0:
475,192,284340,1,0,0:0:0:0:
36,192,284340,1,0,0:0:0:0:
402,192,284502,1,0,0:0:0:0:
109,192,284502,1,0,0:0:0:0:
182,192,284665,1,0,0:0:0:0:
329,192,284665,1,0,0:0:0:0:
475,192,284666,128,0,284993:0:0:0:0:
36,192,284666,128,0,284993:0:0:0:0:
256,192,284666,1,0,0:0:0:0:
329,192,284992,1,0,0:0:0:0:
182,192,284992,1,0,0:0:0:0:
402,192,285155,1,0,0:0:0:0:
256,192,285155,1,0,0:0:0:0:
36,192,285155,1,0,0:0:0:0:
475,192,285318,1,0,0:0:0:0:
329,192,285318,1,0,0:0:0:0:
109,192,285318,1,0,0:0:0:0:
182,192,285318,1,0,0:0:0:0:
256,192,285481,1,0,0:0:0:0:
36,192,285481,1,0,0:0:0:0:
402,192,285481,1,0,0:0:0:0:
475,192,285644,1,0,0:0:0:0:
109,192,285644,1,0,0:0:0:0:
329,192,285644,1,0,0:0:0:0:
182,192,285807,1,0,0:0:0:0:
36,192,285807,1,0,0:0:0:0:
402,192,285807,1,0,0:0:0:0:
329,192,285970,128,0,286296:0:0:0:0:
182,192,285970,128,0,286296:0:0:0:0:
475,192,285970,1,0,0:0:0:0:
36,192,285970,1,0,0:0:0:0:
256,192,286133,1,0,0:0:0:0:
475,192,286296,1,0,0:0:0:0:
402,192,286296,1,0,0:0:0:0:
109,192,286296,1,0,0:0:0:0:
36,192,286296,1,0,0:0:0:0:
402,192,286459,1,0,0:0:0:0:
182,192,286459,1,0,0:0:0:0:
36,192,286459,1,0,0:0:0:0:
329,192,286622,1,0,0:0:0:0:
475,192,286622,1,0,0:0:0:0:
109,192,286622,1,0,0:0:0:0:
256,192,286622,1,0,0:0:0:0:
402,192,286786,1,0,0:0:0:0:
36,192,286786,1,0,0:0:0:0:
182,192,286786,1,0,0:0:0:0:
109,192,286949,128,0,287275:0:0:0:0:
475,192,286949,1,0,0:0:0:0:
329,192,286949,1,0,0:0:0:0:
256,192,287112,1,0,0:0:0:0:
402,192,287275,128,0,287601:0:0:0:0:
182,192,287275,1,0,0:0:0:0:
36,192,287275,1,0,0:0:0:0:
256,192,287438,1,0,0:0:0:0:
256,192,287601,128,0,287927:0:0:0:0:
475,192,287601,1,0,0:0:0:0:
329,192,287601,1,0,0:0:0:0:
36,192,287764,1,0,0:0:0:0:
109,192,287927,128,0,288253:0:0:0:0:
182,192,287927,1,0,0:0:0:0:
36,192,287927,1,0,0:0:0:0:
475,192,288090,1,0,0:0:0:0:
475,192,288252,128,0,288415:0:0:0:0:
329,192,288253,1,0,0:0:0:0:
256,192,288253,1,0,0:0:0:0:
402,192,288415,128,0,288578:0:0:0:0:
182,192,288416,1,0,0:0:0:0:
256,192,288416,1,0,0:0:0:0:
329,192,288578,128,0,288742:0:0:0:0:
475,192,288579,1,0,0:0:0:0:
109,192,288579,1,0,0:0:0:0:
36,192,288579,1,0,0:0:0:0:
256,192,288742,1,0,0:0:0:0:
182,192,288742,1,0,0:0:0:0:
402,192,288742,128,0,288905:0:0:0:0:
329,192,288905,1,0,0:0:0:0:
475,192,288905,1,0,0:0:0:0:
36,192,288905,128,0,289068:0:0:0:0:
256,192,289068,1,0,0:0:0:0:
402,192,289068,1,0,0:0:0:0:
109,192,289068,128,0,289231:0:0:0:0:
475,192,289231,1,0,0:0:0:0:
329,192,289231,1,0,0:0:0:0:
36,192,289231,1,0,0:0:0:0:
182,192,289231,128,0,289394:0:0:0:0:
256,192,289394,128,0,289557:0:0:0:0:
475,192,289557,1,0,0:0:0:0:
402,192,289557,1,0,0:0:0:0:
182,192,289557,1,0,0:0:0:0:
109,192,289557,1,0,0:0:0:0:
36,192,289557,1,0,0:0:0:0:
329,192,289720,1,0,0:0:0:0:
256,192,289720,1,0,0:0:0:0:
475,192,289883,1,0,0:0:0:0:
182,192,289883,1,0,0:0:0:0:
36,192,289883,1,0,0:0:0:0:
402,192,289883,1,0,0:0:0:0:
256,192,290046,1,0,0:0:0:0:
109,192,290046,1,0,0:0:0:0:
475,192,290209,1,0,0:0:0:0:
402,192,290209,1,0,0:0:0:0:
182,192,290209,1,0,0:0:0:0:
475,192,290372,1,0,0:0:0:0:
329,192,290372,1,0,0:0:0:0:
182,192,290372,1,0,0:0:0:0:
475,192,290536,1,0,0:0:0:0:
256,192,290536,1,0,0:0:0:0:
182,192,290536,1,0,0:0:0:0:
36,192,290536,1,0,0:0:0:0:
329,192,290699,1,0,0:0:0:0:
109,192,290699,1,0,0:0:0:0:
182,192,290862,128,0,291188:0:0:0:0:
36,192,290862,128,0,291188:0:0:0:0:
475,192,290862,1,0,0:0:0:0:
329,192,290862,1,0,0:0:0:0:
402,192,291025,1,0,0:0:0:0:
256,192,291188,1,0,0:0:0:0:
475,192,291188,1,0,0:0:0:0:
329,192,291351,128,0,291840:0:0:0:0:
475,192,291351,128,0,291840:0:0:0:0:
109,192,291351,1,0,0:0:0:0:
36,192,291514,1,0,0:0:0:0:
256,192,291514,1,0,0:0:0:0:
182,192,291677,1,0,0:0:0:0:
109,192,291840,1,0,0:0:0:0:
36,192,291840,1,0,0:0:0:0:
256,192,291840,1,0,0:0:0:0:
402,192,292003,1,0,0:0:0:0:
182,192,292003,1,0,0:0:0:0:
475,192,292166,1,0,0:0:0:0:
329,192,292166,1,0,0:0:0:0:
109,192,292166,1,0,0:0:0:0:
329,192,292329,1,0,0:0:0:0:
475,192,292329,1,0,0:0:0:0:
109,192,292329,1,0,0:0:0:0:
475,192,292492,128,0,292655:0:0:0:0:
329,192,292492,128,0,292655:0:0:0:0:
109,192,292492,128,0,292655:0:0:0:0:
182,192,292655,1,0,0:0:0:0:
36,192,292655,1,0,0:0:0:0:
402,192,292655,1,0,0:0:0:0:
256,192,292736,1,0,0:0:0:0:
402,192,292818,1,0,0:0:0:0:
182,192,292818,1,0,0:0:0:0:
36,192,292818,1,0,0:0:0:0:
402,192,292981,1,0,0:0:0:0:
182,192,292981,1,0,0:0:0:0:
36,192,292981,1,0,0:0:0:0:
402,192,293144,128,0,293307:0:0:0:0:
182,192,293144,128,0,293307:0:0:0:0:
36,192,293144,128,0,293307:0:0:0:0:
329,192,293307,1,0,0:0:0:0:
475,192,293307,1,0,0:0:0:0:
109,192,293307,1,0,0:0:0:0:
475,192,293470,1,0,0:0:0:0:
329,192,293470,1,0,0:0:0:0:
109,192,293470,1,0,0:0:0:0:
36,192,293470,1,0,0:0:0:0:
256,192,293633,1,0,0:0:0:0:
402,192,293633,1,0,0:0:0:0:
182,192,293633,1,0,0:0:0:0:
36,192,293633,1,0,0:0:0:0:
402,192,293796,1,0,0:0:0:0:
475,192,293796,1,0,0:0:0:0:
109,192,293796,1,0,0:0:0:0:
36,192,293796,1,0,0:0:0:0:
256,192,293796,1,0,0:0:0:0:
475,192,294122,1,0,0:0:0:0:
256,192,294122,1,0,0:0:0:0:
36,192,294122,1,0,0:0:0:0:
329,192,294122,1,0,0:0:0:0:
182,192,294122,1,0,0:0:0:0:
182,192,294448,1,0,0:0:0:0:
109,192,294448,1,0,0:0:0:0:
36,192,294448,1,0,0:0:0:0:
329,192,294448,1,0,0:0:0:0:
402,192,294448,1,0,0:0:0:0:
475,192,294448,1,0,0:0:0:0:
36,192,294774,1,0,0:0:0:0:
182,192,294774,1,0,0:0:0:0:
402,192,294774,1,0,0:0:0:0:
256,192,294937,1,0,0:0:0:0:
109,192,295100,1,0,0:0:0:0:
329,192,295100,1,0,0:0:0:0:
475,192,295100,1,0,0:0:0:0:
182,192,295263,1,0,0:0:0:0:
329,192,295426,1,0,0:0:0:0:
475,192,295426,1,0,0:0:0:0:
36,192,295426,1,0,0:0:0:0:
329,192,295589,1,0,0:0:0:0:
475,192,295589,1,0,0:0:0:0:
36,192,295589,1,0,0:0:0:0:
109,192,295752,1,0,0:0:0:0:
256,192,295752,1,0,0:0:0:0:
402,192,295752,1,0,0:0:0:0:
182,192,295915,1,0,0:0:0:0:
36,192,295915,1,0,0:0:0:0:
475,192,295915,1,0,0:0:0:0:
109,192,296242,1,0,0:0:0:0:
329,192,296242,1,0,0:0:0:0:
256,192,296242,1,0,0:0:0:0:
182,192,296568,1,0,0:0:0:0:
402,192,296568,1,0,0:0:0:0:
475,192,296568,1,0,0:0:0:0:
36,192,296894,1,0,0:0:0:0:
182,192,296894,1,0,0:0:0:0:
256,192,297057,1,0,0:0:0:0:
329,192,297057,1,0,0:0:0:0:
475,192,297057,128,0,297383:0:0:0:0:
109,192,297057,128,0,297383:0:0:0:0:
36,192,297383,1,0,0:0:0:0:
182,192,297383,1,0,0:0:0:0:
402,192,297383,1,0,0:0:0:0:
109,192,297709,1,0,0:0:0:0:
256,192,297709,1,0,0:0:0:0:
475,192,297709,1,0,0:0:0:0:
329,192,297872,1,0,0:0:0:0:
402,192,298035,1,0,0:0:0:0:
182,192,298035,1,0,0:0:0:0:
36,192,298035,1,0,0:0:0:0:
475,192,298198,1,0,0:0:0:0:
182,192,298198,1,0,0:0:0:0:
36,192,298198,1,0,0:0:0:0:
109,192,298361,1,0,0:0:0:0:
256,192,298361,1,0,0:0:0:0:
329,192,298361,1,0,0:0:0:0:
36,192,298524,1,0,0:0:0:0:
475,192,298524,1,0,0:0:0:0:
256,192,298850,1,0,0:0:0:0:
329,192,299013,1,0,0:0:0:0:
475,192,299013,1,0,0:0:0:0:
182,192,299013,1,0,0:0:0:0:
109,192,299176,1,0,0:0:0:0:
475,192,299176,1,0,0:0:0:0:
329,192,299176,1,0,0:0:0:0:
36,192,299339,1,0,0:0:0:0:
256,192,299502,1,0,0:0:0:0:
329,192,299665,1,0,0:0:0:0:
475,192,299665,1,0,0:0:0:0:
36,192,299665,1,0,0:0:0:0:
36,192,299992,1,0,0:0:0:0:
109,192,299992,1,0,0:0:0:0:
402,192,299992,1,0,0:0:0:0:
475,192,299992,1,0,0:0:0:0:
256,192,300155,1,0,0:0:0:0:
109,192,300318,1,0,0:0:0:0:
402,192,300318,1,0,0:0:0:0:
182,192,300318,1,0,0:0:0:0:
182,192,300481,1,0,0:0:0:0:
109,192,300481,1,0,0:0:0:0:
402,192,300481,1,0,0:0:0:0:
36,192,300644,128,0,300807:0:0:0:0:
256,192,300644,128,0,300807:0:0:0:0:
329,192,300644,1,0,0:0:0:0:
182,192,300807,128,0,300970:0:0:0:0:
402,192,300807,128,0,300970:0:0:0:0:
475,192,300807,1,0,0:0:0:0:
36,192,300970,1,0,0:0:0:0:
256,192,300970,1,0,0:0:0:0:
329,192,300970,1,0,0:0:0:0:
109,192,301133,1,0,0:0:0:0:
182,192,301133,1,0,0:0:0:0:
402,192,301133,1,0,0:0:0:0:
475,192,301133,1,0,0:0:0:0:
475,192,301459,128,0,301540:0:0:0:0:
329,192,301459,128,0,301540:0:0:0:0:
402,192,301622,128,0,301703:0:0:0:0:
256,192,301622,128,0,301703:0:0:0:0:
329,192,301785,128,0,301867:0:0:0:0:
182,192,301785,128,0,301867:0:0:0:0:
182,192,301948,128,0,302030:0:0:0:0:
36,192,301948,128,0,302030:0:0:0:0:
109,192,302111,128,0,302193:0:0:0:0:
256,192,302111,128,0,302193:0:0:0:0:
402,192,302193,1,0,0:0:0:0:
475,192,302193,1,0,0:0:0:0:
182,192,302274,128,0,302600:0:0:0:0:
329,192,302274,128,0,302600:0:0:0:0:
36,192,302600,5,0,0:0:0:0:
109,192,302600,1,0,0:0:0:0:
402,192,302600,1,0,0:0:0:0:
475,192,302600,1,0,0:0:0:0:
475,192,302763,1,0,0:0:0:0:
402,192,302763,1,0,0:0:0:0:
109,192,302763,1,0,0:0:0:0:
36,192,302763,1,0,0:0:0:0:
36,192,302926,1,0,0:0:0:0:
109,192,302926,1,0,0:0:0:0:
402,192,302926,1,0,0:0:0:0:
475,192,302926,1,0,0:0:0:0:
109,192,303252,1,0,0:0:0:0:
36,192,303252,1,0,0:0:0:0:
256,192,303252,1,0,0:0:0:0:
402,192,303252,1,0,0:0:0:0:
475,192,303252,1,0,0:0:0:0:
256,192,303415,1,0,0:0:0:0:
109,192,303415,1,0,0:0:0:0:
36,192,303415,1,0,0:0:0:0:
402,192,303415,1,0,0:0:0:0:
475,192,303415,1,0,0:0:0:0:
36,192,303578,1,0,0:0:0:0:
109,192,303578,1,0,0:0:0:0:
256,192,303578,1,0,0:0:0:0:
402,192,303578,1,0,0:0:0:0:
475,192,303578,1,0,0:0:0:0:
109,192,303905,1,0,0:0:0:0:
182,192,303905,1,0,0:0:0:0:
329,192,303905,1,0,0:0:0:0:
402,192,303905,1,0,0:0:0:0:
36,192,303905,1,0,0:0:0:0:
475,192,303905,1,0,0:0:0:0:
109,192,304068,1,0,0:0:0:0:
182,192,304068,1,0,0:0:0:0:
329,192,304068,1,0,0:0:0:0:
402,192,304068,1,0,0:0:0:0:
36,192,304068,1,0,0:0:0:0:
475,192,304068,1,0,0:0:0:0:
402,192,304231,1,0,0:0:0:0:
329,192,304231,1,0,0:0:0:0:
182,192,304231,1,0,0:0:0:0:
109,192,304231,1,0,0:0:0:0:
36,192,304231,1,0,0:0:0:0:
475,192,304231,1,0,0:0:0:0:
36,192,304557,1,0,0:0:0:0:
182,192,304557,1,0,0:0:0:0:
256,192,304557,1,0,0:0:0:0:
329,192,304557,1,0,0:0:0:0:
475,192,304557,1,0,0:0:0:0:
109,192,304883,1,0,0:0:0:0:
182,192,304883,1,0,0:0:0:0:
256,192,304883,1,0,0:0:0:0:
329,192,304883,1,0,0:0:0:0:
402,192,304883,1,0,0:0:0:0:
36,192,305209,1,0,0:0:0:0:
402,192,305209,1,0,0:0:0:0:
329,192,305290,1,0,0:0:0:0:
256,192,305372,1,0,0:0:0:0:
329,192,305453,1,0,0:0:0:0:
256,192,305535,1,0,0:0:0:0:
182,192,305617,1,0,0:0:0:0:
109,192,305698,1,0,0:0:0:0:
182,192,305780,1,0,0:0:0:0:
36,192,305861,1,0,0:0:0:0:
256,192,305861,1,0,0:0:0:0:
109,192,305943,1,0,0:0:0:0:
329,192,305943,1,0,0:0:0:0:
182,192,306024,1,0,0:0:0:0:
402,192,306024,1,0,0:0:0:0:
256,192,306106,1,0,0:0:0:0:
475,192,306106,1,0,0:0:0:0:
329,192,306187,1,0,0:0:0:0:
36,192,306187,1,0,0:0:0:0:
109,192,306228,1,0,0:0:0:0:
182,192,306269,1,0,0:0:0:0:
256,192,306309,1,0,0:0:0:0:
475,192,306350,1,0,0:0:0:0:
402,192,306391,1,0,0:0:0:0:
329,192,306432,1,0,0:0:0:0:
256,192,306472,1,0,0:0:0:0:
36,192,306513,1,0,0:0:0:0:
109,192,306513,1,0,0:0:0:0:
475,192,306513,128,0,307328:0:0:0:0:
182,192,306513,1,0,0:0:0:0:
256,192,306676,1,0,0:0:0:0:
109,192,306676,1,0,0:0:0:0:
329,192,306839,1,0,0:0:0:0:
182,192,306839,1,0,0:0:0:0:
256,192,307002,1,0,0:0:0:0:
402,192,307002,1,0,0:0:0:0:
36,192,307165,1,0,0:0:0:0:
182,192,307165,1,0,0:0:0:0:
36,192,307328,128,0,307492:0:0:0:0:
256,192,307328,1,0,0:0:0:0:
182,192,307492,128,0,307655:0:0:0:0:
329,192,307492,1,0,0:0:0:0:
475,192,307492,1,0,0:0:0:0:
475,192,307655,128,0,308633:0:0:0:0:
256,192,307655,1,0,0:0:0:0:
36,192,307818,1,0,0:0:0:0:
182,192,307818,1,0,0:0:0:0:
256,192,307981,1,0,0:0:0:0:
402,192,307981,1,0,0:0:0:0:
329,192,308144,1,0,0:0:0:0:
182,192,308144,1,0,0:0:0:0:
256,192,308307,1,0,0:0:0:0:
109,192,308307,1,0,0:0:0:0:
36,192,308470,1,0,0:0:0:0:
182,192,308470,1,0,0:0:0:0:
329,192,308633,1,0,0:0:0:0:
402,192,308633,1,0,0:0:0:0:
475,192,308796,128,0,308877:0:0:0:0:
36,192,308796,1,0,0:0:0:0:
182,192,308796,1,0,0:0:0:0:
475,192,308959,128,0,309040:0:0:0:0:
36,192,308959,1,0,0:0:0:0:
182,192,308959,1,0,0:0:0:0:
475,192,309122,128,0,309611:0:0:0:0:
36,192,309122,1,0,0:0:0:0:
182,192,309122,1,0,0:0:0:0:
109,192,309285,1,0,0:0:0:0:
256,192,309285,1,0,0:0:0:0:
182,192,309448,1,0,0:0:0:0:
329,192,309448,1,0,0:0:0:0:
36,192,309611,128,0,310100:0:0:0:0:
109,192,309611,1,0,0:0:0:0:
256,192,309611,1,0,0:0:0:0:
329,192,309774,1,0,0:0:0:0:
475,192,309774,1,0,0:0:0:0:
182,192,309937,1,0,0:0:0:0:
329,192,310100,128,0,310263:0:0:0:0:
256,192,310100,1,0,0:0:0:0:
475,192,310100,1,0,0:0:0:0:
182,192,310263,128,0,310426:0:0:0:0:
109,192,310263,1,0,0:0:0:0:
475,192,310426,128,0,310915:0:0:0:0:
36,192,310426,1,0,0:0:0:0:
256,192,310426,1,0,0:0:0:0:
402,192,310426,1,0,0:0:0:0:
36,192,310589,1,0,0:0:0:0:
329,192,310589,1,0,0:0:0:0:
182,192,310589,1,0,0:0:0:0:
36,192,310752,1,0,0:0:0:0:
256,192,310752,1,0,0:0:0:0:
109,192,310752,1,0,0:0:0:0:
329,192,310915,128,0,311405:0:0:0:0:
36,192,310915,1,0,0:0:0:0:
182,192,310915,1,0,0:0:0:0:
402,192,310915,1,0,0:0:0:0:
36,192,311078,1,0,0:0:0:0:
256,192,311078,1,0,0:0:0:0:
475,192,311078,1,0,0:0:0:0:
36,192,311241,1,0,0:0:0:0:
402,192,311241,1,0,0:0:0:0:
182,192,311405,128,0,311731:0:0:0:0:
36,192,311405,1,0,0:0:0:0:
256,192,311405,1,0,0:0:0:0:
475,192,311405,1,0,0:0:0:0:
36,192,311568,1,0,0:0:0:0:
329,192,311568,1,0,0:0:0:0:
36,192,311731,128,0,313035:0:0:0:0:
256,192,311731,1,0,0:0:0:0:
402,192,311731,1,0,0:0:0:0:
475,192,311731,1,0,0:0:0:0:
329,192,311894,1,0,0:0:0:0:
182,192,311894,1,0,0:0:0:0:
475,192,311894,1,0,0:0:0:0:
256,192,312057,1,0,0:0:0:0:
109,192,312057,1,0,0:0:0:0:
475,192,312057,1,0,0:0:0:0:
329,192,312220,1,0,0:0:0:0:
475,192,312220,1,0,0:0:0:0:
182,192,312220,1,0,0:0:0:0:
109,192,312383,1,0,0:0:0:0:
256,192,312383,1,0,0:0:0:0:
475,192,312383,1,0,0:0:0:0:
329,192,312546,1,0,0:0:0:0:
475,192,312546,1,0,0:0:0:0:
182,192,312709,128,0,313035:0:0:0:0:
329,192,312709,128,0,313035:0:0:0:0:
475,192,312709,1,0,0:0:0:0:
475,192,313035,128,0,313198:0:0:0:0:
109,192,313035,1,0,0:0:0:0:
256,192,313035,1,0,0:0:0:0:
402,192,313198,128,0,313361:0:0:0:0:
329,192,313198,1,0,0:0:0:0:
182,192,313198,1,0,0:0:0:0:
329,192,313361,128,0,313524:0:0:0:0:
109,192,313361,1,0,0:0:0:0:
256,192,313361,1,0,0:0:0:0:
475,192,313524,128,0,313850:0:0:0:0:
36,192,313524,1,0,0:0:0:0:
182,192,313524,1,0,0:0:0:0:
256,192,313687,1,0,0:0:0:0:
402,192,313687,1,0,0:0:0:0:
329,192,313850,128,0,314013:0:0:0:0:
109,192,313850,1,0,0:0:0:0:
182,192,314013,128,0,314176:0:0:0:0:
256,192,314013,1,0,0:0:0:0:
475,192,314013,1,0,0:0:0:0:
36,192,314176,128,0,314339:0:0:0:0:
402,192,314176,1,0,0:0:0:0:
475,192,314339,128,0,314828:0:0:0:0:
182,192,314339,1,0,0:0:0:0:
329,192,314339,1,0,0:0:0:0:
182,192,314502,1,0,0:0:0:0:
329,192,314502,1,0,0:0:0:0:
182,192,314665,128,0,314828:0:0:0:0:
329,192,314665,128,0,314828:0:0:0:0:
36,192,314828,128,0,315318:0:0:0:0:
256,192,314828,1,0,0:0:0:0:
329,192,314910,1,0,0:0:0:0:
182,192,314991,1,0,0:0:0:0:
475,192,314991,1,0,0:0:0:0:
182,192,315155,1,0,0:0:0:0:
475,192,315155,1,0,0:0:0:0:
329,192,315318,128,0,315644:0:0:0:0:
182,192,315318,128,0,315481:0:0:0:0:
475,192,315318,128,0,315481:0:0:0:0:
36,192,315481,1,0,0:0:0:0:
109,192,315562,1,0,0:0:0:0:
182,192,315644,128,0,316296:0:0:0:0:
256,192,315644,1,0,0:0:0:0:
402,192,315644,1,0,0:0:0:0:
475,192,315644,1,0,0:0:0:0:
256,192,315807,1,0,0:0:0:0:
402,192,315807,1,0,0:0:0:0:
475,192,315807,1,0,0:0:0:0:
36,192,315970,1,0,0:0:0:0:
329,192,315970,1,0,0:0:0:0:
256,192,316133,1,0,0:0:0:0:
109,192,316133,1,0,0:0:0:0:
475,192,316133,1,0,0:0:0:0:
256,192,316296,128,0,316405:0:0:0:0:
36,192,316296,128,0,316405:0:0:0:0:
109,192,316405,128,0,316513:0:0:0:0:
329,192,316405,128,0,316513:0:0:0:0:
182,192,316513,128,0,316622:0:0:0:0:
402,192,316513,128,0,316622:0:0:0:0:
109,192,316622,128,0,316731:0:0:0:0:
329,192,316622,128,0,316731:0:0:0:0:
182,192,316731,128,0,316839:0:0:0:0:
402,192,316731,128,0,316839:0:0:0:0:
256,192,316839,128,0,316948:0:0:0:0:
475,192,316839,128,0,316948:0:0:0:0:
109,192,316948,128,0,317763:0:0:0:0:
36,192,316948,128,0,317763:0:0:0:0:
182,192,316948,1,0,0:0:0:0:
329,192,316948,1,0,0:0:0:0:
402,192,316948,1,0,0:0:0:0:
256,192,317111,1,0,0:0:0:0:
402,192,317111,1,0,0:0:0:0:
329,192,317274,1,0,0:0:0:0:
475,192,317274,1,0,0:0:0:0:
182,192,317437,1,0,0:0:0:0:
329,192,317437,1,0,0:0:0:0:
256,192,317600,1,0,0:0:0:0:
402,192,317600,1,0,0:0:0:0:
402,192,317763,128,0,317926:0:0:0:0:
475,192,317763,128,0,317926:0:0:0:0:
329,192,317926,128,0,318089:0:0:0:0:
182,192,317926,128,0,318089:0:0:0:0:
256,192,317926,1,0,0:0:0:0:
36,192,318089,128,0,319068:0:0:0:0:
109,192,318089,128,0,319068:0:0:0:0:
329,192,318252,1,0,0:0:0:0:
475,192,318252,1,0,0:0:0:0:
256,192,318415,1,0,0:0:0:0:
402,192,318415,1,0,0:0:0:0:
329,192,318578,1,0,0:0:0:0:
182,192,318578,1,0,0:0:0:0:
475,192,318741,1,0,0:0:0:0:
329,192,318741,1,0,0:0:0:0:
402,192,318905,1,0,0:0:0:0:
256,192,318905,1,0,0:0:0:0:
402,192,319068,128,0,319231:0:0:0:0:
475,192,319068,128,0,319231:0:0:0:0:
329,192,319231,128,0,319394:0:0:0:0:
182,192,319231,128,0,319394:0:0:0:0:
256,192,319231,1,0,0:0:0:0:
109,192,319394,128,0,319720:0:0:0:0:
36,192,319394,128,0,319720:0:0:0:0:
182,192,319557,1,0,0:0:0:0:
256,192,319557,1,0,0:0:0:0:
329,192,319557,1,0,0:0:0:0:
402,192,319720,128,0,319883:0:0:0:0:
475,192,319720,128,0,319883:0:0:0:0:
182,192,319883,128,0,320046:0:0:0:0:
329,192,319883,128,0,320046:0:0:0:0:
256,192,319883,1,0,0:0:0:0:
109,192,320046,128,0,320290:0:0:0:0:
36,192,320046,128,0,320290:0:0:0:0:
182,192,320209,1,0,0:0:0:0:
329,192,320209,1,0,0:0:0:0:
256,192,320209,1,0,0:0:0:0:
182,192,320372,128,0,320453:0:0:0:0:
329,192,320372,128,0,320453:0:0:0:0:
402,192,320535,128,0,320861:0:0:0:0:
475,192,320535,128,0,320861:0:0:0:0:
36,192,320535,1,0,0:0:0:0:
109,192,320535,1,0,0:0:0:0:
256,192,320535,1,0,0:0:0:0:
109,192,320861,128,0,321350:0:0:0:0:
36,192,320861,128,0,321350:0:0:0:0:
256,192,320861,1,0,0:0:0:0:
329,192,320861,1,0,0:0:0:0:
256,192,321024,1,0,0:0:0:0:
402,192,321024,1,0,0:0:0:0:
256,192,321187,1,0,0:0:0:0:
475,192,321187,1,0,0:0:0:0:
402,192,321350,128,0,321839:0:0:0:0:
475,192,321350,128,0,321839:0:0:0:0:
256,192,321350,1,0,0:0:0:0:
182,192,321350,1,0,0:0:0:0:
256,192,321513,1,0,0:0:0:0:
109,192,321513,1,0,0:0:0:0:
256,192,321676,1,0,0:0:0:0:
36,192,321676,1,0,0:0:0:0:
36,192,321839,128,0,322002:0:0:0:0:
109,192,321839,128,0,322002:0:0:0:0:
256,192,321839,1,0,0:0:0:0:
402,192,322002,128,0,322165:0:0:0:0:
475,192,322002,128,0,322165:0:0:0:0:
256,192,322002,1,0,0:0:0:0:
182,192,322165,128,0,323144:0:0:0:0:
329,192,322165,128,0,323144:0:0:0:0:
256,192,322165,1,0,0:0:0:0:
109,192,322165,1,0,0:0:0:0:
36,192,322165,1,0,0:0:0:0:
109,192,322328,1,0,0:0:0:0:
402,192,322328,1,0,0:0:0:0:
475,192,322491,1,0,0:0:0:0:
402,192,322491,1,0,0:0:0:0:
36,192,322655,1,0,0:0:0:0:
109,192,322655,1,0,0:0:0:0:
36,192,322818,1,0,0:0:0:0:
475,192,322818,1,0,0:0:0:0:
256,192,322981,1,0,0:0:0:0:
109,192,323144,1,0,0:0:0:0:
475,192,323144,1,0,0:0:0:0:
36,192,323144,1,0,0:0:0:0:
402,192,323144,1,0,0:0:0:0:
256,192,323307,1,0,0:0:0:0:
36,192,323470,128,0,323633:0:0:0:0:
475,192,323470,128,0,323633:0:0:0:0:
329,192,323470,1,0,0:0:0:0:
182,192,323470,1,0,0:0:0:0:
329,192,323633,128,0,323796:0:0:0:0:
182,192,323633,128,0,323796:0:0:0:0:
256,192,323633,1,0,0:0:0:0:
36,192,323796,128,0,323959:0:0:0:0:
475,192,323796,128,0,323959:0:0:0:0:
109,192,323796,1,0,0:0:0:0:
402,192,323796,1,0,0:0:0:0:
182,192,323959,128,0,324285:0:0:0:0:
329,192,323959,128,0,324285:0:0:0:0:
256,192,323959,1,0,0:0:0:0:
109,192,324285,128,0,324448:0:0:0:0:
402,192,324285,128,0,324448:0:0:0:0:
36,192,324448,128,0,324774:0:0:0:0:
475,192,324448,128,0,324774:0:0:0:0:
182,192,324448,1,0,0:0:0:0:
329,192,324448,1,0,0:0:0:0:
256,192,324611,1,0,0:0:0:0:
109,192,324774,128,0,324856:0:0:0:0:
182,192,324774,128,0,324856:0:0:0:0:
329,192,324774,128,0,324856:0:0:0:0:
402,192,324774,128,0,324856:0:0:0:0:
182,192,324937,128,0,325019:0:0:0:0:
109,192,324937,128,0,325019:0:0:0:0:
329,192,324937,128,0,325019:0:0:0:0:
402,192,324937,128,0,325019:0:0:0:0:
182,192,325100,128,0,325182:0:0:0:0:
36,192,325100,128,0,325182:0:0:0:0:
109,192,325100,1,0,0:0:0:0:
329,192,325100,128,0,325182:0:0:0:0:
402,192,325100,1,0,0:0:0:0:
475,192,325100,128,0,325182:0:0:0:0:
329,192,325263,128,0,325345:0:0:0:0:
475,192,325263,128,0,325345:0:0:0:0:
182,192,325263,128,0,325345:0:0:0:0:
36,192,325263,128,0,325345:0:0:0:0:
109,192,325426,128,0,325508:0:0:0:0:
36,192,325426,128,0,325508:0:0:0:0:
475,192,325426,128,0,325508:0:0:0:0:
402,192,325426,128,0,325508:0:0:0:0:
109,192,325589,128,0,325671:0:0:0:0:
36,192,325589,128,0,325671:0:0:0:0:
402,192,325589,128,0,325671:0:0:0:0:
475,192,325589,128,0,325671:0:0:0:0:
182,192,325752,128,0,325834:0:0:0:0:
109,192,325752,128,0,325834:0:0:0:0:
329,192,325752,128,0,325834:0:0:0:0:
402,192,325752,128,0,325834:0:0:0:0:
36,192,325752,1,0,0:0:0:0:
475,192,325752,1,0,0:0:0:0:
329,192,325915,128,0,325997:0:0:0:0:
475,192,325915,128,0,325997:0:0:0:0:
182,192,325915,128,0,325997:0:0:0:0:
36,192,325915,128,0,325997:0:0:0:0:
36,192,326078,1,0,0:0:0:0:
109,192,326078,1,0,0:0:0:0:
182,192,326078,1,0,0:0:0:0:
329,192,326078,1,0,0:0:0:0:
402,192,326078,1,0,0:0:0:0:
475,192,326078,1,0,0:0:0:0:
475,192,326241,1,0,0:0:0:0:
402,192,326241,1,0,0:0:0:0:
329,192,326241,1,0,0:0:0:0:
182,192,326241,1,0,0:0:0:0:
109,192,326241,1,0,0:0:0:0:
36,192,326241,1,0,0:0:0:0:
109,192,326405,1,0,0:0:0:0:
36,192,326405,1,0,0:0:0:0:
182,192,326405,1,0,0:0:0:0:
329,192,326405,1,0,0:0:0:0:
475,192,326405,1,0,0:0:0:0:
402,192,326405,1,0,0:0:0:0:
475,192,326894,1,0,0:0:0:0:
329,192,327057,1,0,0:0:0:0:
182,192,327220,1,0,0:0:0:0:
36,192,327383,128,0,328687:0:0:0:0:
329,192,327383,1,0,0:0:0:0:
475,192,327383,1,0,0:0:0:0:
256,192,327546,1,0,0:0:0:0:
182,192,327709,1,0,0:0:0:0:
182,192,328198,1,0,0:0:0:0:
329,192,328361,1,0,0:0:0:0:
475,192,328524,1,0,0:0:0:0:
182,192,328687,128,0,329991:0:0:0:0:
329,192,328687,1,0,0:0:0:0:
475,192,328687,1,0,0:0:0:0:
402,192,328850,1,0,0:0:0:0:
475,192,329013,1,0,0:0:0:0:
36,192,329339,1,0,0:0:0:0:
329,192,329339,1,0,0:0:0:0:
475,192,329339,1,0,0:0:0:0:
329,192,329502,1,0,0:0:0:0:
109,192,329665,1,0,0:0:0:0:
329,192,329991,128,0,331296:0:0:0:0:
36,192,329991,1,0,0:0:0:0:
475,192,329991,1,0,0:0:0:0:
109,192,330155,1,0,0:0:0:0:
182,192,330318,1,0,0:0:0:0:
182,192,330644,1,0,0:0:0:0:
36,192,330970,1,0,0:0:0:0:
475,192,331296,128,0,332600:0:0:0:0:
36,192,331296,1,0,0:0:0:0:
182,192,331296,1,0,0:0:0:0:
256,192,331459,1,0,0:0:0:0:
329,192,331622,1,0,0:0:0:0:
36,192,331785,1,0,0:0:0:0:
182,192,331785,1,0,0:0:0:0:
36,192,332111,1,0,0:0:0:0:
182,192,332274,1,0,0:0:0:0:
329,192,332437,1,0,0:0:0:0:
36,192,332600,128,0,333905:0:0:0:0:
182,192,332600,1,0,0:0:0:0:
329,192,332600,1,0,0:0:0:0:
402,192,332763,1,0,0:0:0:0:
475,192,332926,1,0,0:0:0:0:
182,192,333089,1,0,0:0:0:0:
256,192,333171,1,0,0:0:0:0:
329,192,333252,1,0,0:0:0:0:
475,192,333415,1,0,0:0:0:0:
329,192,333578,1,0,0:0:0:0:
182,192,333741,1,0,0:0:0:0:
475,192,333905,128,0,335209:0:0:0:0:
329,192,333905,1,0,0:0:0:0:
182,192,333905,1,0,0:0:0:0:
256,192,334068,1,0,0:0:0:0:
36,192,334231,1,0,0:0:0:0:
329,192,334231,1,0,0:0:0:0:
182,192,334394,1,0,0:0:0:0:
182,192,334720,1,0,0:0:0:0:
36,192,334883,1,0,0:0:0:0:
329,192,334883,1,0,0:0:0:0:
329,192,335209,128,0,335698:0:0:0:0:
182,192,335209,128,0,335698:0:0:0:0:
36,192,335209,128,0,335698:0:0:0:0:
402,192,335698,1,0,0:0:0:0:
475,192,335698,1,0,0:0:0:0:
109,192,335780,1,0,0:0:0:0:
36,192,335780,1,0,0:0:0:0:
182,192,335861,128,0,336513:0:0:0:0:
329,192,335861,128,0,336513:0:0:0:0:
475,192,335861,128,0,336513:0:0:0:0:
36,192,336513,1,0,0:0:0:0:
109,192,336513,1,0,0:0:0:0:
256,192,336513,1,0,0:0:0:0:
402,192,336513,1,0,0:0:0:0:
402,192,336676,1,0,0:0:0:0:
475,192,336676,1,0,0:0:0:0:
256,192,336676,1,0,0:0:0:0:
109,192,336676,1,0,0:0:0:0:
36,192,336839,1,0,0:0:0:0:
182,192,336839,1,0,0:0:0:0:
256,192,336839,1,0,0:0:0:0:
329,192,336839,1,0,0:0:0:0:
475,192,336839,1,0,0:0:0:0:
256,192,337328,128,0,337491:0:0:0:0:
402,192,337491,1,0,0:0:0:0:
109,192,337491,1,0,0:0:0:0:
