osu file format v14

[General]
AudioFilename: audio.mp3
AudioLeadIn: 0
PreviewTime: 60170
Countdown: 0
SampleSet: Soft
StackLeniency: 0.4
Mode: 0
LetterboxInBreaks: 0
WidescreenStoryboard: 1

[Editor]
DistanceSpacing: 1
BeatDivisor: 4
GridSize: 32
TimelineZoom: 2.2

[Metadata]
Title:Tinkling Smile (TV Size)
TitleUnicode:Tinkling Smile (TV Size)
Artist:Ogura Yui
ArtistUnicode:小倉唯
Creator:climbx3145
Version:Normal
Source:ヤマノススメ セカンドシーズン
Tags:ティンクリンスマイル Yama no Susume Second Encouragement of Climb Season 2 anime japanese Ending ED pop jpop j-pop
BeatmapID:2495849
BeatmapSetID:1196183

[Difficulty]
HPDrainRate:4
CircleSize:3.5
OverallDifficulty:4
ApproachRate:5
SliderMultiplier:1
SliderTickRate:1

[Events]
//Background and Video events
0,0,"BG.jpg",0,0
Video,890,"Video.mp4"
//Break Periods
//Storyboard Layer 0 (Background)
//Storyboard Layer 1 (Fail)
//Storyboard Layer 2 (Pass)
//Storyboard Layer 3 (Foreground)
//Storyboard Layer 4 (Overlay)
//Storyboard Sound Samples

[TimingPoints]
1542,342.857142857143,4,2,1,100,1,0
1542,-100,4,2,1,60,0,0
9770,-100,4,2,1,70,0,0
19199,-100,4,2,1,75,0,0
27599,-100,4,2,1,60,0,0
38399,-100,4,2,1,65,0,0
49542,-100,4,2,1,60,0,0
52284,-100,4,2,1,50,0,0
54342,-100,4,2,1,60,0,0
55027,-100,4,2,1,70,0,0
60170,-100,4,2,2,70,0,0
60513,-100,4,2,1,80,0,1
76970,-100,4,2,1,70,0,0
79027,-100,4,2,1,75,0,0
79713,-100,4,2,1,80,0,1
81942,-100,4,2,1,70,0,1
85199,-100,4,2,1,40,0,0
86913,-100,4,2,1,45,0,0
87084,-100,4,2,1,50,0,0
87256,-100,4,2,1,55,0,0
87427,-100,4,2,1,60,0,0
87599,-100,4,2,1,65,0,0
87770,-100,4,2,1,70,0,0
88284,-100,4,2,1,60,0,0
88627,-100,4,2,1,5,0,0

[Colours]
Combo1 : 128,128,192
Combo2 : 107,215,0
Combo3 : 230,230,0
Combo4 : 0,131,193
Combo5 : 255,156,108
SliderBorder : 215,215,215
SliderTrackOverride : 0,0,0

[HitObjects]
106,58,1542,6,0,P|93:105|107:153,1,100,2|2,0:0|2:0,0:0:0:0:
150,243,2227,2,0,L|143:292,2,50,2|2|2,0:0|0:0|0:0,0:0:0:0:
194,219,2742,2,0,L|293:230,1,100,2|2,0:0|0:0,0:0:0:0:
343,237,3256,1,2,0:0:0:0:
425,180,3599,1,2,0:0:0:0:
373,44,4113,1,2,0:0:0:0:
373,44,4284,6,0,L|273:32,1,100,2|2,0:0|0:0,0:0:0:0:
173,25,4970,1,2,0:0:0:0:
97,90,5313,1,2,0:0:0:0:
97,90,5484,2,0,B|126:142|72:185|99:236,1,150,2|0,0:0|0:0,0:0:0:0:
193,201,6342,2,0,L|292:189,1,100,2|2,0:0|0:0,0:0:0:0:
385,155,7027,6,0,B|414:207|360:250|387:301,1,150,10|2,0:1|0:0,0:0:0:0:
405,347,7713,1,2,0:0:0:0:
308,356,8056,1,2,0:0:0:0:
308,356,8227,2,0,L|158:347,1,150,10|0,0:1|0:0,0:0:0:0:
70,225,9256,6,0,L|73:176,1,50,6|6,0:3|0:3,0:0:0:0:
79,125,9599,1,2,0:0:0:0:
160,66,9942,2,0,L|209:69,1,50,10|10,0:1|0:1,0:0:0:0:
259,70,10284,1,6,0:0:0:0:
348,126,10627,1,10,0:1:0:0:
348,126,10799,2,0,L|345:175,1,50,6|2,0:0|0:0,0:0:0:0:
345,229,11142,1,10,0:1:0:0:
345,229,11313,1,8,0:1:0:0:
197,364,11999,6,0,L|148:367,1,50,10|8,0:3|0:0,0:0:0:0:
100,346,12342,2,0,P|115:300|104:251,1,100,10|2,0:1|0:0,0:0:0:0:
88,204,12856,1,10,0:1:0:0:
36,118,13199,2,0,P|82:102|131:113,1,100,10|10,0:1|0:0,0:0:0:0:
213,168,13884,6,0,L|207:219,2,50,12|2|8,0:1|0:0|0:0,0:0:0:0:
298,115,14570,2,0,L|347:109,1,50,10|10,0:1|0:1,0:0:0:0:
397,109,14913,1,10,0:0:0:0:
482,57,15256,2,0,P|497:104|486:153,1,100,10|10,0:1|0:0,0:0:0:0:
453,190,15770,2,0,L|459:248,1,50,2|10,0:0|0:1,0:0:0:0:
479,285,16113,2,0,L|473:335,1,50,10|8,0:1|0:0,0:0:0:0:
373,334,16627,6,0,L|367:385,2,50,12|2|8,0:1|0:0|0:0,0:0:0:0:
319,248,17313,2,0,L|270:254,1,50,10|10,0:1|0:1,0:0:0:0:
221,264,17656,1,10,0:0:0:0:
127,228,17999,2,0,L|136:128,1,100,10|10,0:1|0:1,0:0:0:0:
112,84,18513,2,0,P|64:72|17:88,1,100,10|10,0:0|0:1,0:0:0:0:
2,187,19199,6,0,L|12:287,1,100,14|8,0:1|0:1,0:0:0:0:
20,336,19713,1,10,0:0:0:0:
121,319,20056,1,10,0:1:0:0:
121,319,20227,2,0,L|115:269,1,50,10|8,0:1|0:0,0:0:0:0:
148,231,20570,2,0,L|247:221,1,100,10|10,0:1|0:1,0:0:0:0:
346,202,21256,2,0,P|358:153|342:106,1,100,10|10,0:1|0:1,0:0:0:0:
287,23,21942,6,0,L|187:13,1,100,14|10,0:1|0:1,0:0:0:0:
137,12,22456,1,10,0:0:0:0:
74,90,22799,1,10,0:1:0:0:
74,90,22970,2,0,L|79:139,1,50,10|8,0:1|0:0,0:0:0:0:
108,180,23313,2,0,L|207:170,1,100,10|10,0:1|0:1,0:0:0:0:
307,160,23999,2,0,P|322:206|311:255,1,100,10|10,0:1|0:1,0:0:0:0:
253,336,24684,6,0,L|153:345,1,100,14|8,0:1|0:1,0:0:0:0:
103,352,25199,1,8,0:0:0:0:
46,269,25542,2,0,L|40:219,1,50,10|10,0:1|0:1,0:0:0:0:
54,171,25884,2,0,L|48:121,1,50,10|10,0:0|0:0,0:0:0:0:
71,79,26227,1,10,0:1:0:0:
71,79,26399,1,10,0:1:0:0:
165,110,26742,2,0,L|170:159,1,50,10|10,0:1|0:1,0:0:0:0:
165,259,27256,1,10,0:1:0:0:
262,280,27599,6,0,P|332:301|403:280,1,150,14|2,0:1|0:0,0:0:0:0:
445,253,28284,1,10,0:1:0:0:
472,159,28627,1,10,0:0:0:0:
472,159,28799,2,0,L|456:60,1,100,10|8,0:1|0:1,0:0:0:0:
369,22,29484,1,2,0:0:0:0:
369,21,29656,2,0,P|320:9|271:16,1,100,10|10,0:1|0:0,0:0:0:0:
239,55,30170,6,0,P|190:66|141:59,1,100,10|8,0:1|0:1,0:0:0:0:
94,42,30684,1,10,0:0:0:0:
21,110,31027,2,0,L|36:208,1,100,10|10,0:1|0:0,0:0:0:0:
65,250,31542,2,0,P|114:242|162:254,1,100,10|8,0:1|0:1,0:0:0:0:
288,335,32399,2,0,L|282:384,2,50,10|10|10,0:1|0:1|0:0,0:0:0:0:
320,296,32913,6,0,P|369:303|417:291,1,100,14|10,0:1|0:1,0:0:0:0:
456,260,33427,1,10,0:0:0:0:
392,123,33942,2,0,L|397:73,1,50,10|10,0:1|0:0,0:0:0:0:
366,33,34284,2,0,P|317:21|268:28,1,100,10|8,0:1|0:1,0:0:0:0:
250,75,34799,2,0,P|201:86|152:79,1,100,10|10,0:0|0:1,0:0:0:0:
58,64,35484,1,10,0:0:0:0:
58,64,35656,6,0,L|73:162,1,100,10|10,0:1|0:1,0:0:0:0:
86,211,36170,1,10,0:0:0:0:
139,295,36513,2,0,P|163:288|187:289,1,50,10|8,0:1|0:1,0:0:0:0:
272,342,37027,2,0,P|321:349|369:337,1,100,10|10,0:1|0:1,0:0:0:0:
435,262,37713,1,10,0:1:0:0:
435,262,37884,2,0,L|450:163,1,100,10|10,0:3|0:0,0:0:0:0:
423,120,38399,6,0,P|373:127|325:115,1,100,6|10,0:0|0:1,0:0:0:0:
283,88,38913,1,10,0:0:0:0:
187,117,39256,2,0,L|179:166,2,50,10|10|10,0:1|0:1|0:0,0:0:0:0:
150,82,39770,1,10,0:1:0:0:
65,135,40113,2,0,L|80:233,1,100,10|0,0:1|0:0,0:0:0:0:
171,277,40799,2,0,L|162:336,1,50,10|10,0:1|0:0,0:0:0:0:
205,353,41142,6,0,P|253:341|304:353,1,100,10|10,0:1|0:1,0:0:0:0:
346,374,41656,1,10,0:0:0:0:
446,372,41999,1,2,0:0:0:0:
477,281,42342,1,10,0:0:0:0:
477,281,42513,2,0,L|493:183,2,100,10|8|8,0:1|0:1|0:1,0:0:0:0:
377,268,43542,2,0,P|352:263|327:263,1,50,10|10,0:1|0:0,0:0:0:0:
277,259,43884,6,0,L|261:159,1,100,10|10,0:1|0:1,0:0:0:0:
257,109,44399,1,10,0:0:0:0:
382,26,44913,2,0,P|414:30|439:28,1,50,10|10,0:1|0:0,0:0:0:0:
474,55,45256,2,0,L|490:155,1,100,14|10,0:1|0:1,0:0:0:0:
463,250,45942,1,2,0:0:0:0:
372,208,46284,1,10,0:1:0:0:
305,282,46627,6,0,P|258:264|208:268,1,100,10|10,0:1|0:1,0:0:0:0:
162,288,47142,2,0,L|146:188,1,100,10|8,0:0|0:1,0:0:0:0:
174,41,47999,1,10,0:1:0:0:
269,70,48342,1,10,0:1:0:0:
286,168,48684,1,10,0:1:0:0:
241,257,49027,2,0,L|250:311,1,50,8|8,0:1|0:1,0:0:0:0:
327,369,49542,6,0,P|376:373|423:356,1,100,10|10,0:1|0:1,0:0:0:0:
502,295,50227,1,10,0:1:0:0:
423,166,50742,2,0,L|427:66,1,100,10|10,0:1|0:1,0:0:0:0:
329,46,51427,2,0,P|279:50|232:33,1,100,10|2,0:1|0:0,0:0:0:0:
183,43,51942,2,0,L|186:92,1,50,10|8,0:1|0:1,0:0:0:0:
148,127,52284,6,0,P|87:157|119:216,1,150,14|8,0:1|0:1,0:0:0:0:
166,230,52970,1,10,0:0:0:0:
131,326,53313,1,2,0:0:0:0:
131,326,53484,2,0,B|186:344|227:311|227:311|266:275|328:306,1,200,8|8,0:0|0:1,0:0:0:0:
415,330,54513,2,0,L|412:388,2,50,2|10|2,0:0|0:0|0:0,0:0:0:0:
451,295,55027,6,0,L|436:145,1,150,14|2,0:1|0:0,0:0:0:0:
393,120,55713,2,0,L|395:70,2,50,10|10|10,0:1|0:1|0:0,0:0:0:0:
349,144,56227,2,0,P|300:132|251:139,1,100,14|8,0:1|0:1,0:0:0:0:
204,156,56742,1,10,0:0:0:0:
125,218,57084,1,10,0:1:0:0:
122,318,57427,1,10,0:0:0:0:
221,343,57770,6,0,P|270:346|317:329,1,100,14|10,0:0|0:1,0:0:0:0:
350,292,58284,1,10,0:1:0:0:
350,292,58456,2,0,L|341:242,1,50,8|10,0:1|0:1,0:0:0:0:
311,209,58799,1,8,0:1:0:0:
311,209,58970,2,0,P|316:150|329:95,2,100,14|12|8,0:1|0:1|0:1,0:0:0:0:
173,268,60170,1,4,0:1:0:0:
78,236,60513,6,0,L|63:137,1,100,10|10,0:1|0:0,0:0:0:0:
138,70,61199,2,0,L|146:17,2,50,10|10|10,0:1|0:1|0:0,0:0:0:0:
176,102,61713,2,0,P|222:84|271:89,1,100,14|10,0:1|0:1,0:0:0:0:
316,112,62227,1,10,0:0:0:0:
284,207,62570,2,0,L|298:305,1,100,10|8,0:1|0:0,0:0:0:0:
305,359,63084,1,2,0:0:0:0:
305,359,63256,5,14,0:1:0:0:
207,338,63599,1,10,0:0:0:0:
106,339,63942,2,0,L|98:286,1,50,10|8,0:1|0:1,0:0:0:0:
124,248,64284,1,10,0:0:0:0:
124,248,64456,2,0,L|107:149,1,100,14|8,0:1|0:1,0:0:0:0:
98,100,64970,1,8,0:0:0:0:
197,109,65313,2,0,P|246:113|292:96,1,100,10|10,0:1|0:0,0:0:0:0:
388,128,65999,6,0,P|378:176|392:223,2,100,14|8|8,0:1|0:0|0:1,0:0:0:0:
388,77,66856,2,0,P|358:76|330:73,1,50,10|10,0:1|0:0,0:0:0:0:
292,95,67199,2,0,L|281:194,1,100,14|8,0:1|0:1,0:0:0:0:
262,241,67713,1,8,0:0:0:0:
333,311,68056,2,0,P|379:293|428:298,1,100,10|10,0:1|0:0,0:0:0:0:
497,225,68742,6,0,L|507:125,1,100,10|8,0:1|0:0,0:0:0:0:
483,88,69256,1,2,0:0:0:0:
483,88,69427,2,0,P|433:92|387:75,1,100,10|10,0:1|0:0,0:0:0:0:
340,57,69942,5,14,0:1:0:0:
254,108,70284,1,14,0:1:0:0:
255,208,70627,1,14,0:1:0:0:
336,267,70970,2,0,L|325:366,1,100,14|10,0:1|0:1,0:0:0:0:
277,382,71484,6,0,P|227:386|181:369,1,100,14|10,0:1|0:0,0:0:0:0:
96,315,72170,2,0,L|46:310,2,50,10|10|10,0:1|0:1|0:0,0:0:0:0:
134,283,72684,2,0,L|123:183,1,100,14|10,0:1|0:1,0:0:0:0:
118,133,73198,1,10,0:0:0:0:
214,160,73542,2,0,P|263:164|309:147,1,100,10|8,0:1|0:0,0:0:0:0:
358,128,74055,1,2,0:0:0:0:
358,128,74227,5,14,0:1:0:0:
422,204,74570,1,10,0:0:0:0:
379,294,74913,2,0,P|354:296|331:306,1,50,10|8,0:1|0:1,0:0:0:0:
296,342,75255,1,10,0:0:0:0:
296,342,75427,2,0,P|249:359|200:354,1,100,14|8,0:1|0:1,0:0:0:0:
150,349,75941,1,8,0:0:0:0:
87,271,76284,2,0,L|76:171,1,100,10|10,0:1|0:0,0:0:0:0:
147,100,76970,6,0,B|205:66|230:124|292:95,1,150,10|10,0:1|0:1,0:0:0:0:
335,70,77656,1,10,0:0:0:0:
417,135,77999,1,2,0:0:0:0:
417,135,78170,2,0,L|427:234,1,100,2|8,0:0|0:0,0:0:0:0:
407,280,78684,2,0,P|383:289|358:289,1,50,0|8,0:0|0:1,0:0:0:0:
287,218,79199,2,0,L|281:168,1,50,2|10,0:0|0:3,0:0:0:0:
262,127,79542,1,4,0:3:0:0:
262,127,79713,6,0,P|203:105|144:161,1,150,4|6,0:1|0:0,0:0:0:0:
127,260,80570,1,10,0:1:0:0:
127,260,80742,2,0,L|122:310,1,50,10|2,0:0|0:0,0:0:0:0:
120,363,81084,1,10,0:1:0:0:
120,363,81256,1,8,0:1:0:0:
319,374,81942,2,0,P|348:377|377:374,1,50,10|8,0:1|0:0,0:0:0:0:
453,322,82456,6,0,L|458:272,1,50,14|10,0:1|0:1,0:0:0:0:
422,238,82799,2,0,L|417:188,1,50,10|10,0:1|0:1,0:0:0:0:
406,89,83313,1,10,0:1:0:0:
320,36,83656,1,10,0:1:0:0:
225,67,83999,2,0,L|220:117,2,50,10|10|2,0:1|0:0|0:0,0:0:0:0:
185,36,84513,2,0,P|139:19|90:25,1,100,10|10,0:1|0:1,0:0:0:0:
33,108,85199,6,0,L|23:214,1,100,14|2,0:1|0:0,0:0:0:0:
99,336,86056,2,0,P|145:354|194:348,1,100,2|2,0:0|0:0,0:0:0:0:
235,319,86570,2,0,L|225:213,1,100,2|10,0:0|0:1,0:0:0:0:
187,188,87084,2,0,L|197:82,1,100,10|10,0:1|0:1,0:0:0:0:
268,18,87770,1,10,0:1:0:0:
356,74,88113,5,2,0:0:0:0:
356,74,88284,2,0,B|375:165|429:200|429:200|375:235|357:328,1,300,2|0,0:0|0:0,0:0:0:0:
