osu file format v14

[General]
AudioFilename: audio.mp3
AudioLeadIn: 0
PreviewTime: 60170
Countdown: 0
SampleSet: Soft
StackLeniency: 0.4
Mode: 0
LetterboxInBreaks: 0
WidescreenStoryboard: 1

[Editor]
DistanceSpacing: 1.2
BeatDivisor: 4
GridSize: 32
TimelineZoom: 2.2

[Metadata]
Title:Tinkling Smile (TV Size)
TitleUnicode:Tinkling Smile (TV Size)
Artist:Ogura Yui
ArtistUnicode:小倉唯
Creator:climbx3145
Version:Hard
Source:ヤマノススメ セカンドシーズン
Tags:ティンクリンスマイル Yama no Susume Second Encouragement of Climb Season 2 anime japanese Ending ED pop jpop j-pop
BeatmapID:2498473
BeatmapSetID:1196183

[Difficulty]
HPDrainRate:4.5
CircleSize:3.5
OverallDifficulty:6
ApproachRate:7.2
SliderMultiplier:1.5
SliderTickRate:1

[Events]
//Background and Video events
0,0,"BG.jpg",0,0
Video,890,"Video.mp4"
//Break Periods
//Storyboard Layer 0 (Background)
//Storyboard Layer 1 (Fail)
//Storyboard Layer 2 (Pass)
//Storyboard Layer 3 (Foreground)
//Storyboard Layer 4 (Overlay)
//Storyboard Sound Samples

[TimingPoints]
1542,342.857142857143,4,2,1,100,1,0
1542,-125,4,2,1,60,0,0
9256,-111.111111111111,4,2,1,60,0,0
9770,-100,4,2,1,70,0,0
19199,-100,4,2,1,75,0,0
27599,-111.111111111111,4,2,1,60,0,0
38399,-100,4,2,1,65,0,0
49542,-111.111111111111,4,2,1,60,0,0
52284,-111.111111111111,4,2,1,50,0,0
54342,-111.111111111111,4,2,1,60,0,0
55027,-100,4,2,1,70,0,0
60170,-90.9090909090909,4,2,2,70,0,0
60513,-83.3333333333333,4,2,1,80,0,1
70027,-83.3333333333333,4,2,1,5,0,1
70284,-83.3333333333333,4,2,1,80,0,1
70370,-83.3333333333333,4,2,1,5,0,1
70627,-83.3333333333333,4,2,1,80,0,1
70713,-83.3333333333333,4,2,1,5,0,1
70970,-83.3333333333333,4,2,1,80,0,1
76970,-125,4,2,1,70,0,0
79027,-83.3333333333333,4,2,1,75,0,0
79713,-83.3333333333333,4,2,1,80,0,1
81942,-111.111111111111,4,2,1,70,0,1
85199,-125,4,2,1,40,0,0
86913,-125,4,2,1,45,0,0
87084,-125,4,2,1,50,0,0
87256,-125,4,2,1,55,0,0
87427,-125,4,2,1,60,0,0
87599,-125,4,2,1,65,0,0
87770,-125,4,2,1,70,0,0
88284,-166.666666666667,4,2,1,60,0,0
88627,-100,4,2,1,5,0,0

[Colours]
Combo1 : 128,128,192
Combo2 : 107,215,0
Combo3 : 230,230,0
Combo4 : 0,131,193
Combo5 : 255,156,108
SliderBorder : 215,215,215
SliderTrackOverride : 0,0,0

[HitObjects]
93,285,1542,6,0,L|156:292,1,60,2|0,0:0|0:0,0:0:0:0:
214,234,1884,2,0,L|273:240,1,60,2|0,2:0|2:0,0:0:0:0:
345,284,2227,2,0,L|337:354,2,60,2|2|2,0:0|0:0|0:0,0:0:0:0:
356,200,2742,2,0,L|368:80,1,120,2|2,0:0|0:0,0:0:0:0:
308,22,3256,2,0,P|279:14|250:21,1,60,2|0,0:0|0:0,0:0:0:0:
208,93,3599,2,0,P|150:108|93:93,1,120,2|0,0:0|0:0,0:0:0:0:
17,70,4113,1,2,0:0:0:0:
17,70,4284,6,0,L|8:130,1,60,2|0,0:0|0:0,0:0:0:0:
46,204,4627,2,0,L|37:264,1,60,2|0,0:0|0:0,0:0:0:0:
94,324,4970,2,0,P|122:316|151:323,1,60,2|0,0:0|0:0,0:0:0:0:
227,371,5313,1,2,0:0:0:0:
227,371,5484,2,0,P|284:387|341:371,1,120,2|0,0:0|0:0,0:0:0:0:
414,327,5999,1,0,0:0:0:0:
485,175,6342,2,0,L|476:115,1,60,2|0,0:0|0:0,0:0:0:0:
407,68,6684,2,0,L|398:8,1,60,2|0,0:0|0:0,0:0:0:0:
313,15,7027,6,0,P|255:30|198:15,1,120,10|0,0:1|0:0,0:0:0:0:
118,41,7542,1,2,0:0:0:0:
118,41,7713,2,0,L|105:160,1,120,2|2,0:0|0:0,0:0:0:0:
50,224,8227,2,0,B|128:293|191:168|274:236,1,240,10|0,0:1|0:0,0:0:0:0:
335,294,9084,1,8,0:3:0:0:
394,231,9256,1,6,0:3:0:0:
394,231,9342,1,4,0:3:0:0:
394,231,9427,2,0,L|405:165,1,67.4999979400635,6|2,0:3|0:0,0:0:0:0:
388,75,9770,6,0,P|352:64|315:66,1,75,4|10,0:0|0:1,0:0:0:0:
236,109,10113,1,10,0:1:0:0:
278,188,10284,2,0,L|264:265,1,75,6|8,0:0|0:1,0:0:0:0:
197,322,10627,1,10,0:1:0:0:
165,237,10799,2,0,P|128:229|91:235,1,75,6|2,0:0|0:0,0:0:0:0:
9,271,11142,5,10,0:1:0:0:
41,354,11313,1,8,0:1:0:0:
41,354,11999,1,10,0:3:0:0:
118,308,12170,1,8,0:0:0:0:
118,308,12256,1,8,0:0:0:0:
118,308,12342,6,0,P|153:297|189:306,1,75,10|4,0:1|0:0,0:0:0:0:
251,372,12684,1,2,0:0:0:0:
327,324,12856,2,0,P|362:332|398:322,1,75,10|0,0:1|0:0,0:0:0:0:
461,258,13199,2,0,L|467:211,3,37.5,10|2|10|2,0:1|0:0|0:0|0:0,0:0:0:0:
503,196,13542,2,0,L|507:159,3,37.5,10|2|10|10,0:0|0:0|0:1|0:1,0:0:0:0:
478,124,13884,6,0,L|471:49,1,75,12|2,0:1|0:0,0:0:0:0:
380,42,14227,2,0,L|374:117,1,75,8|0,0:0|0:0,0:0:0:0:
334,199,14570,1,10,0:1:0:0:
334,199,14742,1,10,0:1:0:0:
274,131,14913,2,0,P|238:123|202:130,1,75,10|0,0:0|0:0,0:0:0:0:
124,178,15256,6,0,L|116:275,1,75,10|0,0:1|0:0,0:0:0:0:
151,336,15599,1,10,0:0:0:0:
227,289,15770,2,0,P|263:281|299:289,1,75,2|10,0:0|0:1,0:0:0:0:
355,360,16113,2,0,P|391:367|427:359,1,75,10|8,0:1|0:0,0:0:0:0:
497,301,16456,1,0,0:0:0:0:
426,245,16627,6,0,L|418:148,1,75,12|2,0:1|0:0,0:0:0:0:
460,89,16970,2,0,L|453:15,1,75,8|0,0:0|0:0,0:0:0:0:
367,6,17313,1,10,0:1:0:0:
367,6,17485,1,10,0:1:0:0:
300,66,17656,2,0,P|263:75|227:67,1,75,10|0,0:0|0:0,0:0:0:0:
151,116,17999,6,0,L|147:195,1,75,10|8,0:1|0:0,0:0:0:0:
154,280,18342,1,10,0:1:0:0:
231,234,18513,2,0,P|271:224|307:232,1,75,10|10,0:0|0:1,0:0:0:0:
366,295,18856,2,0,P|402:303|438:295,1,75,10|8,0:1|0:1,0:0:0:0:
481,214,19199,6,0,L|490:64,1,150,14|8,0:1|0:1,0:0:0:0:
400,78,19713,2,0,P|363:83|327:77,1,75,10|0,0:0|0:0,0:0:0:0:
254,31,20056,1,10,0:1:0:0:
254,31,20227,2,0,P|216:25|180:31,1,75,10|8,0:1|0:0,0:0:0:0:
135,110,20570,6,0,L|130:185,1,75,10|0,0:1|0:0,0:0:0:0:
213,218,20913,2,0,L|218:143,1,75,10|8,0:1|0:0,0:0:0:0:
304,170,21256,2,0,L|298:244,1,75,2|8,0:0|0:1,0:0:0:0:
225,299,21599,2,0,L|219:373,1,75,10|8,0:1|0:0,0:0:0:0:
307,372,21942,6,0,P|377:349|449:365,1,150,14|8,0:1|0:1,0:0:0:0:
484,281,22456,2,0,L|488:206,1,75,10|0,0:0|0:0,0:0:0:0:
442,128,22799,1,10,0:1:0:0:
442,128,22970,2,0,L|448:43,1,75,10|8,0:1|0:0,0:0:0:0:
365,15,23313,6,0,P|327:9|291:15,1,75,10|0,0:1|0:0,0:0:0:0:
248,95,23656,2,0,P|210:100|174:94,1,75,10|8,0:1|0:0,0:0:0:0:
84,80,23999,2,0,L|88:154,1,75,2|8,0:0|0:1,0:0:0:0:
135,231,24342,2,0,L|139:305,1,75,10|8,0:1|0:0,0:0:0:0:
212,357,24684,6,0,P|283:374|355:353,1,150,14|8,0:1|0:1,0:0:0:0:
437,313,25199,2,0,L|429:163,1,150,8|10,0:0|0:1,0:0:0:0:
353,113,25713,1,10,0:1:0:0:
314,194,25884,2,0,L|309:268,1,75,10|10,0:0|0:0,0:0:0:0:
244,331,26227,5,10,0:1:0:0:
244,331,26399,1,10,0:1:0:0:
71,297,26742,1,10,0:1:0:0:
71,297,26914,1,10,0:1:0:0:
68,117,27256,1,10,0:1:0:0:
214,48,27599,6,0,P|278:30|342:49,1,134.999995880127,14|8,0:1|0:0,0:0:0:0:
411,112,28113,1,2,0:0:0:0:
411,112,28284,2,0,L|410:179,1,67.4999979400635,10|8,0:1|0:1,0:0:0:0:
402,271,28627,1,10,0:0:0:0:
402,271,28799,2,0,P|337:253|273:272,1,134.999995880127,10|8,0:1|0:1,0:0:0:0:
208,329,29313,1,8,0:0:0:0:
208,329,29484,1,2,0:0:0:0:
133,283,29656,2,0,P|100:274|68:282,1,67.4999979400635,10|8,0:1|0:1,0:0:0:0:
5,343,29999,1,10,0:0:0:0:
5,343,30170,6,0,L|11:202,1,134.999995880127,10|8,0:1|0:1,0:0:0:0:
73,145,30684,2,0,L|76:77,1,67.4999979400635,10|0,0:0|0:0,0:0:0:0:
147,25,31027,2,0,P|179:17|211:26,1,67.4999979400635,10|8,0:1|0:1,0:0:0:0:
261,105,31370,1,10,0:0:0:0:
261,105,31542,2,0,L|257:172,1,67.4999979400635,10|0,0:1|0:0,0:0:0:0:
186,223,31884,2,0,L|189:290,1,67.4999979400635,8|8,0:1|0:0,0:0:0:0:
252,358,32227,1,0,0:0:0:0:
252,358,32399,2,0,L|319:355,1,67.4999979400635,10|10,0:1|0:1,0:0:0:0:
407,354,32742,1,10,0:0:0:0:
475,299,32913,6,0,L|481:158,1,134.999995880127,14|10,0:1|0:1,0:0:0:0:
392,159,33427,2,0,L|398:18,1,134.999995880127,10|8,0:0|0:1,0:0:0:0:
315,6,33942,1,10,0:1:0:0:
315,6,34113,1,10,0:0:0:0:
262,76,34284,2,0,P|197:58|133:77,1,134.999995880127,10|8,0:1|0:1,0:0:0:0:
100,159,34799,2,0,L|97:226,1,67.4999979400635,10|0,0:0|0:0,0:0:0:0:
185,230,35142,2,0,L|187:162,1,67.4999979400635,10|8,0:1|0:1,0:0:0:0:
274,161,35484,1,10,0:0:0:0:
274,249,35656,6,0,L|270:384,1,134.999995880127,10|10,0:1|0:1,0:0:0:0:
187,353,36170,2,0,P|154:345|122:354,1,67.4999979400635,10|0,0:0|0:0,0:0:0:0:
39,373,36513,1,10,0:1:0:0:
39,373,36684,2,0,L|40:305,1,67.4999979400635,8|8,0:1|0:0,0:0:0:0:
80,228,37027,2,0,P|144:246|208:228,1,134.999995880127,10|10,0:1|0:1,0:0:0:0:
273,168,37542,2,0,P|305:159|337:166,1,67.4999979400635,8|10,0:0|0:1,0:0:0:0:
410,233,37884,5,10,0:3:0:0:
410,233,37969,1,8,0:3:0:0:
410,233,38056,2,0,L|406:297,2,33.7499989700318,4|8|10,0:3|0:3|0:0,0:0:0:0:
476,172,38399,6,0,L|482:22,1,150,6|10,0:0|0:1,0:0:0:0:
394,41,38913,2,0,P|358:50|321:42,1,75,10|0,0:0|0:0,0:0:0:0:
236,12,39256,1,10,0:1:0:0:
236,12,39427,1,10,0:1:0:0:
193,91,39599,1,10,0:0:0:0:
272,132,39770,2,0,L|267:206,1,75,10|0,0:1|0:0,0:0:0:0:
230,289,40113,2,0,P|157:284|111:340,1,150,10|0,0:1|0:0,0:0:0:0:
27,372,40627,1,8,0:1:0:0:
4,290,40798,1,10,0:1:0:0:
3,288,40970,1,10,0:0:0:0:
73,231,41142,6,0,L|79:81,1,150,10|10,0:1|0:1,0:0:0:0:
148,22,41656,2,0,P|184:13|220:23,1,75,10|8,0:0|0:1,0:0:0:0:
255,105,41999,2,0,P|291:113|327:103,1,75,2|8,0:0|0:1,0:0:0:0:
414,80,42342,1,10,0:0:0:0:
390,167,42513,6,0,L|383:316,1,150,10|8,0:1|0:1,0:0:0:0:
314,376,43027,1,8,0:0:0:0:
256,306,43199,2,0,P|219:297|183:307,1,75,8|0,0:1|0:0,0:0:0:0:
107,350,43542,1,10,0:1:0:0:
107,350,43713,1,10,0:0:0:0:
69,269,43884,6,0,L|75:119,1,150,10|10,0:1|0:1,0:0:0:0:
145,60,44399,2,0,P|216:80|287:58,1,150,10|8,0:0|0:1,0:0:0:0:
370,20,44913,1,10,0:1:0:0:
370,20,45084,1,10,0:0:0:0:
427,89,45256,6,0,L|413:163,1,75,14|0,0:1|0:0,0:0:0:0:
341,217,45599,2,0,L|327:143,1,75,10|8,0:1|0:0,0:0:0:0:
252,194,45942,2,0,L|238:268,1,75,2|8,0:0|0:1,0:0:0:0:
166,322,46284,2,0,L|152:248,1,75,10|8,0:1|0:0,0:0:0:0:
177,161,46627,2,0,P|104:169|60:228,1,150,10|10,0:1|0:1,0:0:0:0:
94,312,47142,2,0,P|130:307|165:321,1,75,10|0,0:0|0:0,0:0:0:0:
254,308,47484,2,0,L|266:233,2,75,8|8|8,0:1|0:1|0:0,0:0:0:0:
322,367,47999,5,10,0:1:0:0:
458,249,48342,1,10,0:1:0:0:
363,96,48684,2,0,L|367:56,2,37.5,10|8|8,0:1|0:3|0:3,0:0:0:0:
287,137,49027,1,8,0:1:0:0:
287,137,49113,1,8,0:3:0:0:
287,137,49199,2,0,L|280:213,1,75,8|8,0:1|0:1,0:0:0:0:
216,291,49542,5,10,0:1:0:0:
62,205,49884,1,10,0:1:0:0:
120,38,50227,2,0,P|184:17|248:35,1,134.999995880127,10|8,0:1|0:1,0:0:0:0:
304,103,50742,1,10,0:1:0:0:
461,25,51084,1,10,0:1:0:0:
491,197,51427,2,0,L|488:276,1,67.4999979400635,10|8,0:1|0:1,0:0:0:0:
437,336,51770,1,2,0:0:0:0:
363,288,51942,2,0,P|329:282|296:288,1,67.4999979400635,10|8,0:1|0:1,0:0:0:0:
246,360,52284,6,0,L|254:157,1,202.499993820191,14|8,0:1|0:1,0:0:0:0:
211,81,52970,2,0,P|147:59|83:78,1,134.999995880127,10|2,0:0|0:0,0:0:0:0:
41,154,53484,2,0,L|38:238,1,67.4999979400635,8|8,0:0|0:1,0:0:0:0:
91,298,53827,1,8,0:0:0:0:
91,298,53999,2,0,L|157:288,1,67.4999979400635,0|8,0:0|0:1,0:0:0:0:
238,250,54342,2,0,L|235:335,1,67.4999979400635,4|2,0:0|0:0,0:0:0:0:
299,377,54684,1,10,0:0:0:0:
363,317,54856,1,10,0:0:0:0:
363,317,54942,1,8,0:0:0:0:
363,317,55027,6,0,B|437:355|506:318,1,150,14|8,0:1|0:0,0:0:0:0:
504,230,55542,1,2,0:0:0:0:
504,230,55713,2,0,L|506:156,1,75,10|10,0:1|0:1,0:0:0:0:
469,72,56056,1,10,0:0:0:0:
398,127,56227,2,0,L|247:117,1,150,14|8,0:1|0:1,0:0:0:0:
258,207,56742,2,0,L|332:211,1,75,10|0,0:0|0:0,0:0:0:0:
327,300,57084,2,0,L|252:295,1,75,10|8,0:1|0:1,0:0:0:0:
168,329,57427,2,0,P|162:293|172:253,1,75,10|8,0:0|0:1,0:0:0:0:
168,165,57770,6,0,L|92:160,1,75,14|0,0:0|0:0,0:0:0:0:
16,112,58113,1,10,0:1:0:0:
94,68,58284,2,0,L|168:72,1,75,10|8,0:1|0:1,0:0:0:0:
246,117,58627,2,0,L|320:121,1,75,10|8,0:1|0:1,0:0:0:0:
411,126,58970,1,14,0:1:0:0:
508,277,59313,1,12,0:1:0:0:
358,377,59656,1,8,0:1:0:0:
194,329,59999,1,8,0:1:0:0:
194,329,60084,1,8,0:1:0:0:
194,329,60170,6,0,L|179:238,1,82.5000025177003,4|0,0:1|0:0,0:0:0:0:
211,162,60513,6,0,P|253:173|297:165,1,89.9999972534181,10|0,0:1|0:0,0:0:0:0:
342,75,60856,2,0,P|384:63|428:71,1,89.9999972534181,10|0,0:0|0:0,0:0:0:0:
498,141,61199,1,10,0:1:0:0:
440,221,61370,1,10,0:1:0:0:
498,301,61542,1,10,0:0:0:0:
389,345,61713,6,0,P|345:336|301:346,1,89.9999972534181,14|0,0:1|0:0,0:0:0:0:
204,367,62056,1,10,0:1:0:0:
190,269,62227,2,0,P|146:260|102:270,1,89.9999972534181,10|0,0:0|0:0,0:0:0:0:
5,293,62570,2,0,L|0:382,2,89.9999972534181,10|8|8,0:1|0:1|0:0,0:0:0:0:
29,196,63084,1,2,0:0:0:0:
110,110,63256,6,0,B|154:98|154:98|197:111,1,89.9999972534181,14|0,0:1|0:0,0:0:0:0:
265,182,63599,2,0,B|309:194|309:194|352:181,1,89.9999972534181,10|0,0:0|0:0,0:0:0:0:
445,149,63942,2,0,L|449:59,1,89.9999972534181,10|8,0:1|0:1,0:0:0:0:
355,27,64284,1,10,0:0:0:0:
257,8,64456,6,0,L|77:-1,1,179.999994506836,14|8,0:1|0:1,0:0:0:0:
76,98,64970,2,0,L|172:104,1,89.9999972534181,8|0,0:0|0:0,0:0:0:0:
263,120,65313,2,0,L|259:209,1,89.9999972534181,10|8,0:1|0:1,0:0:0:0:
180,270,65656,2,0,L|190:359,1,89.9999972534181,10|0,0:0|0:0,0:0:0:0:
286,381,65999,6,0,B|354:381|354:381|386:350|386:350|454:350,2,179.999994506836,14|8|8,0:1|0:0|0:1,0:0:0:0:
190,359,66856,1,10,0:1:0:0:
97,324,67027,1,10,0:0:0:0:
180,270,67199,2,0,L|188:90,1,179.999994506836,14|8,0:1|0:1,0:0:0:0:
287,90,67713,2,0,L|283:179,1,89.9999972534181,8|0,0:0|0:0,0:0:0:0:
275,278,68056,2,0,P|318:268|362:277,1,89.9999972534181,10|8,0:1|0:1,0:0:0:0:
417,359,68399,2,0,P|460:368|504:359,1,89.9999972534181,10|0,0:0|0:0,0:0:0:0:
504,241,68742,6,0,L|508:61,1,179.999994506836,10|8,0:1|0:0,0:0:0:0:
428,1,69256,1,2,0:0:0:0:
380,88,69427,2,0,P|336:97|292:87,1,89.9999972534181,10|8,0:1|0:1,0:0:0:0:
212,28,69770,1,10,0:0:0:0:
126,78,69942,6,0,L|123:130,1,44.999998626709,14|0,0:1|0:0,0:0:0:0:
7,215,70284,2,0,L|9:260,1,44.999998626709,14|0,0:1|0:0,0:0:0:0:
111,367,70627,2,0,L|113:322,1,44.999998626709,14|0,0:1|0:0,0:0:0:0:
219,219,70970,1,14,0:1:0:0:
219,219,71056,1,10,0:0:0:0:
219,219,71142,2,0,L|222:263,3,44.999998626709,10|10|10|10,0:1|0:0|0:1|0:0,0:0:0:0:
253,301,71484,6,0,P|295:290|339:298,1,89.9999972534181,14|0,0:1|0:0,0:0:0:0:
401,376,71827,2,0,P|443:387|487:379,1,89.9999972534181,10|0,0:0|0:0,0:0:0:0:
512,282,72170,1,10,0:1:0:0:
437,216,72341,1,10,0:1:0:0:
512,150,72513,1,10,0:0:0:0:
416,82,72684,6,0,P|372:91|328:80,1,89.9999972534181,14|0,0:1|0:0,0:0:0:0:
258,9,73027,1,10,0:1:0:0:
233,105,73199,2,0,L|229:194,1,89.9999972534181,10|0,0:0|0:0,0:0:0:0:
301,262,73542,2,0,P|344:251|388:260,2,89.9999972534181,10|8|8,0:1|0:1|0:0,0:0:0:0:
208,295,74055,1,2,0:0:0:0:
133,206,74227,6,0,B|121:162|121:162|134:119,1,89.9999972534181,14|0,0:1|0:0,0:0:0:0:
233,105,74570,2,0,B|245:61|245:61|232:18,1,89.9999972534181,10|0,0:0|0:0,0:0:0:0:
134,2,74913,2,0,L|36:-1,1,89.9999972534181,10|8,0:1|0:1,0:0:0:0:
0,88,75256,1,10,0:0:0:0:
69,158,75427,6,0,L|63:341,1,179.999994506836,14|8,0:1|0:1,0:0:0:0:
153,381,75942,2,0,L|242:384,1,89.9999972534181,8|0,0:0|0:0,0:0:0:0:
286,295,76284,2,0,L|288:205,1,89.9999972534181,10|8,0:1|0:1,0:0:0:0:
198,162,76627,2,0,L|201:72,1,89.9999972534181,10|0,0:0|0:0,0:0:0:0:
288,18,76970,6,0,P|344:34|401:17,1,120,10|0,0:1|0:0,0:0:0:0:
472,61,77484,1,10,0:1:0:0:
408,115,77656,2,0,L|405:174,1,60,10|0,0:0|0:0,0:0:0:0:
457,240,77998,1,2,0:0:0:0:
381,277,78170,2,0,P|324:258|267:275,1,120,2|8,0:0|0:0,0:0:0:0:
201,325,78684,1,0,0:0:0:0:
130,280,78856,2,0,L|133:220,1,60,8|8,0:1|0:0,0:0:0:0:
140,121,79199,1,2,0:0:0:0:
215,184,79370,1,10,0:3:0:0:
234,86,79542,6,0,L|323:81,1,89.9999972534181,4|4,0:3|0:1,0:0:0:0:
388,155,79884,1,10,0:1:0:0:
437,69,80056,1,10,0:1:0:0:
486,154,80227,2,0,L|492:243,1,89.9999972534181,6|8,0:0|0:1,0:0:0:0:
462,338,80570,1,10,0:1:0:0:
393,265,80742,1,10,0:0:0:0:
377,362,80913,1,2,0:0:0:0:
305,294,81084,5,10,0:1:0:0:
314,195,81256,1,8,0:1:0:0:
314,195,81942,2,0,L|311:154,2,33.7499989700318,10|8|8,0:1|0:1|0:0,0:0:0:0:
305,294,82284,6,0,L|237:290,1,67.4999979400635,2|14,0:0|0:1,0:0:0:0:
150,275,82627,1,10,0:1:0:0:
126,190,82799,2,0,L|129:122,1,67.4999979400635,10|10,0:1|0:1,0:0:0:0:
257,2,83313,1,10,0:1:0:0:
430,31,83656,1,10,0:1:0:0:
474,205,83999,1,10,0:1:0:0:
474,205,84170,2,0,L|474:272,1,67.4999979400635,10|2,0:0|0:0,0:0:0:0:
396,314,84513,2,0,P|362:308|330:315,1,67.4999979400635,10|8,0:1|0:3,0:0:0:0:
254,360,84856,2,0,P|220:365|188:358,1,67.4999979400635,10|0,0:1|0:0,0:0:0:0:
118,310,85199,6,0,L|112:187,1,120,14|2,0:1|0:0,0:0:0:0:
143,114,85713,1,2,0:0:0:0:
143,114,85884,1,2,0:0:0:0:
208,169,86056,2,0,P|266:181|323:167,1,120,2|2,0:0|0:0,0:0:0:0:
403,137,86570,6,0,L|408:200,1,60,2|10,0:0|0:1,0:0:0:0:
415,280,86913,1,10,0:1:0:0:
341,320,87084,2,0,L|284:299,1,60,10|8,0:1|0:1,0:0:0:0:
259,219,87427,1,10,0:1:0:0:
324,166,87599,1,8,0:1:0:0:
402,196,87770,1,10,0:1:0:0:
284,299,88113,5,2,0:0:0:0:
284,299,88284,2,0,B|201:290|161:322|161:322|154:262|72:218,1,269.999991760254,2|0,0:0|0:0,0:0:0:0:
