osu file format v14

[General]
AudioFilename: audio.mp3
AudioLeadIn: 0
PreviewTime: 58291
Countdown: 0
SampleSet: Soft
StackLeniency: 0
Mode: 0
LetterboxInBreaks: 0
WidescreenStoryboard: 0

[Editor]
Bookmarks: 117541
DistanceSpacing: 1
BeatDivisor: 4
GridSize: 4
TimelineZoom: 1.4

[Metadata]
Title:Maware! Setsugekka
TitleUnicode:回レ!雪月花
Artist:Ogura Yui
ArtistUnicode:小倉唯
Creator:Koalazy
Version:Koa%wer
Source:Kikou Shoujo wa Kizutsukanai
Tags:機巧少女は傷つかない Machine Doll wa Kizutsukanai ending ED
BeatmapID:1489694
BeatmapSetID:704209

[Difficulty]
HPDrainRate:3
CircleSize:3
OverallDifficulty:3
ApproachRate:3
SliderMultiplier:1.6
SliderTickRate:1

[Events]
//Background and Video events
0,0,"56621283_p6_master1200turn.jpg",0,0
//Break Periods
//Storyboard Layer 0 (Background)
//Storyboard Layer 1 (Fail)
//Storyboard Layer 2 (Pass)
//Storyboard Layer 3 (Foreground)
//Storyboard Layer 4 (Overlay)
//Storyboard Sound Samples

[TimingPoints]
541,375,4,2,1,43,1,0
1853,-66.6666666666667,4,2,1,43,0,0
2041,-100,4,2,1,43,0,0
7666,-50,4,2,1,43,0,0
8228,-100,4,2,1,43,0,0
19291,-200,4,2,1,43,0,0
20041,-100,4,2,1,43,0,0
30728,-66.6666666666667,4,2,1,43,0,0
33541,-100,4,2,1,43,0,0
45541,-66.6666666666667,4,2,1,43,0,0
46291,-100,4,2,1,43,0,0
58291,-200,4,2,1,43,0,0
59041,-66.6666666666667,4,2,1,43,0,1
77416,-50,4,2,1,43,0,1
77791,-66.6666666666667,4,2,1,43,0,1
83041,-100,4,2,1,43,0,0
100291,-133.333333333333,4,2,1,43,0,0
100666,-66.6666666666667,4,2,1,43,0,0
101041,-100,4,2,1,43,0,0
103666,-66.6666666666667,4,2,1,43,0,0
106666,-100,4,2,1,43,0,0
107041,-66.6666666666667,4,2,1,43,0,0
107791,-100,4,2,1,43,0,0
119791,-200,4,2,1,43,0,0
120541,-66.6666666666667,4,2,1,43,0,1
131791,-50,4,2,1,43,0,1
132916,-25,4,2,1,43,0,1
133103,-66.6666666666667,4,2,1,43,0,1
134041,-50,4,2,1,43,0,1
134416,-25,4,2,1,43,0,1
134791,-66.6666666666667,4,2,1,43,0,1
138916,-50,4,2,1,43,0,1
139291,-66.6666666666667,4,2,1,43,0,1
144541,-100,4,2,1,43,0,0
167791,-50,4,2,1,43,0,0
168541,-100,4,2,1,43,0,0
177541,-50,4,2,1,43,0,0
179041,-100,4,2,1,43,0,0
195541,-66.6666666666667,4,2,1,43,0,1
197791,-100,4,2,1,43,0,1
198541,-66.6666666666667,4,2,1,43,0,1
207541,-133.333333333333,4,2,1,43,0,1
207916,-66.6666666666667,4,2,1,43,0,1
218041,-66.6666666666667,4,2,1,43,0,0
223291,-50,4,2,1,43,0,0
224041,-100,4,2,1,43,0,0
227228,-66.6666666666667,4,2,1,43,0,0
228541,-33.3333333333333,4,2,1,43,0,0
229853,-33.3333333333333,4,2,1,5,0,0

[Colours]
Combo1 : 255,128,192
Combo2 : 90,225,255

[HitObjects]
410,236,541,5,0,0:0:0:0:
407,255,634,1,0,0:0:0:0:
396,276,728,1,0,0:0:0:0:
374,294,822,1,0,0:0:0:0:
344,305,916,1,0,0:0:0:0:
308,307,1009,1,0,0:0:0:0:
271,289,1103,1,0,0:0:0:0:
245,253,1197,1,0,0:0:0:0:
236,205,1291,6,0,P|250:149|262:137,1,40
331,124,1478,2,0,P|359:73|373:65,1,40
166,308,1666,2,0,P|165:250|173:235,1,40
206,36,1853,6,0,L|186:109,1,60.0000022888184
137,176,2041,5,0,0:0:0:0:
62,147,2228,1,0,0:0:0:0:
236,205,2416,6,0,P|250:149|262:137,1,40
271,289,2603,1,0,0:0:0:0:
140,247,2791,5,0,0:0:0:0:
59,242,2978,1,0,0:0:0:0:
243,243,3166,6,0,P|239:185|246:170,1,40
302,313,3353,1,0,0:0:0:0:
166,313,3541,5,0,0:0:0:0:
87,333,3728,1,0,0:0:0:0:
262,277,3916,6,0,P|240:223|243:206,1,40
340,325,4103,1,0,0:0:0:0:
140,247,4291,5,0,0:0:0:0:
59,242,4478,1,0,0:0:0:0:
243,243,4666,6,0,P|239:185|246:170,1,40
236,205,4853,2,0,P|250:149|262:137,1,40
240,165,5041,5,0,0:0:0:0:
319,175,5228,1,0,0:0:0:0:
123,77,5416,6,0,P|169:85|184:83,1,40
250,61,5603,1,0,0:0:0:0:
230,269,5791,5,0,0:0:0:0:
309,279,5978,1,0,0:0:0:0:
113,181,6166,6,0,P|159:189|174:187,1,40
240,165,6353,1,0,0:0:0:0:
352,92,6541,5,0,0:0:0:0:
340,170,6728,1,0,0:0:0:0:
378,240,6916,1,0,0:0:0:0:
378,240,7009,1,0,0:0:0:0:
378,240,7103,1,0,0:0:0:0:
449,276,7291,1,0,0:0:0:0:
135,265,7479,1,0,0:0:0:0:
135,265,7572,1,0,0:0:0:0:
135,265,7666,2,0,P|152:193|139:148,1,80
123,77,8041,5,0,0:0:0:0:
123,77,8228,2,0,P|164:88|174:88,1,40
285,43,8416,5,0,0:0:0:0:
285,43,8603,2,0,P|326:54|336:54,1,40
230,148,8791,5,0,0:0:0:0:
230,148,8978,2,0,P|271:159|281:159,1,40
175,253,9166,5,0,0:0:0:0:
175,253,9353,2,0,P|216:264|226:264,1,40
433,263,9541,5,0,0:0:0:0:
433,263,9728,2,0,P|392:274|382:274,1,40
378,158,9916,5,0,0:0:0:0:
378,158,10103,2,0,P|337:169|327:169,1,40
323,53,10291,5,0,0:0:0:0:
323,53,10478,2,0,P|282:64|272:64,1,40
159,25,10666,2,0,P|195:46|205:48,1,40
323,53,10853,6,0,L|389:70,1,40
449,86,11041,5,0,0:0:0:0:
351,187,11228,2,0,L|378:158,1,40
449,86,11416,1,0,0:0:0:0:
351,187,11603,2,0,L|390:195,1,40
487,221,11791,1,0,0:0:0:0:
351,187,11978,2,0,L|363:225,1,40
389,321,12166,1,0,0:0:0:0:
351,187,12353,2,0,L|324:216,1,40
253,287,12541,1,0,0:0:0:0:
351,187,12728,2,0,L|311:178,1,40
215,152,12916,1,0,0:0:0:0:
351,187,13103,2,0,L|338:148,1,40
313,52,13291,1,0,0:0:0:0:
351,187,13478,6,0,L|338:148,1,40
428,275,13666,2,0,L|415:236,1,40
505,363,13853,1,0,0:0:0:0:
505,363,14041,5,0,0:0:0:0:
80,317,14228,1,0,0:0:0:0:
117,301,14322,1,0,0:0:0:0:
157,299,14416,1,0,0:0:0:0:
194,311,14509,1,0,0:0:0:0:
224,336,14603,1,0,0:0:0:0:
250,366,14697,2,0,P|274:367|301:360,1,40
256,192,14978,5,0,0:0:0:0:
256,192,15072,1,0,0:0:0:0:
256,192,15166,2,0,L|306:205,1,40
256,192,15353,2,0,L|205:178,1,40
117,83,15541,5,0,0:0:0:0:
157,85,15635,1,0,0:0:0:0:
194,73,15728,1,0,0:0:0:0:
224,48,15822,1,0,0:0:0:0:
250,18,15916,2,0,P|274:17|301:24,1,40
398,88,16103,2,0,P|374:89|347:82,1,40
494,53,16291,5,0,0:0:0:0:
494,53,16478,1,0,0:0:0:0:
486,230,16666,2,0,L|463:144,1,80
46,152,17041,5,0,0:0:0:0:
15,252,17228,1,0,0:0:0:0:
54,257,17322,1,0,0:0:0:0:
125,222,17509,1,0,0:0:0:0:
145,187,17603,1,0,0:0:0:0:
150,147,17697,1,0,0:0:0:0:
140,108,17791,1,0,0:0:0:0:
233,230,17978,1,0,0:0:0:0:
233,230,18072,2,0,L|288:215,1,40
310,126,18259,2,0,L|254:140,1,40
373,189,18447,1,0,0:0:0:0:
373,189,18541,6,0,P|404:196|424:197,1,40
410,105,18728,2,0,P|441:112|461:113,1,40
447,21,18916,2,0,P|478:28|498:29,1,40
373,189,19103,1,0,0:0:0:0:
336,273,19291,2,0,P|367:280|387:281,2,40
458,257,19853,1,0,0:0:0:0:
54,257,20041,5,0,0:0:0:0:
129,231,20228,1,0,0:0:0:0:
173,164,20416,2,0,L|219:151,1,40
292,129,20603,1,0,0:0:0:0:
173,164,20791,2,0,L|219:151,1,40
292,129,20978,2,0,L|338:116,1,40
412,95,21166,1,0,0:0:0:0:
243,242,21353,1,0,0:0:0:0:
243,242,21447,1,0,0:0:0:0:
243,242,21541,2,0,L|289:229,1,40
362,207,21728,2,0,L|408:194,1,40
297,194,21916,6,0,L|350:250,1,40
407,309,22103,1,0,0:0:0:0:
73,183,22291,1,0,0:0:0:0:
128,241,22478,1,0,0:0:0:0:
183,298,22666,1,0,0:0:0:0:
238,355,22853,5,0,0:0:0:0:
183,298,22947,1,0,0:0:0:0:
128,241,23041,2,0,P|186:231|202:173,1,120
185,142,23416,1,0,0:0:0:0:
102,48,23603,1,0,0:0:0:0:
102,48,23697,1,0,0:0:0:0:
102,48,23791,1,0,0:0:0:0:
180,63,23978,1,0,0:0:0:0:
256,40,24166,1,0,0:0:0:0:
332,63,24353,1,0,0:0:0:0:
410,48,24541,6,0,P|389:103|431:146,1,120
456,219,24916,2,0,P|418:173|360:188,1,120
284,173,25291,1,0,0:0:0:0:
332,321,25478,1,0,0:0:0:0:
332,321,25572,1,0,0:0:0:0:
332,321,25666,1,0,0:0:0:0:
294,333,25759,2,0,L|286:311,1,20
256,344,25854,1,0,0:0:0:0:
218,333,25947,1,0,0:0:0:0:
180,321,26041,6,0,P|200:265|158:222,2,120
256,192,26791,1,0,0:0:0:0:
180,63,26978,1,0,0:0:0:0:
256,40,27072,1,0,0:0:0:0:
332,63,27166,1,0,0:0:0:0:
380,126,27353,1,0,0:0:0:0:
450,163,27541,5,0,0:0:0:0:
256,192,27728,2,0,P|277:157|278:147,1,40
439,264,27916,1,0,0:0:0:0:
256,192,28103,2,0,P|291:172|297:164,1,40
378,345,28291,1,0,0:0:0:0:
256,192,28478,2,0,P|296:192|305:188,1,40
285,386,28666,1,0,0:0:0:0:
256,192,28853,2,0,P|291:213|301:214,1,40
184,375,29041,1,0,0:0:0:0:
256,192,29228,2,0,P|275:227|283:233,1,40
102,314,29416,1,0,0:0:0:0:
256,192,29603,2,0,P|255:232|259:241,1,40
61,221,29791,1,0,0:0:0:0:
433,86,29978,6,0,P|404:93|376:93,1,40
259,66,30166,2,0,P|227:70|208:76,1,40
72,120,30353,1,0,0:0:0:0:
72,120,30447,1,0,0:0:0:0:
72,120,30541,5,0,0:0:0:0:
256,192,30728,2,0,P|235:227|234:237,3,40
239,307,31103,1,0,0:0:0:0:
308,349,31478,5,0,0:0:0:0:
402,329,31666,1,0,0:0:0:0:
446,223,31853,1,0,0:0:0:0:
397,93,32041,2,0,B|347:89|318:36|318:36|375:122|314:226|174:257|101:118|159:44,1,480.000018310548
142,82,33166,1,0,0:0:0:0:
238,93,33541,5,0,0:0:0:0:
142,82,33728,1,0,0:0:0:0:
107,102,33822,1,0,0:0:0:0:
85,136,33916,1,0,0:0:0:0:
77,174,34009,1,0,0:0:0:0:
137,224,34103,1,0,0:0:0:0:
137,224,34197,1,0,0:0:0:0:
136,224,34291,2,0,L|184:211,1,40
375,224,34478,1,0,0:0:0:0:
375,224,34572,1,0,0:0:0:0:
375,224,34665,1,0,0:0:0:0:
435,174,34759,1,0,0:0:0:0:
427,136,34852,1,0,0:0:0:0:
405,102,34946,1,0,0:0:0:0:
370,82,35041,6,0,L|325:68,1,40
142,82,35228,2,0,L|187:68,1,40
256,123,35416,1,0,0:0:0:0:
256,301,35603,1,0,0:0:0:0:
380,319,35791,1,0,0:0:0:0:
380,319,35884,2,0,L|329:305,1,40
171,308,36072,1,0,0:0:0:0:
131,316,36166,1,0,0:0:0:0:
96,335,36259,1,0,0:0:0:0:
73,301,36353,1,0,0:0:0:0:
37,281,36447,1,0,0:0:0:0:
37,281,36541,6,0,P|34:227|11:190,1,80
162,103,36916,2,0,P|165:157|188:194,1,80
256,124,37197,1,0,0:0:0:0:
335,68,37291,2,0,P|353:65|380:66,1,40
388,151,37478,2,0,P|368:150|349:153,1,40
363,238,37666,2,0,P|382:234|402:235,1,40
416,320,37853,2,0,P|396:319|377:323,1,40
233,313,38041,5,0,0:0:0:0:
193,307,38134,1,0,0:0:0:0:
152,281,38228,1,0,0:0:0:0:
126,231,38322,1,0,0:0:0:0:
128,166,38416,1,0,0:0:0:0:
162,103,38509,1,0,0:0:0:0:
228,58,38603,2,0,P|258:47|276:46,1,40
33,36,38791,2,0,P|98:74|153:68,2,120
354,90,39541,5,0,0:0:0:0:
480,122,39728,1,0,0:0:0:0:
480,122,39822,2,0,P|450:133|432:134,1,40
290,179,40009,1,0,0:0:0:0:
298,218,40103,1,0,0:0:0:0:
286,256,40197,1,0,0:0:0:0:
258,283,40291,1,0,0:0:0:0:
220,294,40384,1,0,0:0:0:0:
366,340,40572,1,0,0:0:0:0:
411,194,40759,1,0,0:0:0:0:
265,149,40947,1,0,0:0:0:0:
150,49,41134,5,0,0:0:0:0:
111,60,41227,1,0,0:0:0:0:
83,87,41321,1,0,0:0:0:0:
72,125,41415,1,0,0:0:0:0:
80,164,41509,1,0,0:0:0:0:
105,194,41603,1,0,0:0:0:0:
67,290,41791,1,0,0:0:0:0:
104,277,41884,1,0,0:0:0:0:
144,275,41978,1,0,0:0:0:0:
220,295,42072,2,0,P|201:287|181:283,2,40
301,292,42353,5,0,0:0:0:0:
366,340,42447,1,0,0:0:0:0:
446,343,42541,2,0,P|478:283|465:211,1,120
495,198,42916,2,0,P|436:186|405:152,1,80
334,41,43291,1,0,0:0:0:0:
339,120,43478,1,0,0:0:0:0:
283,178,43666,1,0,0:0:0:0:
203,182,43853,1,0,0:0:0:0:
26,200,44041,6,0,P|65:133|141:128,2,160
203,182,44978,1,0,0:0:0:0:
243,180,45072,1,0,0:0:0:0:
283,178,45166,1,0,0:0:0:0:
304,211,45259,2,0,L|329:198,1,20
326,245,45353,1,0,0:0:0:0:
307,280,45447,1,0,0:0:0:0:
289,316,45541,6,0,P|207:252|203:181,2,180.000006866455
40,325,46291,1,0,0:0:0:0:
117,350,46478,1,0,0:0:0:0:
164,285,46665,1,0,0:0:0:0:
117,220,46853,1,0,0:0:0:0:
40,245,47041,1,0,0:0:0:0:
128,180,47228,5,0,0:0:0:0:
122,200,47322,1,0,0:0:0:0:
117,220,47416,1,0,0:0:0:0:
205,155,47603,5,0,0:0:0:0:
199,175,47697,1,0,0:0:0:0:
194,195,47791,1,0,0:0:0:0:
282,130,47978,5,0,0:0:0:0:
276,150,48072,1,0,0:0:0:0:
271,170,48166,1,0,0:0:0:0:
359,105,48353,5,0,0:0:0:0:
353,125,48447,1,0,0:0:0:0:
348,145,48541,1,0,0:0:0:0:
271,170,48728,5,0,0:0:0:0:
276,150,48822,1,0,0:0:0:0:
282,130,48916,1,0,0:0:0:0:
194,195,49103,5,0,0:0:0:0:
199,175,49197,1,0,0:0:0:0:
205,155,49291,1,0,0:0:0:0:
128,180,49478,5,0,0:0:0:0:
122,200,49572,1,0,0:0:0:0:
117,220,49666,1,0,0:0:0:0:
205,155,49853,5,0,0:0:0:0:
199,175,49947,1,0,0:0:0:0:
194,195,50041,1,0,0:0:0:0:
282,130,50228,5,0,0:0:0:0:
276,150,50322,1,0,0:0:0:0:
271,170,50416,1,0,0:0:0:0:
348,145,50603,5,0,0:0:0:0:
353,125,50697,1,0,0:0:0:0:
359,105,50791,1,0,0:0:0:0:
282,130,50978,5,0,0:0:0:0:
276,150,51072,1,0,0:0:0:0:
271,170,51166,1,0,0:0:0:0:
194,195,51353,5,0,0:0:0:0:
199,175,51447,1,0,0:0:0:0:
205,155,51541,1,0,0:0:0:0:
128,180,51728,5,0,0:0:0:0:
122,200,51822,1,0,0:0:0:0:
117,220,51916,1,0,0:0:0:0:
271,170,52103,5,0,0:0:0:0:
276,150,52197,1,0,0:0:0:0:
282,130,52291,1,0,0:0:0:0:
205,155,52478,5,0,0:0:0:0:
199,175,52572,1,0,0:0:0:0:
194,195,52666,1,0,0:0:0:0:
348,145,52853,5,0,0:0:0:0:
117,220,53041,1,0,0:0:0:0:
333,339,53416,5,0,0:0:0:0:
410,363,53604,1,0,0:0:0:0:
482,238,53791,1,0,0:0:0:0:
476,317,53978,1,0,0:0:0:0:
482,238,54166,1,0,0:0:0:0:
423,183,54353,1,0,0:0:0:0:
344,195,54541,1,0,0:0:0:0:
304,264,54916,5,0,0:0:0:0:
344,195,55103,1,0,0:0:0:0:
423,183,55291,1,0,0:0:0:0:
482,238,55478,1,0,0:0:0:0:
482,238,55572,1,0,0:0:0:0:
482,238,55666,1,0,0:0:0:0:
476,317,55853,1,0,0:0:0:0:
333,339,56041,6,0,L|365:305,3,40
410,363,56416,2,0,L|403:316,3,40
476,317,56791,2,0,L|435:293,3,40
482,238,57166,1,0,0:0:0:0:
423,183,57260,1,0,0:0:0:0:
344,195,57354,1,0,0:0:0:0:
304,264,57447,1,0,0:0:0:0:
269,336,57541,5,0,0:0:0:0:
191,353,57634,1,0,0:0:0:0:
128,304,57728,1,0,0:0:0:0:
128,224,57822,1,0,0:0:0:0:
191,174,57916,1,0,0:0:0:0:
269,191,58009,1,0,0:0:0:0:
339,152,58103,1,0,0:0:0:0:
349,72,58197,1,0,0:0:0:0:
256,25,58291,6,0,B|243:62|256:87|256:87|272:126|256:154,1,120
117,193,59041,6,0,P|94:174|76:150,1,60.0000022888184
207,221,59228,1,0,0:0:0:0:
154,299,59322,6,0,P|129:315|100:325,1,60.0000022888184
207,221,59509,1,0,0:0:0:0:
266,296,59603,6,0,P|273:325|273:355,1,60.0000022888184
207,221,59790,1,0,0:0:0:0:
298,189,59884,6,0,P|328:191|356:200,1,60.0000022888184
207,221,60071,1,0,0:0:0:0:
205,127,60166,6,0,P|216:99|234:75,1,60.0000022888184
207,221,60353,1,0,0:0:0:0:
117,193,60447,6,0,P|94:174|76:150,1,60.0000022888184
207,221,60634,1,0,0:0:0:0:
154,299,60729,6,0,P|129:315|100:325,1,60.0000022888184
207,221,60916,1,0,0:0:0:0:
266,296,61009,6,0,P|273:325|273:355,1,60.0000022888184
207,221,61196,1,0,0:0:0:0:
298,189,61291,6,0,P|328:191|440:305,2,180.000006866455
404,34,62041,5,0,0:0:0:0:
404,170,62228,1,0,0:0:0:0:
483,60,62416,1,0,0:0:0:0:
354,102,62603,1,0,0:0:0:0:
483,144,62791,5,0,0:0:0:0:
404,34,63072,1,0,0:0:0:0:
404,170,63353,1,0,0:0:0:0:
483,60,63541,5,0,0:0:0:0:
354,102,63728,1,0,0:0:0:0:
483,144,63916,1,0,0:0:0:0:
404,34,64103,1,0,0:0:0:0:
404,170,64291,1,0,0:0:0:0:
404,170,64666,1,0,0:0:0:0:
89,132,65041,6,0,P|124:182|152:200,1,60.0000022888184
208,222,65228,1,0,0:0:0:0:
358,225,65322,6,0,P|300:205|267:207,1,60.0000022888184
208,222,65509,1,0,0:0:0:0:
86,308,65603,6,0,P|144:290|170:269,1,60.0000022888184
208,222,65790,1,0,0:0:0:0:
257,82,65884,6,0,P|220:130|211:162,1,60.0000022888184
208,222,66071,1,0,0:0:0:0:
252,365,66166,6,0,P|253:303|241:272,1,60.0000022888184
208,222,66353,1,0,0:0:0:0:
89,132,66447,6,0,P|124:182|152:200,1,60.0000022888184
208,222,66634,1,0,0:0:0:0:
358,225,66728,6,0,P|300:205|267:207,1,60.0000022888184
208,222,66915,1,0,0:0:0:0:
86,308,67009,6,0,P|144:290|170:269,1,60.0000022888184
208,222,67196,1,0,0:0:0:0:
257,82,67291,6,0,B|339:52|406:145|367:177|355:165,2,180.000006866455
89,132,68041,5,0,0:0:0:0:
358,225,68228,1,0,0:0:0:0:
86,308,68416,1,0,0:0:0:0:
257,82,68603,1,0,0:0:0:0:
252,365,68791,1,0,0:0:0:0:
86,308,69072,1,0,0:0:0:0:
89,132,69353,1,0,0:0:0:0:
358,225,69541,5,0,0:0:0:0:
257,82,69728,1,0,0:0:0:0:
89,132,69916,1,0,0:0:0:0:
358,225,70103,5,0,0:0:0:0:
415,206,70197,1,0,0:0:0:0:
415,146,70291,1,0,0:0:0:0:
358,127,70384,1,0,0:0:0:0:
322,176,70478,1,0,0:0:0:0:
296,244,70572,1,0,0:0:0:0:
228,270,70665,1,0,0:0:0:0:
162,244,70759,1,0,0:0:0:0:
135,176,70853,1,0,0:0:0:0:
162,110,70947,1,0,0:0:0:0:
228,83,71040,1,0,0:0:0:0:
443,149,71228,5,0,0:0:0:0:
443,149,71322,1,0,0:0:0:0:
443,149,71416,1,0,0:0:0:0:
334,102,71603,5,0,0:0:0:0:
334,102,71697,1,0,0:0:0:0:
334,102,71791,1,0,0:0:0:0:
443,149,72072,1,0,0:0:0:0:
432,268,72353,2,0,L|365:283,1,60.0000022888184
256,192,72541,5,0,0:0:0:0:
316,294,72728,1,0,0:0:0:0:
256,192,72916,1,0,0:0:0:0:
196,294,73103,1,0,0:0:0:0:
178,102,73291,1,0,0:0:0:0:
80,268,73478,1,0,0:0:0:0:
256,192,73666,1,0,0:0:0:0:
69,149,73853,1,0,0:0:0:0:
256,192,74041,5,0,0:0:0:0:
386,51,74228,1,0,0:0:0:0:
460,321,74416,2,0,L|422:179,1,120.000004577637
309,343,74791,2,0,L|359:155,2,180.000006866455
210,251,75541,6,0,P|234:205|238:182,1,60.0000022888184
164,54,75728,2,0,P|182:97|182:125,1,60.0000022888184
97,303,75916,2,0,P|121:257|125:234,1,60.0000022888184
51,106,76103,2,0,P|69:149|69:177,1,60.0000022888184
97,303,76291,5,0,0:0:0:0:
161,334,76384,1,0,0:0:0:0:
233,338,76478,1,0,0:0:0:0:
303,320,76572,1,0,0:0:0:0:
368,219,76666,5,0,0:0:0:0:
308,215,76759,1,0,0:0:0:0:
277,266,76853,1,0,0:0:0:0:
303,320,76947,1,0,0:0:0:0:
362,330,77041,5,0,0:0:0:0:
389,340,77134,1,0,0:0:0:0:
417,350,77228,1,0,0:0:0:0:
444,361,77322,1,0,0:0:0:0:
504,359,77416,6,0,L|444:136,1,160
419,80,77697,1,0,0:0:0:0:
419,80,77791,2,0,P|348:127|295:96,1,120.000004577637
93,80,78166,2,0,P|164:33|217:64,1,120.000004577637
316,274,78447,1,0,0:0:0:0:
316,274,78541,5,0,0:0:0:0:
196,274,78728,1,0,0:0:0:0:
256,89,78916,1,0,0:0:0:0:
316,274,79103,1,0,0:0:0:0:
158,160,79290,1,0,0:0:0:0:
353,160,79478,1,0,0:0:0:0:
353,160,79572,1,0,0:0:0:0:
353,160,79666,5,0,0:0:0:0:
196,274,79853,2,0,L|145:315,1,60.0000022888184
74,364,80041,1,0,0:0:0:0:
196,274,80228,2,0,L|135:250,1,60.0000022888184
57,213,80416,1,0,0:0:0:0:
196,274,80603,2,0,L|186:209,1,60.0000022888184
179,124,80791,1,0,0:0:0:0:
196,274,80978,2,0,L|246:233,1,60.0000022888184
317,183,81166,1,0,0:0:0:0:
196,274,81353,2,0,L|145:315,1,60.0000022888184
74,364,81541,5,0,0:0:0:0:
57,213,81916,1,0,0:0:0:0:
179,124,82291,1,0,0:0:0:0:
317,183,82666,1,0,0:0:0:0:
317,183,83041,5,0,0:0:0:0:
390,151,83228,1,0,0:0:0:0:
179,124,83416,6,0,P|206:145|229:155,1,40
247,65,83603,1,0,0:0:0:0:
260,253,83791,5,0,0:0:0:0:
338,267,83978,1,0,0:0:0:0:
179,124,84166,6,0,P|189:156|202:178,1,40
270,115,84353,1,0,0:0:0:0:
172,277,84541,5,0,0:0:0:0:
227,333,84728,1,0,0:0:0:0:
179,124,84916,6,0,P|168:156|166:181,1,40
259,169,85103,1,0,0:0:0:0:
86,246,85291,5,0,0:0:0:0:
98,323,85478,1,0,0:0:0:0:
179,124,85666,6,0,P|151:144|136:164,1,40
229,245,85853,2,0,L|219:207,1,40
256,340,86041,5,0,0:0:0:0:
256,340,86228,1,0,0:0:0:0:
357,313,86416,5,0,0:0:0:0:
357,313,86509,1,0,0:0:0:0:
357,313,86603,1,0,0:0:0:0:
229,245,86791,5,0,0:0:0:0:
229,245,86978,1,0,0:0:0:0:
330,218,87166,5,0,0:0:0:0:
330,218,87259,1,0,0:0:0:0:
330,218,87353,1,0,0:0:0:0:
303,123,87541,5,0,0:0:0:0:
303,123,87728,1,0,0:0:0:0:
202,150,87916,5,0,0:0:0:0:
202,150,88009,1,0,0:0:0:0:
202,150,88103,1,0,0:0:0:0:
276,28,88291,5,0,0:0:0:0:
276,28,88478,5,0,0:0:0:0:
175,55,88572,1,0,0:0:0:0:
276,28,88666,1,0,0:0:0:0:
25,263,89041,5,0,0:0:0:0:
86,117,89228,2,0,L|73:163,1,40
75,38,89416,5,0,0:0:0:0:
136,267,89603,2,0,L|123:220,1,40
125,346,89791,5,0,0:0:0:0:
183,171,89978,2,0,L|193:132,1,40
182,53,90166,5,0,0:0:0:0:
290,186,90353,2,0,L|302:139,1,40
279,265,90541,5,0,0:0:0:0:
301,378,90728,2,0,L|313:331,1,40
208,307,90916,5,0,0:0:0:0:
345,79,91103,2,0,L|392:91,1,40
266,68,91291,5,0,0:0:0:0:
422,353,91478,2,0,P|434:309|431:286,1,40
427,213,91666,2,0,P|426:182|432:154,1,40
475,75,91853,1,0,0:0:0:0:
475,75,91947,1,0,0:0:0:0:
475,75,92041,5,0,0:0:0:0:
291,146,92228,2,0,P|331:166|347:166,1,40
427,213,92416,5,0,0:0:0:0:
155,213,92603,2,0,P|195:193|211:193,1,40
291,146,92791,5,0,0:0:0:0:
19,146,92978,2,0,P|59:166|75:166,1,40
155,213,93166,5,0,0:0:0:0:
291,280,93353,2,0,P|251:260|235:260,1,40
155,213,93541,5,0,0:0:0:0:
19,280,93728,2,0,P|59:260|75:260,1,40
155,213,93916,5,0,0:0:0:0:
291,146,94103,2,0,P|251:166|235:166,1,40
155,213,94291,5,0,0:0:0:0:
19,146,94478,2,0,L|79:186,1,40
155,213,94666,2,0,L|215:253,1,40
291,280,94853,1,0,0:0:0:0:
291,280,95041,5,0,0:0:0:0:
367,115,95228,1,0,0:0:0:0:
387,112,95322,1,0,0:0:0:0:
396,94,95416,1,0,0:0:0:0:
384,78,95509,1,0,0:0:0:0:
364,80,95603,1,0,0:0:0:0:
356,98,95697,2,0,L|306:105,1,40
415,341,95978,5,0,0:0:0:0:
395,338,96072,1,0,0:0:0:0:
386,320,96166,1,0,0:0:0:0:
398,304,96259,1,0,0:0:0:0:
418,306,96353,1,0,0:0:0:0:
426,324,96447,2,0,L|476:331,1,40
113,247,96728,5,0,0:0:0:0:
133,244,96822,1,0,0:0:0:0:
142,226,96916,1,0,0:0:0:0:
130,210,97009,1,0,0:0:0:0:
110,212,97103,1,0,0:0:0:0:
102,230,97197,1,0,0:0:0:0:
136,302,97291,5,0,0:0:0:0:
136,302,97384,2,0,L|186:296,1,40
107,155,97572,2,0,L|57:161,1,40
230,236,97759,2,0,L|280:230,2,40
433,335,98228,5,0,0:0:0:0:
442,317,98322,1,0,0:0:0:0:
449,298,98416,1,0,0:0:0:0:
451,278,98509,1,0,0:0:0:0:
450,257,98603,1,0,0:0:0:0:
445,237,98697,1,0,0:0:0:0:
435,219,98791,2,0,P|397:167|376:155,1,80
306,142,99072,1,0,0:0:0:0:
230,236,99166,2,0,L|334:223,1,80
77,43,99541,6,0,L|64:91,1,40
112,115,99728,2,0,L|99:163,1,40
77,43,99916,1,0,0:0:0:0:
112,115,100009,1,0,0:0:0:0:
191,120,100103,1,0,0:0:0:0:
315,27,100291,6,0,P|270:29|234:54,1,90.0000034332277
413,142,100666,2,0,L|297:110,2,120.000004577637
112,338,101228,6,0,P|136:339|161:334,1,40
283,174,101416,1,0,0:0:0:0:
245,184,101510,1,0,0:0:0:0:
216,211,101604,1,0,0:0:0:0:
208,251,101698,1,0,0:0:0:0:
219,290,101791,2,0,L|234:347,1,40
132,213,101978,2,0,L|147:270,1,40
45,136,102166,2,0,L|60:193,2,40
219,290,102541,5,0,0:0:0:0:
208,251,102634,1,0,0:0:0:0:
216,211,102728,1,0,0:0:0:0:
245,184,102822,1,0,0:0:0:0:
283,174,102916,1,0,0:0:0:0:
321,165,103009,1,0,0:0:0:0:
350,137,103103,2,0,P|368:106|367:92,1,40
352,259,103291,2,0,P|342:224|332:215,1,40
439,343,103478,1,0,0:0:0:0:
400,333,103572,1,0,0:0:0:0:
364,350,103666,2,0,P|324:367|281:368,1,60.0000022888184
41,298,103853,5,0,0:0:0:0:
119,278,103947,1,0,0:0:0:0:
191,312,104041,2,0,P|271:346|365:349,2,180.000006866455
325,241,104791,5,0,0:0:0:0:
270,298,104978,1,0,0:0:0:0:
191,312,105166,1,0,0:0:0:0:
119,278,105353,1,0,0:0:0:0:
191,312,105541,5,0,0:0:0:0:
80,208,105916,1,0,0:0:0:0:
89,128,106291,1,0,0:0:0:0:
143,68,106478,1,0,0:0:0:0:
221,51,106666,1,0,0:0:0:0:
242,71,106759,2,0,L|223:55,1,20
269,82,106853,1,0,0:0:0:0:
298,84,106947,1,0,0:0:0:0:
327,77,107041,6,0,B|363:62|396:70|396:70|401:130|338:162,2,180.000006866455
474,331,107791,1,0,0:0:0:0:
397,356,107978,1,0,0:0:0:0:
474,251,108165,1,0,0:0:0:0:
397,226,108353,1,0,0:0:0:0:
350,291,108541,1,0,0:0:0:0:
251,246,108728,5,0,0:0:0:0:
246,265,108822,1,0,0:0:0:0:
241,285,108916,1,0,0:0:0:0:
211,160,109103,5,0,0:0:0:0:
197,146,109197,1,0,0:0:0:0:
182,132,109291,1,0,0:0:0:0:
344,158,109478,5,0,0:0:0:0:
324,164,109572,1,0,0:0:0:0:
305,169,109666,1,0,0:0:0:0:
241,285,109853,5,0,0:0:0:0:
246,265,109947,1,0,0:0:0:0:
251,246,110041,1,0,0:0:0:0:
211,160,110228,5,0,0:0:0:0:
197,146,110322,1,0,0:0:0:0:
182,132,110416,1,0,0:0:0:0:
305,169,110603,5,0,0:0:0:0:
324,164,110697,1,0,0:0:0:0:
344,158,110791,1,0,0:0:0:0:
182,132,110978,5,0,0:0:0:0:
197,146,111072,1,0,0:0:0:0:
211,160,111166,1,0,0:0:0:0:
241,285,111353,5,0,0:0:0:0:
246,265,111447,1,0,0:0:0:0:
251,246,111541,1,0,0:0:0:0:
182,132,111728,5,0,0:0:0:0:
197,146,111822,1,0,0:0:0:0:
211,160,111916,1,0,0:0:0:0:
305,169,112103,5,0,0:0:0:0:
324,164,112197,1,0,0:0:0:0:
344,158,112291,1,0,0:0:0:0:
241,285,112478,5,0,0:0:0:0:
246,265,112572,1,0,0:0:0:0:
251,246,112666,1,0,0:0:0:0:
182,132,112853,5,0,0:0:0:0:
197,146,112947,1,0,0:0:0:0:
211,160,113041,1,0,0:0:0:0:
344,158,113228,5,0,0:0:0:0:
324,164,113322,1,0,0:0:0:0:
305,169,113416,1,0,0:0:0:0:
251,246,113603,5,0,0:0:0:0:
246,265,113697,1,0,0:0:0:0:
241,285,113791,1,0,0:0:0:0:
182,132,113978,5,0,0:0:0:0:
197,146,114072,1,0,0:0:0:0:
211,160,114166,1,0,0:0:0:0:
305,169,114353,5,0,0:0:0:0:
324,164,114447,1,0,0:0:0:0:
344,158,114541,1,0,0:0:0:0:
242,115,114728,5,0,0:0:0:0:
306,69,114916,1,0,0:0:0:0:
376,107,115103,1,2,0:0:0:0:
256,192,115291,5,0,0:0:0:0:
329,218,115478,1,0,0:0:0:0:
337,296,115666,1,0,0:0:0:0:
269,338,115853,1,0,0:0:0:0:
256,192,116041,5,0,0:0:0:0:
122,130,116228,1,0,0:0:0:0:
124,210,116416,1,0,0:0:0:0:
196,242,116603,1,0,0:0:0:0:
256,192,116791,5,0,0:0:0:0:
242,115,116978,1,0,0:0:0:0:
306,69,117166,1,0,0:0:0:0:
306,69,117259,1,0,0:0:0:0:
306,69,117353,1,0,0:0:0:0:
371,186,117541,6,0,L|381:147,3,40
376,107,117915,5,0,0:0:0:0:
306,69,118009,1,0,0:0:0:0:
242,115,118103,1,0,0:0:0:0:
256,192,118196,1,0,0:0:0:0:
203,294,118291,6,0,L|231:322,3,40
269,338,118665,5,0,0:0:0:0:
337,296,118759,1,0,0:0:0:0:
329,218,118853,1,0,0:0:0:0:
256,192,118946,1,0,0:0:0:0:
193,95,119041,6,0,L|154:105,3,40
122,130,119415,5,0,0:0:0:0:
124,210,119509,1,0,0:0:0:0:
196,242,119603,1,0,0:0:0:0:
256,192,119696,1,0,0:0:0:0:
308,130,119791,6,0,P|347:117|397:125,1,80
385,120,120541,6,0,P|345:153|318:156,1,60.0000022888184
174,230,120728,1,0,0:0:0:0:
258,44,120822,6,0,P|266:95|255:120,1,60.0000022888184
247,282,121009,1,0,0:0:0:0:
129,116,121103,6,0,P|177:134|193:156,1,60.0000022888184
329,244,121290,1,0,0:0:0:0:
126,264,121384,6,0,P|167:231|194:228,1,60.0000022888184
338,154,121571,1,0,0:0:0:0:
253,339,121666,6,0,P|245:288|256:263,1,60.0000022888184
264,101,121853,1,0,0:0:0:0:
382,267,121947,6,0,P|334:249|318:227,1,60.0000022888184
182,139,122134,1,0,0:0:0:0:
385,120,122228,6,0,P|345:153|318:156,1,60.0000022888184
173,230,122415,1,0,0:0:0:0:
258,44,122509,6,0,P|266:95|255:120,1,60.0000022888184
247,282,122696,1,0,0:0:0:0:
129,116,122791,6,0,P|216:137|291:61,2,180.000006866455
262,248,123447,1,0,0:0:0:0:
262,248,123541,6,0,B|225:228|225:228|137:243,1,120.000004577637
166,329,123822,1,0,0:0:0:0:
254,337,123916,2,0,L|287:214,1,120.000004577637
246,47,124291,2,0,L|192:245,2,180.000006866455
348,110,125041,6,0,P|400:107|465:64,1,120.000004577637
164,110,125416,2,0,P|114:126|62:184,1,120.000004577637
348,110,125791,6,0,P|394:133|472:128,1,120.000004577637
164,110,126166,2,0,P|112:113|47:156,1,120.000004577637
136,218,126541,6,0,P|169:256|203:269,1,60.0000022888184
339,248,126728,1,0,0:0:0:0:
376,166,126822,6,0,P|343:128|309:115,1,60.0000022888184
190,116,127009,1,0,0:0:0:0:
133,186,127103,6,0,P|155:231|184:252,1,60.0000022888184
321,267,127291,1,0,0:0:0:0:
378,197,127385,6,0,P|356:152|327:131,1,60.0000022888184
212,102,127572,1,0,0:0:0:0:
139,154,127666,6,0,P|148:203|171:232,1,60.0000022888184
299,281,127854,1,0,0:0:0:0:
372,229,127948,6,0,P|363:180|340:151,1,60.0000022888184
236,93,128134,1,0,0:0:0:0:
152,125,128228,6,0,P|149:175|164:208,1,60.0000022888184
275,290,128416,1,0,0:0:0:0:
359,258,128510,6,0,P|362:208|347:175,1,60.0000022888184
262,92,128697,1,0,0:0:0:0:
173,101,128791,6,0,B|154:148|154:148|217:279,2,180.000006866455
468,114,129541,6,0,L|333:149,1,120.000004577637
295,165,129822,1,0,0:0:0:0:
295,165,129916,1,0,0:0:0:0:
295,165,130103,1,0,0:0:0:0:
295,165,130197,1,0,0:0:0:0:
237,184,130291,2,0,P|184:208|122:216,1,120.000004577637
72,183,130572,2,0,B|163:259|127:360|77:328,1,180.000006866455
0,56,131041,6,0,L|59:39,1,60.0000022888184
118,107,131228,2,0,L|179:117,1,60.0000022888184
193,28,131416,2,0,L|252:11,1,60.0000022888184
311,79,131603,2,0,L|372:89,1,60.0000022888184
72,183,131791,6,0,P|96:286|206:236,1,240
407,154,132166,2,0,P|287:122|295:236,1,240
198,288,132541,6,0,L|358:303,1,160
358,303,132916,2,0,L|177:287,1,160
48,332,133103,1,0,0:0:0:0:
98,299,133197,1,0,0:0:0:0:
120,243,133291,2,0,P|191:171|264:201,2,180.000006866455
313,94,134041,6,0,L|154:81,1,160
154,81,134416,2,0,L|334:96,1,160
388,57,134603,1,0,0:0:0:0:
392,141,134791,2,0,P|321:213|248:183,2,180.000006866455
168,344,135541,6,0,P|242:325|307:327,1,120.000004577637
101,187,135916,1,0,0:0:0:0:
209,238,136103,1,0,0:0:0:0:
329,241,136291,2,0,P|393:206|430:146,1,120.000004577637
269,33,136572,2,0,P|321:104|363:124,1,120.000004577637
426,80,136853,1,0,0:0:0:0:
426,80,137041,6,0,P|383:98|346:98,1,60.0000022888184
329,241,137228,2,0,P|372:259|409:259,1,60.0000022888184
101,187,137416,6,0,P|144:205|181:205,1,60.0000022888184
198,348,137603,2,0,P|155:366|118:366,1,60.0000022888184
329,241,137791,6,0,P|372:259|409:259,3,60.0000022888184
431,222,138166,1,0,0:0:0:0:
404,168,138259,1,0,0:0:0:0:
351,138,138353,1,0,0:0:0:0:
291,144,138447,1,0,0:0:0:0:
224,206,138541,5,0,0:0:0:0:
208,231,138634,1,0,0:0:0:0:
202,260,138728,1,0,0:0:0:0:
204,289,138822,1,0,0:0:0:0:
230,343,138916,6,0,P|190:250|87:194,1,160
69,190,139197,1,0,0:0:0:0:
37,275,139291,2,0,L|169:239,1,120.000004577637
236,125,139666,2,0,L|368:89,1,120.000004577637
311,313,140041,5,0,0:0:0:0:
427,284,140228,1,0,0:0:0:0:
343,197,140416,1,0,0:0:0:0:
427,284,140603,1,0,0:0:0:0:
311,313,140791,2,0,P|217:285|203:204,1,180.000006866455
147,271,141166,2,0,P|101:314|42:305,1,120.000004577637
47,116,141447,1,0,0:0:0:0:
42,102,141541,5,0,0:0:0:0:
121,183,141728,1,0,0:0:0:0:
122,168,141822,1,0,0:0:0:0:
125,154,141916,1,0,0:0:0:0:
42,102,142103,2,0,L|21:37,1,60.0000022888184
47,116,142291,1,0,0:0:0:0:
121,183,142478,1,0,0:0:0:0:
122,168,142572,1,0,0:0:0:0:
125,154,142666,1,0,0:0:0:0:
203,116,142853,2,0,L|182:51,1,60.0000022888184
281,154,143041,5,0,0:0:0:0:
203,116,143416,1,0,0:0:0:0:
125,154,143791,2,0,L|104:219,3,60.0000022888184
203,116,144166,2,0,L|221:58,1,60.0000022888184
281,154,144353,2,0,L|260:219,1,60.0000022888184
256,333,144541,5,0,0:0:0:0:
335,333,144822,1,0,0:0:0:0:
335,252,145103,1,0,0:0:0:0:
335,171,145291,5,0,0:0:0:0:
256,171,145572,1,0,0:0:0:0:
256,90,145853,1,0,0:0:0:0:
336,90,146041,5,0,0:0:0:0:
415,90,146322,1,0,0:0:0:0:
415,171,146603,1,0,0:0:0:0:
415,252,146791,5,0,0:0:0:0:
335,252,147072,1,0,0:0:0:0:
256,252,147353,1,0,0:0:0:0:
175,252,147541,5,0,0:0:0:0:
256,252,147822,1,0,0:0:0:0:
256,171,148103,1,0,0:0:0:0:
175,171,148291,5,0,0:0:0:0:
175,252,148572,1,0,0:0:0:0:
256,252,148853,1,0,0:0:0:0:
256,171,149041,5,0,0:0:0:0:
256,252,149322,1,0,0:0:0:0:
335,252,149603,1,0,0:0:0:0:
256,252,149791,5,0,0:0:0:0:
335,252,150072,1,0,0:0:0:0:
415,252,150353,1,0,0:0:0:0:
175,252,150541,5,0,0:0:0:0:
335,252,150822,1,0,0:0:0:0:
256,252,151103,1,0,0:0:0:0:
415,252,151291,5,0,0:0:0:0:
335,252,151572,1,0,0:0:0:0:
335,252,151853,1,0,0:0:0:0:
256,252,152041,5,0,0:0:0:0:
97,252,152322,1,0,0:0:0:0:
335,252,152603,1,0,0:0:0:0:
256,252,152791,5,0,0:0:0:0:
335,252,153072,1,0,0:0:0:0:
175,252,153353,1,0,0:0:0:0:
335,252,153541,5,0,0:0:0:0:
175,252,153822,1,0,0:0:0:0:
97,252,154103,1,0,0:0:0:0:
335,252,154291,5,0,0:0:0:0:
256,252,154572,1,0,0:0:0:0:
335,252,154853,1,0,0:0:0:0:
415,252,155041,5,0,0:0:0:0:
335,252,155322,1,0,0:0:0:0:
175,252,155603,1,0,0:0:0:0:
335,252,155791,5,0,0:0:0:0:
175,252,155978,1,0,0:0:0:0:
255,113,156166,1,0,0:0:0:0:
255,113,156259,2,0,L|255:82,6,20
153,124,156728,6,0,L|139:174,1,40
185,45,156916,1,0,0:0:0:0:
245,198,157103,6,0,L|245:250,1,40
255,113,157291,1,0,0:0:0:0:
354,246,157478,6,0,L|367:296,1,40
341,161,157666,1,0,0:0:0:0:
471,264,157853,6,0,L|497:309,1,40
437,185,158041,1,0,0:0:0:0:
106,337,158228,6,0,L|142:373,1,40
51,269,158416,1,0,0:0:0:0:
51,269,158603,6,0,L|0:282,1,40
137,256,158791,1,0,0:0:0:0:
137,256,158978,6,0,L|150:205,1,40
106,337,159166,2,0,L|142:373,1,40
51,269,159353,1,0,0:0:0:0:
354,246,159541,5,0,0:0:0:0:
354,246,159728,6,0,L|415:246,1,40
327,45,159916,1,0,0:0:0:0:
267,305,160103,6,0,L|325:320,1,40
257,113,160291,1,0,0:0:0:0:
167,339,160478,6,0,L|219:369,1,40
171,161,160666,1,0,0:0:0:0:
61,345,160853,6,0,L|104:388,1,40
75,185,161041,1,0,0:0:0:0:
242,71,161228,6,0,L|190:104,1,40
75,185,161416,1,0,0:0:0:0:
75,185,161603,6,0,L|129:212,1,40
256,273,161791,1,0,0:0:0:0:
256,273,161978,6,0,L|256:202,1,40
437,185,162166,2,0,L|382:212,1,40
270,71,162353,2,0,L|321:104,1,40
141,243,162541,5,0,0:0:0:0:
172,358,162728,6,0,L|185:306,1,40
225,157,162916,1,0,0:0:0:0:
56,326,163103,6,0,L|107:312,1,40
256,271,163291,1,0,0:0:0:0:
25,211,163478,6,0,L|62:248,1,40
172,356,163666,1,0,0:0:0:0:
109,125,163853,6,0,L|95:176,1,40
56,326,164041,1,0,0:0:0:0:
225,157,164228,6,0,L|173:170,1,40
25,212,164416,1,0,0:0:0:0:
256,272,164603,6,0,L|218:234,1,40
109,127,164791,1,0,0:0:0:0:
56,326,164978,6,0,L|93:288,1,40
225,157,165166,2,0,L|187:194,1,40
141,243,165353,1,0,0:0:0:0:
371,141,165541,5,0,0:0:0:0:
340,26,165728,6,0,L|326:77,1,40
403,259,165916,1,0,0:0:0:0:
456,58,166103,6,0,L|404:71,1,40
287,227,166291,1,0,0:0:0:0:
487,173,166478,6,0,L|449:135,1,40
256,112,166666,1,0,0:0:0:0:
403,259,166853,6,0,L|416:207,1,40
340,26,167041,1,0,0:0:0:0:
287,227,167228,6,0,L|338:213,1,40
456,58,167416,1,0,0:0:0:0:
256,112,167603,6,0,L|293:149,1,40
487,173,167791,2,0,L|449:135,15,40
487,173,168541,5,0,0:0:0:0:
383,233,168822,1,0,0:0:0:0:
352,349,169103,1,0,0:0:0:0:
383,233,169291,2,0,P|365:189|372:128,1,80
408,45,169666,1,0,0:0:0:0:
104,45,169853,1,0,0:0:0:0:
25,173,170041,5,0,0:0:0:0:
129,233,170322,1,0,0:0:0:0:
160,349,170603,1,0,0:0:0:0:
352,349,170791,5,0,0:0:0:0:
383,233,170978,1,0,0:0:0:0:
487,173,171166,1,0,0:0:0:0:
408,45,171353,1,0,0:0:0:0:
408,45,171541,6,0,B|330:99|256:62|256:62|175:12|93:50,1,320
104,45,173041,6,0,B|182:99|256:62|256:62|337:12|419:50,1,320
256,324,174353,1,0,0:0:0:0:
256,324,174541,5,0,0:0:0:0:
256,204,174822,1,0,0:0:0:0:
256,84,175103,1,0,0:0:0:0:
256,84,175291,5,0,0:0:0:0:
256,324,175478,1,0,0:0:0:0:
256,324,175666,1,0,0:0:0:0:
104,338,175853,1,0,0:0:0:0:
408,339,176041,6,0,B|330:285|256:322|256:322|175:372|93:334,1,320
104,339,177541,6,0,B|182:285|256:322|256:322|337:372|419:334,3,320
360,236,179041,2,0,B|455:229|474:146|474:146|340:137|340:39,1,320
152,236,180166,5,0,0:0:0:0:
152,236,180259,1,0,0:0:0:0:
152,236,180353,1,0,0:0:0:0:
152,236,180447,1,0,0:0:0:0:
152,236,180541,1,0,0:0:0:0:
256,89,180822,1,0,0:0:0:0:
360,236,181103,1,0,0:0:0:0:
128,114,181291,1,0,0:0:0:0:
128,114,181666,1,0,0:0:0:0:
384,114,181853,1,0,0:0:0:0:
384,114,182041,5,0,0:0:0:0:
255,316,182322,1,0,0:0:0:0:
128,114,182603,1,0,0:0:0:0:
360,236,182791,1,0,0:0:0:0:
256,89,182978,1,0,0:0:0:0:
152,236,183166,1,0,0:0:0:0:
360,236,183353,1,0,0:0:0:0:
360,236,183541,6,0,P|427:203|458:204,1,80
269,266,183916,2,0,P|273:191|290:165,1,80
249,359,184291,2,0,P|186:317|172:290,1,80
432,300,184666,2,0,P|494:341|508:368,1,80
342,332,185041,5,0,0:0:0:0:
227,297,185322,1,0,0:0:0:0:
125,361,185603,1,0,0:0:0:0:
192,192,185791,5,0,0:0:0:0:
320,192,185978,1,0,0:0:0:0:
359,186,186071,1,0,0:0:0:0:
392,164,186165,1,0,0:0:0:0:
414,131,186259,1,0,0:0:0:0:
421,92,186353,1,0,0:0:0:0:
411,54,186446,1,0,0:0:0:0:
387,23,186541,5,0,0:0:0:0:
285,87,186822,1,0,0:0:0:0:
170,52,187103,1,0,0:0:0:0:
125,361,187291,5,0,0:0:0:0:
227,297,187479,1,0,0:0:0:0:
342,332,187666,1,0,0:0:0:0:
461,196,187853,5,0,0:0:0:0:
414,131,188041,1,0,0:0:0:0:
337,156,188228,1,0,0:0:0:0:
337,156,188322,1,0,0:0:0:0:
337,156,188416,1,0,0:0:0:0:
337,236,188603,1,0,0:0:0:0:
414,261,188791,1,0,0:0:0:0:
337,156,188978,5,0,0:0:0:0:
337,236,189166,1,0,0:0:0:0:
260,131,189354,1,0,0:0:0:0:
260,261,189541,5,0,0:0:0:0:
213,196,189916,1,0,0:0:0:0:
136,221,190291,1,0,0:0:0:0:
136,301,190666,1,0,0:0:0:0:
212,326,190853,5,0,0:0:0:0:
260,260,191041,1,0,0:0:0:0:
136,301,191228,1,0,0:0:0:0:
136,221,191416,1,0,0:0:0:0:
213,196,191603,1,0,0:0:0:0:
213,196,191791,1,0,0:0:0:0:
136,221,191978,5,0,0:0:0:0:
136,301,192072,1,0,0:0:0:0:
212,326,192166,1,0,0:0:0:0:
260,260,192259,1,0,0:0:0:0:
213,196,192353,1,0,0:0:0:0:
136,221,192447,1,0,0:0:0:0:
256,192,194791,12,0,195166,0:0:0:0:
204,162,195541,6,0,L|256:192,1,60.0000022888184
127,118,195728,1,0,0:0:0:0:
255,132,195822,6,0,L|256:192,1,60.0000022888184
256,44,196009,1,0,0:0:0:0:
307,161,196103,6,0,L|256:192,1,60.0000022888184
384,118,196290,1,0,0:0:0:0:
307,221,196384,6,0,L|256:192,1,60.0000022888184
384,265,196571,1,0,0:0:0:0:
256,252,196666,6,0,L|256:192,1,60.0000022888184
256,340,196853,1,0,0:0:0:0:
204,222,196947,6,0,L|256:192,1,60.0000022888184
127,266,197134,1,0,0:0:0:0:
204,162,197228,6,0,L|256:192,1,60.0000022888184
127,118,197415,1,0,0:0:0:0:
255,132,197509,6,0,L|256:192,1,60.0000022888184
256,44,197696,1,0,0:0:0:0:
307,161,197791,6,0,L|186:232,2,120.000004577637
384,118,198447,1,0,0:0:0:0:
384,118,198541,5,0,0:0:0:0:
439,192,198728,1,0,0:0:0:0:
384,266,198916,1,0,0:0:0:0:
384,118,199103,1,0,0:0:0:0:
439,192,199291,5,0,0:0:0:0:
384,266,199572,1,0,0:0:0:0:
439,192,199853,1,0,0:0:0:0:
384,118,200041,5,0,0:0:0:0:
384,266,200228,1,0,0:0:0:0:
439,192,200416,1,0,0:0:0:0:
384,118,200603,1,0,0:0:0:0:
384,266,200791,1,0,0:0:0:0:
384,266,201166,1,0,0:0:0:0:
185,193,201541,6,0,P|173:150|151:131,1,60.0000022888184
256,138,201728,1,0,0:0:0:0:
327,193,201822,6,0,P|339:150|361:131,1,60.0000022888184
256,138,202009,1,0,0:0:0:0:
164,214,202103,6,0,P|141:175|115:162,1,60.0000022888184
256,138,202291,1,0,0:0:0:0:
348,214,202384,6,0,P|370:175|396:162,1,60.0000022888184
256,138,202572,1,0,0:0:0:0:
149,239,202666,6,0,P|117:207|88:202,1,60.0000022888184
256,138,202853,1,0,0:0:0:0:
363,239,202947,6,0,P|394:207|423:202,1,60.0000022888184
256,138,203134,1,0,0:0:0:0:
137,87,203228,6,0,L|199:62,1,60.0000022888184
256,138,203416,1,0,0:0:0:0:
375,87,203509,6,0,L|313:62,1,60.0000022888184
256,138,203697,1,0,0:0:0:0:
255,312,203791,6,0,B|274:259|256:214|256:214|235:169|256:138,2,180.000006866455
128,118,204541,5,0,0:0:0:0:
73,192,204728,1,0,0:0:0:0:
128,266,204916,1,0,0:0:0:0:
73,192,205103,1,0,0:0:0:0:
128,118,205291,5,0,0:0:0:0:
128,266,205572,1,0,0:0:0:0:
128,118,205853,1,0,0:0:0:0:
128,266,206041,5,0,0:0:0:0:
128,118,206228,1,0,0:0:0:0:
73,192,206416,1,0,0:0:0:0:
73,192,206603,1,0,0:0:0:0:
307,325,206791,6,0,L|324:258,1,60.0000022888184
400,214,206978,2,0,L|417:147,1,60.0000022888184
493,103,207166,2,0,L|510:36,1,60.0000022888184
400,214,207353,2,0,L|417:147,1,60.0000022888184
307,325,207541,6,0,L|324:258,1,60.0000022888184
307,325,207822,1,0,0:0:0:0:
307,325,207916,2,0,P|239:318|174:350,1,120.000004577637
155,264,208197,1,0,0:0:0:0:
155,264,208291,2,0,P|229:237|377:268,2,180.000006866455
410,37,209041,5,0,0:0:0:0:
332,127,209228,1,0,0:0:0:0:
370,81,209322,1,0,0:0:0:0:
410,37,209416,1,0,0:0:0:0:
332,127,209603,1,0,0:0:0:0:
180,127,209791,2,0,P|217:191|212:243,1,120.000004577637
332,127,210072,2,0,P|295:191|300:243,1,120.000004577637
256,337,210353,2,0,L|256:256,1,60.0000022888184
256,28,210541,5,0,0:0:0:0:
57,366,210728,2,0,P|91:336|98:316,1,60.0000022888184
101,211,210916,2,0,L|74:148,1,60.0000022888184
115,44,211103,2,0,P|159:20|216:15,1,60.0000022888184
101,211,211291,2,0,B|78:157|78:157|83:48|150:20,2,180.000006866455
397,44,212041,6,0,P|352:20|295:15,1,60.0000022888184
411,211,212228,2,0,L|438:148,1,60.0000022888184
101,211,212416,2,0,L|74:148,1,60.0000022888184
57,366,212603,2,0,P|91:336|98:316,1,60.0000022888184
256,38,212791,5,0,0:0:0:0:
256,97,212884,1,0,0:0:0:0:
256,157,212978,1,0,0:0:0:0:
256,217,213072,1,0,0:0:0:0:
256,277,213166,5,0,0:0:0:0:
256,336,213259,1,0,0:0:0:0:
256,277,213353,1,0,0:0:0:0:
256,336,213446,1,0,0:0:0:0:
317,217,213541,5,0,0:0:0:0:
287,217,213634,1,0,0:0:0:0:
256,217,213728,1,0,0:0:0:0:
225,217,213822,1,0,0:0:0:0:
194,217,213916,1,0,0:0:0:0:
225,97,214103,1,0,0:0:0:0:
256,97,214197,1,0,0:0:0:0:
287,97,214291,1,0,0:0:0:0:
105,97,214478,2,0,L|180:97,1,60.0000022888184
347,97,214666,1,0,0:0:0:0:
347,97,214853,6,0,L|422:97,1,60.0000022888184
444,180,215041,1,0,0:0:0:0:
485,292,215228,1,0,0:0:0:0:
331,221,215416,1,0,0:0:0:0:
373,334,215603,1,0,0:0:0:0:
181,221,215791,5,0,0:0:0:0:
139,334,216072,1,0,0:0:0:0:
27,292,216353,1,0,0:0:0:0:
68,180,216540,1,0,0:0:0:0:
181,89,216728,6,0,P|232:69|269:73,1,60.0000022888184
358,117,216916,1,0,0:0:0:0:
358,117,217103,6,0,P|379:168|375:205,1,60.0000022888184
330,294,217291,1,0,0:0:0:0:
330,294,217478,6,0,P|280:315|243:311,1,60.0000022888184
153,266,217666,1,0,0:0:0:0:
153,266,217853,6,0,P|133:216|137:179,1,60.0000022888184
210,73,218041,6,0,P|264:66|299:80,3,60.0000022888184
374,146,218416,6,0,P|381:200|367:235,3,60.0000022888184
301,310,218791,6,0,P|247:317|212:303,3,60.0000022888184
137,237,219166,5,0,0:0:0:0:
137,237,219353,1,0,0:0:0:0:
242,65,219541,5,0,0:0:0:0:
382,178,219916,5,0,0:0:0:0:
269,318,220103,5,0,0:0:0:0:
129,205,220291,6,0,P|137:151|159:121,3,60.0000022888184
275,66,220666,6,0,P|326:88|349:117,3,60.0000022888184
381,211,221041,5,0,0:0:0:0:
275,66,221416,5,0,0:0:0:0:
236,317,221603,5,0,0:0:0:0:
275,66,221791,5,0,0:0:0:0:
381,211,222166,5,0,0:0:0:0:
130,172,222541,5,0,0:0:0:0:
464,301,223291,6,0,B|450:310|443:335|443:335|437:371|418:372,3,80
275,121,223666,2,0,P|465:136|463:227,1,320
170,192,224228,5,0,0:0:0:0:
88,192,224415,1,0,0:0:0:0:
128,191,224509,1,0,0:0:0:0:
170,192,224603,1,0,0:0:0:0:
205,35,224791,5,0,0:0:0:0:
229,111,224978,1,0,0:0:0:0:
229,111,225166,1,0,0:0:0:0:
217,72,225260,1,0,0:0:0:0:
229,111,225354,1,0,0:0:0:0:
324,142,225541,5,0,0:0:0:0:
389,95,225728,1,0,0:0:0:0:
324,142,225916,1,0,0:0:0:0:
358,118,226010,1,0,0:0:0:0:
389,95,226104,1,0,0:0:0:0:
389,289,226291,5,0,0:0:0:0:
324,242,226478,1,0,0:0:0:0:
324,242,226666,1,0,0:0:0:0:
358,266,226760,1,0,0:0:0:0:
389,289,226854,1,0,0:0:0:0:
358,266,226947,1,0,0:0:0:0:
324,242,227041,1,0,0:0:0:0:
229,272,227228,6,0,L|211:328,3,40.000001525879
148,357,227603,1,0,0:0:0:0:
116,266,227978,5,0,0:0:0:0:
143,148,228166,1,0,0:0:0:0:
51,207,228353,1,0,0:0:0:0:
51,207,228541,6,0,B|104:205|143:148|143:148|87:270|148:357|148:357|307:350|489:202|424:3|145:53|205:276|309:325,1,960.000036621095
446,370,229666,2,0,B|447:351|480:333|480:333|514:317|519:287|486:274|460:295|460:295|440:257|416:271|416:300|430:322|430:322|424:344|398:357,1,240.000009155274
