osu file format v14

[General]
AudioFilename: audio.ogg
AudioLeadIn: 0
PreviewTime: 59766
Countdown: 0
SampleSet: Soft
StackLeniency: 0.5
Mode: 0
LetterboxInBreaks: 0
WidescreenStoryboard: 0

[Editor]
DistanceSpacing: 0.5
BeatDivisor: 4
GridSize: 16
TimelineZoom: 1.9

[Metadata]
Title:Kimiiro no Kiseki (TV Size)
TitleUnicode:君色のキセキ (TV Size)
Artist:Ogura Yui
ArtistUnicode:小倉唯
Creator:Sagisawa Arisa
Version:Tenshi
Source:ワンルーム、日当たり普通、天使つき。
Tags:One Room, Hiatari Futsuu, Tenshi Tsuki. Studio Apartment, Good Lighting, Angel Included japanese pop j pop j-pop jpop anime op opening poyoyo kohno marika kohno_marika arronchu1207 chu
BeatmapID:4557288
BeatmapSetID:2161068

[Difficulty]
HPDrainRate:5
CircleSize:4
OverallDifficulty:8.3
ApproachRate:9
SliderMultiplier:1.6
SliderTickRate:1

[Events]
//Background and Video events
0,0,"a.jpg",0,0
Video,0,"tenshi.mp4"
//Break Periods
2,83449,84970
//Storyboard Layer 0 (Background)
//Storyboard Layer 1 (Fail)
//Storyboard Layer 2 (Pass)
//Storyboard Layer 3 (Foreground)
//Storyboard Layer 4 (Overlay)
//Storyboard Sound Samples

[TimingPoints]
-2465,357.142857142857,4,2,1,40,1,0
392,-166.666666666667,4,2,1,40,0,0
3159,-166.666666666667,4,2,1,5,0,0
3249,-142.857142857143,4,2,1,50,0,0
8963,-125,4,2,1,70,0,0
11820,-125,4,2,1,80,0,0
12356,-100,4,2,1,80,0,0
14320,-66.6666666666667,4,2,1,80,0,0
15570,-100,4,2,1,80,0,0
19499,-333.333333333334,4,2,1,80,0,0
20034,-71.4285714285714,4,2,1,80,0,0
20392,-100,4,2,1,80,0,0
26463,-142.857142857143,4,2,1,60,0,0
34677,-111.111111111111,4,2,1,70,0,0
37177,-166.666666666667,4,2,1,70,0,0
37534,-111.111111111111,4,2,1,70,0,0
48963,-142.857142857143,4,2,1,65,0,0
54677,-142.857142857143,4,2,1,70,0,0
55213,-111.111111111111,4,2,1,70,0,0
57534,-111.111111111111,4,2,1,75,0,0
60034,-76.9230769230769,4,2,1,80,0,0
60392,-90.9090909090909,4,2,1,80,0,1
83249,-90.9090909090909,4,2,1,80,0,0
85749,-90.9090909090909,4,2,1,80,0,1
86106,357.142857142857,4,2,1,80,1,0
86106,-90.9090909090909,4,2,1,80,0,0
88070,-90.9090909090909,4,2,1,80,0,0

[Colours]
Combo1 : 223,237,167
Combo2 : 158,245,241
Combo3 : 157,171,247
Combo4 : 164,240,173

[HitObjects]
331,133,392,6,0,P|377:135|419:93,1,95.9999999999998,2|0,2:0|2:0,2:0:0:0:
236,91,1106,2,0,L|226:41,2,47.9999999999999,2|0|0,2:0|2:0|2:0,2:0:0:0:
256,192,1642,1,2,2:0:0:0:
256,192,1731,12,0,3159,2:0:0:0:
150,99,3249,6,0,B|89:97|108:54|32:60,2,112,2|0|2,2:0|2:0|2:0,2:0:0:0:
150,99,4320,1,0,2:0:0:0:
240,48,4499,2,0,P|260:104|234:156,1,112,2|0,2:0|2:0,2:0:0:0:
174,207,5034,1,0,2:0:0:0:
280,272,5213,2,0,L|399:255,1,112,2|0,2:0|2:0,2:0:0:0:
391,257,5927,5,0,2:0:0:0:
475,110,6106,2,0,P|430:115|382:172,1,112,2|0,2:0|2:0,2:0:0:0:
302,205,6642,2,0,P|328:241|402:254,1,112,2|0,2:0|2:0,2:0:0:0:
510,378,7356,5,0,2:0:0:0:
510,378,7534,2,0,L|398:364,1,112,2|0,2:0|2:0,2:0:0:0:
321,300,8070,2,0,L|209:314,1,112,2|0,2:0|2:0,2:0:0:0:
128,356,8606,2,0,L|117:296,1,55.9999999999999,2|0,2:0|2:0,2:0:0:0:
96,267,8874,1,0,2:0:0:0:
96,267,8963,6,0,P|153:243|166:177,1,128,2|2,2:0|2:0,2:0:0:0:
125,100,9499,1,0,2:0:0:0:
125,100,9677,2,0,P|151:131|235:139,1,128,2|0,2:0|2:0,2:0:0:0:
348,30,10213,2,0,L|331:159,1,128,2|0,2:0|2:0,2:0:0:0:
391,237,10749,1,0,2:0:0:0:
391,237,10927,2,0,P|443:241|456:167,1,128,2|0,2:0|2:0,2:0:0:0:
306,271,11463,6,0,L|300:323,1,32,2|2,2:0|2:0,2:0:0:0:
236,208,11642,2,0,L|230:156,1,32,2|2,2:0|2:0,2:0:0:0:
356,144,11820,5,6,1:2:0:0:
215,300,11999,1,0,1:0:0:0:
215,300,12088,1,0,1:0:0:0:
215,300,12177,1,2,1:2:0:0:
71,186,12356,2,0,L|154:195,1,80,10|0,2:0|2:0,2:0:0:0:
294,291,12713,2,0,L|211:300,1,80,2|0,1:2|2:0,2:0:0:0:
70,374,13070,6,0,P|17:322|59:254,1,160,4|2,1:0|1:2,2:0:0:0:
159,155,13606,2,0,L|147:210,1,40,8|0,2:0|2:0,2:0:0:0:
31,70,13784,2,0,P|68:69|107:102,1,80,2|0,1:2|2:0,2:0:0:0:
159,155,14052,1,8,2:0:0:0:
172,153,14142,1,8,2:0:0:0:
185,152,14231,1,8,2:0:0:0:
198,150,14320,6,0,B|197:196|244:219|244:219|290:187|273:125,1,180,12|0,1:2|2:0,2:0:0:0:
226,70,14677,5,4,1:0:0:0:
323,208,14856,1,0,2:0:0:0:
371,50,15034,1,8,2:0:0:0:
461,127,15213,5,2,2:0:0:0:
461,127,15302,1,2,2:0:0:0:
461,127,15392,1,8,2:0:0:0:
323,208,15570,2,0,L|420:223,1,80,0|8,1:0|2:0,2:0:0:0:
496,370,15927,6,0,P|434:341|339:346,1,160,2|0,1:2|1:0,2:0:0:0:
256,377,16463,2,0,L|195:366,1,40,8|0,2:0|2:0,2:0:0:0:
152,212,16642,2,0,P|186:212|233:184,1,80,2|0,1:2|2:0,2:0:0:0:
90,67,16999,2,0,L|73:162,1,80,0|8,1:2|2:0,2:0:0:0:
243,20,17356,5,0,1:0:0:0:
243,20,17445,1,0,1:0:0:0:
243,20,17534,1,10,2:0:0:0:
90,67,17713,1,0,2:0:0:0:
226,191,17892,1,8,2:0:0:0:
76,236,18070,5,0,1:0:0:0:
76,236,18159,1,0,1:0:0:0:
76,236,18249,2,0,L|65:292,1,40,10|0,2:0|2:0,2:0:0:0:
148,350,18427,2,0,L|159:294,1,40,2|0,1:2|2:0,2:0:0:0:
226,191,18606,2,0,L|215:247,1,40,8|0,2:0|2:0,2:0:0:0:
437,338,18784,6,0,P|374:342|311:266,1,160,4|0,1:2|1:0,2:0:0:0:
382,195,19320,1,8,2:0:0:0:
285,133,19499,6,0,L|324:139,1,35.9999999999999,2|0,1:2|2:0,2:0:0:0:
390,202,19856,5,0,1:0:0:0:
390,202,19945,1,0,1:0:0:0:
390,202,20034,2,0,P|456:196|469:92,1,168,12|0,2:0|2:0,2:0:0:0:
414,31,20392,6,0,P|375:54|317:47,1,80,4|0,1:0|2:0,2:0:0:0:
285,133,20659,1,0,2:0:0:0:
285,133,20749,2,0,P|241:121|205:75,1,80,10|0,2:0|2:0,2:0:0:0:
121,113,21017,1,8,2:0:0:0:
121,113,21106,2,0,P|98:73|105:15,1,80,2|0,1:2|2:0,2:0:0:0:
132,273,21463,5,8,2:0:0:0:
0,210,21642,2,0,L|83:198,1,80,2|0,2:0|1:0,2:0:0:0:
222,249,21999,1,2,2:0:0:0:
100,355,22177,1,8,2:0:0:0:
206,366,22356,6,0,L|218:283,1,80,2|0,2:0|1:0,2:0:0:0:
226,253,22624,1,0,1:0:0:0:
226,253,22713,1,8,2:0:0:0:
175,113,22892,1,8,2:0:0:0:
79,198,23070,1,4,2:3:0:0:
295,150,23249,6,0,L|304:208,1,40,6|0,1:2|2:0,2:0:0:0:
329,327,23427,1,8,2:0:0:0:
329,327,23517,1,8,2:0:0:0:
329,327,23606,1,8,2:0:0:0:
482,229,23784,1,2,1:2:0:0:
482,229,24142,5,2,1:2:0:0:
404,277,24320,1,8,2:0:0:0:
327,111,24499,2,0,P|290:128|228:126,1,80,2|0,1:2|2:0,2:0:0:0:
403,174,24856,1,0,1:0:0:0:
471,25,25034,1,8,2:0:0:0:
333,9,25213,5,8,2:3:0:0:
313,8,25302,1,4,2:3:0:0:
294,15,25392,1,0,1:0:0:0:
279,29,25481,1,0,1:0:0:0:
271,47,25570,1,8,2:0:0:0:
247,165,25749,1,4,2:3:0:0:
98,84,25927,1,0,1:0:0:0:
98,84,26463,6,0,P|94:47|77:15,2,55.9999999999999,2|0|0,2:0|1:0|2:0,2:0:0:0:
98,84,27177,1,2,2:0:0:0:
27,153,27356,2,0,P|5:199|34:252,1,112,0|0,1:0|2:0,2:0:0:0:
98,299,27892,1,2,2:0:0:0:
2,324,28070,2,0,P|29:296|101:301,1,112,0|0,1:2|2:0,2:0:0:0:
176,355,28606,1,2,2:0:0:0:
298,232,28963,1,2,2:0:0:0:
298,232,29320,6,0,P|342:247|373:248,2,55.9999999999999,2|0|0,2:0|1:0|2:0,2:0:0:0:
298,232,30034,1,2,2:0:0:0:
227,176,30213,2,0,P|254:147|337:151,1,112,0|0,1:0|2:0,2:0:0:0:
414,166,30749,1,2,2:0:0:0:
382,69,30927,2,0,P|417:110|414:165,1,112,0|0,1:2|2:0,2:0:0:0:
349,228,31463,2,0,L|358:287,1,55.9999999999999,2|0,2:0|2:0,2:0:0:0:
259,194,31820,5,2,1:2:0:0:
259,194,32177,1,2,2:0:0:0:
170,155,32356,2,0,P|162:121|176:95,1,55.9999999999999,0|0,1:2|2:0,2:0:0:0:
252,12,32713,2,0,P|260:46|246:72,1,55.9999999999999,2|0,2:0|2:0,2:0:0:0:
170,103,33070,1,0,1:0:0:0:
99,42,33249,6,0,P|50:50|20:107,1,112,2|0,2:0|2:0,2:0:0:0:
40,191,33784,2,0,L|53:248,1,55.9999999999999,0|0,1:2|2:0,2:0:0:0:
152,267,34142,2,0,L|139:210,1,55.9999999999999,2|0,2:0|2:0,2:0:0:0:
81,343,34499,5,2,2:0:0:0:
81,343,34588,1,2,2:0:0:0:
81,343,34677,2,0,P|109:363|157:358,1,72.0000000000001,2|8,1:2|2:0,2:0:0:0:
220,331,34945,1,8,2:0:0:0:
220,331,35034,1,8,2:0:0:0:
210,141,35213,5,2,1:2:0:0:
354,199,35570,1,2,1:2:0:0:
445,65,35927,2,0,P|405:49|321:94,1,144,2|8,1:2|2:0,2:0:0:0:
354,199,36463,1,8,2:0:0:0:
210,141,36642,1,8,2:0:0:0:
218,148,36999,5,0,1:0:0:0:
218,148,37088,1,0,1:0:0:0:
218,148,37177,2,0,L|232:224,1,71.9999999999998,12|0,2:0|2:0,2:0:0:0:
187,289,37534,6,0,P|128:270|62:263,1,108,4|0,1:0|2:0,2:0:0:0:
47,285,37892,1,8,2:0:0:0:
0,132,38070,1,2,1:2:0:0:
0,132,38159,1,8,2:0:0:0:
0,132,38249,1,0,1:2:0:0:
99,168,38427,1,0,1:0:0:0:
0,284,38606,1,8,2:0:0:0:
124,351,38784,2,0,L|209:337,1,72.0000000000001,2|0,2:0|1:0,2:0:0:0:
305,226,39142,5,2,1:2:0:0:
336,317,39320,1,8,2:0:0:0:
203,251,39499,2,0,P|191:216|211:180,1,72.0000000000001,2|0,2:0|1:0,2:0:0:0:
269,76,39856,1,0,1:0:0:0:
150,105,40034,1,8,2:0:0:0:
295,182,40213,1,0,1:0:0:0:
408,44,40392,6,0,L|394:134,1,72.0000000000001,0|0,1:0|2:0,2:0:0:0:
494,262,40749,2,0,L|486:187,1,72.0000000000001,10|0,2:0|1:2,2:0:0:0:
487,190,41017,1,8,2:0:0:0:
487,190,41106,1,2,1:2:0:0:
399,322,41284,1,0,1:0:0:0:
261,275,41463,1,8,2:0:0:0:
287,145,41642,2,0,P|313:182|303:231,1,72.0000000000001,2|0,2:0|1:0,2:0:0:0:
261,275,41999,1,0,1:0:0:0:
196,125,42177,6,0,L|104:137,1,72.0000000000001,8|0,2:0|1:0,2:0:0:0:
92,118,42445,1,8,2:0:0:0:
92,118,42534,2,0,P|77:85|83:50,1,72.0000000000001,2|0,1:2|1:0,2:0:0:0:
171,210,42892,2,0,P|186:243|180:278,1,72.0000000000001,8|8,2:0|2:0,2:0:0:0:
162,313,43159,1,8,2:0:0:0:
162,313,43249,1,4,1:2:0:0:
67,356,43427,5,2,2:0:0:0:
0,242,43606,2,0,L|72:251,1,72.0000000000001,8|2,2:0|1:2,2:0:0:0:
71,250,43874,1,8,2:0:0:0:
71,250,43963,1,0,1:2:0:0:
162,313,44142,5,0,1:0:0:0:
221,180,44320,1,8,2:0:0:0:
162,313,44499,1,2,2:0:0:0:
121,165,44677,6,0,L|104:90,1,72.0000000000001,0|0,1:0|1:0,2:0:0:0:
264,16,45034,1,8,2:0:0:0:
264,16,45213,2,0,L|247:91,1,72.0000000000001,2|0,1:2|2:0,2:0:0:0:
221,180,45570,1,0,1:0:0:0:
342,69,45749,1,8,2:0:0:0:
424,140,45927,5,4,2:3:0:0:
424,140,46017,1,8,2:0:0:0:
424,140,46106,1,2,1:2:0:0:
248,86,46284,1,0,1:0:0:0:
357,212,46463,1,8,2:0:0:0:
480,27,46642,2,0,L|396:13,1,72.0000000000001,2|0,1:2|2:0,2:0:0:0:
274,123,46999,2,0,L|345:111,1,72.0000000000001,2|8,1:2|2:0,2:0:0:0:
475,290,47356,6,0,P|424:354|345:331,1,144,2|8,1:2|2:0,2:0:0:0:
287,290,47892,1,0,1:0:0:0:
458,184,48070,1,8,2:0:0:0:
458,184,48159,1,8,2:0:0:0:
458,184,48249,1,0,1:0:0:0:
310,145,48427,5,8,2:0:0:0:
367,272,48606,1,8,2:3:0:0:
276,308,48784,1,0,1:0:0:0:
192,231,48963,6,0,P|139:209|83:243,1,112,6|0,1:2|2:0,2:0:0:0:
92,230,49499,1,0,1:0:0:0:
28,358,49677,2,0,L|153:342,1,112,8|0,2:0|2:0,2:0:0:0:
234,277,50213,5,8,2:0:0:0:
234,277,50302,1,8,2:0:0:0:
234,277,50392,2,0,L|293:293,2,55.9999999999999,2|8|0,1:2|2:0|1:0,2:0:0:0:
84,175,51106,6,0,L|67:84,1,83.9999999999999,12|0,2:0|2:0,2:0:0:0:
145,42,51463,2,0,L|162:133,1,83.9999999999999,0|0,1:0|2:0,2:0:0:0:
177,204,51820,6,0,P|228:211|279:180,1,112,2|0,1:2|2:0,2:0:0:0:
278,181,52356,1,0,1:0:0:0:
360,69,52534,2,0,L|451:82,1,83.9999999999999,8|0,2:0|2:0,2:0:0:0:
471,107,52892,2,0,P|477:149|460:177,1,55.9999999999999,8|0,2:3|1:0,2:0:0:0:
452,196,53159,1,0,1:0:0:0:
452,196,53249,1,10,2:0:0:0:
360,69,53606,5,2,1:2:0:0:
452,196,53784,1,8,2:0:0:0:
452,196,54142,5,2,1:2:0:0:
438,200,54231,1,2,2:0:0:0:
424,204,54320,1,8,2:0:0:0:
410,208,54409,1,2,2:0:0:0:
396,212,54499,1,8,2:0:0:0:
382,216,54588,1,8,2:0:0:0:
368,220,54677,1,6,1:2:0:0:
212,269,54856,5,0,2:0:0:0:
300,332,55034,1,8,2:0:0:0:
368,220,55213,2,0,L|351:149,1,72.0000000000001,2|8,2:0|2:0,2:0:0:0:
208,22,55570,5,0,1:0:0:0:
143,104,55749,1,8,2:0:0:0:
283,165,55927,2,0,L|354:148,1,72.0000000000001,2|8,1:2|2:0,2:0:0:0:
487,67,56284,5,0,1:0:0:0:
512,175,56463,1,8,2:0:0:0:
361,156,56642,1,2,1:2:0:0:
361,156,56731,1,0,1:0:0:0:
361,156,56820,1,8,2:0:0:0:
303,305,56999,5,0,1:0:0:0:
393,252,57177,1,8,2:0:0:0:
251,176,57356,2,0,L|196:187,1,36,2|0,1:2|2:0,2:0:0:0:
104,204,57534,5,8,2:0:0:0:
264,140,57713,1,8,2:0:0:0:
181,297,57892,1,0,1:0:0:0:
82,99,58070,2,0,L|166:115,1,72.0000000000001,10|0,2:0|2:0,2:0:0:0:
342,269,58427,2,0,L|258:253,1,72.0000000000001,10|0,2:0|2:0,2:0:0:0:
356,12,58784,6,0,L|371:129,1,108,10|0,2:0|2:0,2:0:0:0:
375,155,59142,1,8,0:0:0:0:
245,81,59320,1,8,0:0:0:0:
479,51,59499,1,10,2:0:0:0:
479,51,59856,6,0,L|476:101,1,36,0|0,1:0|2:0,2:0:0:0:
380,249,60034,2,0,P|397:183|457:236,1,156,12|0,2:0|2:0,2:0:0:0:
490,300,60392,6,0,L|401:285,1,88,4|0,1:0|2:0,2:0:0:0:
332,345,60659,1,0,2:0:0:0:
332,345,60749,2,0,L|243:360,1,88,10|0,2:0|2:0,2:0:0:0:
172,298,61017,1,8,2:0:0:0:
172,298,61106,2,0,L|187:209,1,88,2|0,1:2|2:0,2:0:0:0:
289,73,61463,1,8,2:0:0:0:
345,143,61642,2,0,P|294:167|246:145,1,88,2|0,2:0|1:0,2:0:0:0:
100,52,61999,5,2,2:0:0:0:
201,22,62177,1,8,2:0:0:0:
79,159,62356,1,8,2:0:0:0:
82,180,62445,1,8,2:0:0:0:
85,201,62534,1,0,1:0:0:0:
89,224,62624,1,8,2:0:0:0:
92,244,62713,1,0,1:0:0:0:
68,348,62892,6,0,P|111:332|159:341,1,88,8|2,2:0|2:0,2:0:0:0:
238,374,63159,1,8,2:0:0:0:
238,374,63249,2,0,L|250:272,1,88,2|0,1:2|2:0,2:0:0:0:
266,126,63606,1,8,2:0:0:0:
421,205,63784,2,0,L|319:217,1,88,2|0,2:0|1:0,2:0:0:0:
388,295,64142,1,2,1:2:0:0:
512,176,64320,1,8,2:0:0:0:
370,63,64499,2,0,L|180:86,1,176,6|0,1:2|1:0,2:0:0:0:
61,135,65034,6,0,P|43:186|61:226,1,88,8|8,2:0|2:0,2:0:0:0:
209,229,65302,1,8,2:0:0:0:
209,229,65392,2,0,P|173:187|130:183,1,88,0|8,1:0|2:0,2:0:0:0:
136,307,65659,1,8,2:0:0:0:
136,307,65749,1,8,2:0:0:0:
155,311,65838,1,8,2:3:0:0:
177,315,65927,1,4,2:3:0:0:
198,320,66017,1,0,1:0:0:0:
220,324,66106,6,0,L|319:303,1,88,2|0,1:2|2:0,2:0:0:0:
378,239,66374,1,0,2:0:0:0:
378,239,66463,2,0,L|370:188,1,44,10|0,2:0|2:0,2:0:0:0:
310,137,66642,2,0,L|318:86,1,44,2|8,2:0|2:0,2:0:0:0:
465,8,66820,2,0,P|492:49|460:100,1,88,2|0,1:2|2:0,2:0:0:0:
481,83,67088,1,0,2:0:0:0:
481,83,67177,1,8,2:0:0:0:
340,12,67356,6,0,P|288:12|248:46,1,88,2|0,2:0|1:0,2:0:0:0:
201,158,67713,1,2,2:0:0:0:
139,74,67892,1,8,2:0:0:0:
310,137,68070,1,8,2:0:0:0:
307,158,68159,1,8,2:0:0:0:
304,180,68249,1,0,1:0:0:0:
300,202,68338,1,8,2:0:0:0:
297,223,68427,1,2,1:2:0:0:
278,336,68606,1,8,2:0:0:0:
494,300,68784,5,8,2:0:0:0:
494,300,68874,1,8,2:0:0:0:
494,300,68963,2,0,P|455:278|401:281,1,88,2|0,1:2|2:0,2:0:0:0:
382,300,69231,1,0,1:0:0:0:
382,300,69320,1,8,0:2:0:0:
217,195,69499,6,0,L|324:176,1,88,8|0,2:0|2:0,2:0:0:0:
147,347,69856,2,0,L|60:331,1,88,8|0,2:0|1:0,2:0:0:0:
6,263,70124,1,0,1:0:0:0:
6,263,70213,6,0,P|-8:199|51:105,1,176,8|2,2:0|1:2,2:0:0:0:
243,25,70749,2,0,L|263:128,1,88,8|8,2:0|2:0,2:0:0:0:
293,146,71017,1,8,2:0:0:0:
293,146,71106,2,0,L|282:203,1,44,0|0,1:0|2:0,2:0:0:0:
370,293,71284,5,8,2:0:0:0:
378,320,71374,1,8,2:0:0:0:
387,347,71463,2,0,L|433:339,1,44,12|0,2:0|2:0,2:0:0:0:
292,197,71642,5,8,2:0:0:0:
292,197,71731,1,8,2:0:0:0:
292,197,71820,2,0,P|250:221|188:219,1,88,4|0,1:0|2:0,2:0:0:0:
205,319,72088,1,0,2:0:0:0:
205,319,72177,2,0,P|158:306|115:261,1,88,10|0,2:0|2:0,2:0:0:0:
57,343,72445,1,8,2:0:0:0:
57,343,72534,2,0,P|33:301|34:239,1,88,2|0,1:2|2:0,2:0:0:0:
82,94,72892,1,8,2:0:0:0:
24,158,73070,6,0,P|60:181|104:178,1,88,2|0,2:0|1:0,2:0:0:0:
191,60,73427,1,2,2:0:0:0:
293,122,73606,1,8,2:0:0:0:
211,224,73784,1,2,1:2:0:0:
211,224,73874,1,8,2:0:0:0:
211,224,73963,2,0,L|225:320,1,88,0|0,1:0|2:0,2:0:0:0:
433,363,74320,6,0,P|456:331|437:283,1,88,8|2,2:0|2:0,2:0:0:0:
390,223,74588,1,8,2:0:0:0:
390,223,74677,2,0,L|401:128,1,88,2|0,1:2|2:0,2:0:0:0:
503,31,75034,1,8,2:0:0:0:
376,104,75213,2,0,P|325:104|285:65,1,88,2|0,2:0|1:0,2:0:0:0:
358,22,75570,1,2,1:2:0:0:
358,22,75659,1,0,1:0:0:0:
358,22,75749,1,8,2:0:0:0:
165,39,75927,6,0,L|189:188,1,132,6|0,1:2|2:0,2:0:0:0:
194,209,76284,1,0,1:0:0:0:
432,295,76463,6,0,P|392:332|348:332,1,88,8|8,2:0|2:0,2:0:0:0:
285,198,76731,1,8,2:0:0:0:
285,198,76820,2,0,P|338:213|359:251,1,88,0|8,1:0|2:0,2:0:0:0:
281,290,77088,1,8,2:0:0:0:
281,290,77177,1,8,2:0:0:0:
259,293,77267,1,8,2:3:0:0:
237,296,77356,1,4,2:3:0:0:
215,299,77445,1,0,1:0:0:0:
193,302,77534,6,0,L|89:279,1,88,4|0,1:0|2:0,2:0:0:0:
14,97,77892,2,0,L|118:120,1,88,10|8,2:0|2:0,2:0:0:0:
111,134,78159,1,8,2:0:0:0:
114,156,78249,1,2,1:2:0:0:
107,176,78338,1,8,2:0:0:0:
92,192,78427,1,0,1:0:0:0:
10,301,78606,1,8,2:0:0:0:
189,362,78784,6,0,L|198:265,1,88,2|0,2:0|1:0,2:0:0:0:
210,112,79142,1,2,2:0:0:0:
114,156,79320,1,8,2:0:0:0:
301,236,79499,5,8,2:0:0:0:
322,231,79588,1,8,2:0:0:0:
343,227,79677,1,0,1:0:0:0:
365,222,79767,1,8,2:0:0:0:
387,218,79856,1,2,1:2:0:0:
478,127,80034,2,0,P|494:90|457:46,1,88,8|2,2:0|1:2,2:0:0:0:
399,9,80302,1,8,2:0:0:0:
399,9,80392,6,0,L|339:19,1,44,6|0,1:2|2:0,2:0:0:0:
253,119,80570,2,0,L|209:111,1,44,0|0,1:0|1:0,2:0:0:0:
70,89,80749,1,8,2:0:0:0:
117,234,80927,5,2,1:2:0:0:
117,234,81284,1,2,1:2:0:0:
117,234,81642,6,0,B|195:224|162:287|262:276,1,132,6|0,1:2|2:0,2:0:0:0:
272,264,81999,1,2,1:2:0:0:
452,347,82177,2,0,L|459:291,1,44,8|0,2:0|2:0,2:0:0:0:
388,112,82356,2,0,L|369:252,1,132,8|0,2:0|2:0,2:0:0:0:
364,284,82713,1,2,1:2:0:0:
475,196,82892,1,8,2:0:0:0:
274,113,83070,1,8,2:0:0:0:
274,113,83159,1,8,2:0:0:0:
274,113,83249,1,2,2:0:0:0:
274,113,85570,5,0,1:0:0:0:
274,113,85659,1,0,1:0:0:0:
274,113,85749,2,0,L|253:254,1,132,8|0,2:0|2:0,2:0:0:0:
176,167,86106,6,0,P|133:144|88:158,1,88,6|0,1:2|1:0,2:0:0:0:
65,175,86373,1,0,1:0:0:0:
65,175,86463,1,8,2:0:0:0:
27,324,86641,2,0,L|126:309,1,88,2|0,1:2|2:0,2:0:0:0:
252,296,86998,1,2,1:2:0:0:
252,296,87088,1,0,1:0:0:0:
252,296,87177,1,8,2:0:0:0:
302,187,87356,2,0,L|214:173,1,88,2|0,1:2|2:0,2:0:0:0:
373,278,87713,5,10,2:0:0:0:
512,113,87891,1,10,2:0:0:0:
356,39,88070,1,10,2:0:0:0:
