osu file format v14

[General]
AudioFilename: audio.ogg
AudioLeadIn: 0
PreviewTime: 59766
Countdown: 0
SampleSet: Soft
StackLeniency: 0.7
Mode: 0
LetterboxInBreaks: 0
WidescreenStoryboard: 1

[Editor]
DistanceSpacing: 1
BeatDivisor: 4
GridSize: 16
TimelineZoom: 1.9

[Metadata]
Title:Kimiiro no Kiseki (TV Size)
TitleUnicode:君色のキセキ (TV Size)
Artist:Ogura Yui
ArtistUnicode:小倉唯
Creator:Sagisawa Arisa
Version:Normal
Source:ワンルーム、日当たり普通、天使つき。
Tags:One Room, Hiatari Futsuu, Tenshi Tsuki. Studio Apartment, Good Lighting, Angel Included japanese pop j pop j-pop jpop anime op opening poyoyo kohno marika kohno_marika arronchu1207 chu
BeatmapID:4558119
BeatmapSetID:2161068

[Difficulty]
HPDrainRate:3
CircleSize:3.5
OverallDifficulty:4
ApproachRate:6
SliderMultiplier:1
SliderTickRate:1

[Events]
//Background and Video events
0,0,"a.jpg",0,0
Video,0,"tenshi.mp4"
//Break Periods
2,26306,33627
2,49163,52199
2,83449,85056
//Storyboard Layer 0 (Background)
//Storyboard Layer 1 (Fail)
//Storyboard Layer 2 (Pass)
//Storyboard Layer 3 (Foreground)
//Storyboard Layer 4 (Overlay)
//Storyboard Sound Samples

[TimingPoints]
-2465,357.142857142857,4,2,1,40,1,0
3249,-100,4,2,1,50,0,0
8963,-100,4,2,1,70,0,0
11820,-100,4,2,1,80,0,0
34677,-100,4,2,1,70,0,0
48963,-100,4,2,1,65,0,0
54499,-100,4,2,1,70,0,0
57534,-100,4,2,1,75,0,0
60034,-100,4,2,1,80,0,0
60392,-100,4,2,1,80,0,1
83249,-100,4,2,1,80,0,0
86106,357.142857142857,4,2,1,80,1,0
86106,-100,4,2,1,80,0,1
88070,-100,4,2,1,80,0,0

[Colours]
Combo1 : 223,237,167
Combo2 : 158,245,241
Combo3 : 157,171,247
Combo4 : 164,240,173

[HitObjects]
381,53,3249,6,0,P|428:33|476:63,2,100,2|0|2,2:0|2:0|2:0,2:0:0:0:
320,132,4320,1,0,2:0:0:0:
320,132,4499,2,0,L|334:243,1,100,2|0,2:0|2:0,2:0:0:0:
346,330,5213,1,2,2:0:0:0:
346,330,6106,6,0,P|280:366|190:354,1,150,2|2,2:0|2:0,2:0:0:0:
161,272,6999,1,0,2:0:0:0:
62,289,7356,2,0,B|28:169|108:209|58:76,1,200,2|2,2:0|2:0,2:0:0:0:
141,29,8427,2,0,P|181:57|244:50,1,100,2|0,2:0|2:0,2:0:0:0:
277,38,8963,6,0,L|265:152,1,100,2|2,2:0|2:0,2:0:0:0:
195,208,9677,2,0,L|296:271,1,100,2|0,2:0|2:0,2:0:0:0:
306,303,10213,2,0,P|351:308|411:263,1,100,2|0,2:0|2:0,2:0:0:0:
432,246,10749,1,0,2:0:0:0:
432,246,10927,2,0,B|417:188|417:188|395:167|395:167|382:102,1,150,2|0,2:0|2:0,2:0:0:0:
426,17,11820,6,0,P|471:34|487:97,1,100,6|2,1:2|1:2,2:0:0:0:
472,126,12356,1,10,2:0:0:0:
502,221,12713,1,2,1:2:0:0:
418,276,13070,2,0,L|304:259,1,100,4|2,1:0|1:2,2:0:0:0:
279,291,13606,1,8,2:0:0:0:
279,291,13784,2,0,P|247:328|184:330,1,100,2|8,1:2|2:0,2:0:0:0:
153,314,14320,1,12,1:2:0:0:
61,355,14677,6,0,L|44:237,1,100,4|8,1:1|2:0,2:0:0:0:
102,174,15392,1,8,2:0:0:0:
102,174,15570,2,0,L|111:118,1,50,0|8,1:0|2:0,2:0:0:0:
120,75,15927,1,2,1:2:0:0:
201,17,16284,2,0,P|221:13|256:32,1,50,0|8,1:0|0:0,0:0:0:0:
277,64,16642,2,0,L|291:162,1,100,2|0,1:2|1:2,2:0:0:0:
298,212,17177,1,8,2:0:0:0:
389,253,17534,6,0,P|437:263|481:231,1,100,10|8,2:0|2:0,2:0:0:0:
492,141,18249,1,10,2:0:0:0:
492,141,18427,2,0,L|482:88,1,50,2|8,1:2|2:0,2:0:0:0:
473,42,18784,2,0,P|421:31|372:73,1,100,4|0,1:2|1:0,2:0:0:0:
350,92,19320,1,8,2:0:0:0:
350,92,19499,2,0,P|298:103|249:61,1,100,2|0,1:2|1:0,2:0:0:0:
224,44,20034,1,12,2:0:0:0:
139,97,20392,6,0,B|65:86|65:86|46:58,2,100,4|10|2,1:0|2:0|1:2,2:0:0:0:
216,169,21463,1,8,2:0:0:0:
216,169,21642,2,0,L|201:276,1,100,2|2,2:0|2:0,2:0:0:0:
200,321,22177,1,8,2:0:0:0:
200,321,22356,2,0,P|243:299|306:319,1,100,2|8,2:0|2:0,2:0:0:0:
324,346,22892,1,8,0:0:0:0:
423,351,23249,6,0,P|440:308|420:254,1,100,6|8,1:2|2:0,2:0:0:0:
398,215,23784,1,2,1:2:0:0:
439,124,24142,1,2,1:2:0:0:
358,64,24499,2,0,P|310:92|249:89,1,100,2|0,1:2|1:0,2:0:0:0:
218,80,25034,1,8,2:0:0:0:
218,80,25213,2,0,B|206:181,1,100,8|8,2:3|2:0,2:0:0:0:
172,215,25749,2,0,L|180:267,2,50,4|0|0,2:3|1:0|1:0,2:0:0:0:
51,221,34677,6,0,L|59:171,1,50,2|8,1:2|2:0,2:0:0:0:
99,141,35034,1,8,0:0:0:0:
99,141,35213,2,0,P|147:148|193:113,1,100,2|2,1:2|1:2,2:0:0:0:
260,52,35927,2,0,P|300:86|355:82,1,100,2|8,1:2|2:0,2:0:0:0:
395,72,36463,1,8,2:0:0:0:
395,72,36642,1,8,2:0:0:0:
473,141,36999,1,0,1:0:0:0:
473,141,37177,2,0,L|483:197,1,50,12|0,2:0|2:0,2:0:0:0:
492,239,37534,5,4,1:0:0:0:
449,329,37892,2,0,L|393:322,1,50,8|2,2:0|1:2,2:0:0:0:
358,352,38249,2,0,P|306:357|259:313,1,100,0|8,1:2|2:0,2:0:0:0:
239,290,38784,1,2,2:0:0:0:
298,209,39142,2,0,L|303:153,1,50,2|8,1:2|2:0,2:0:0:0:
305,109,39499,2,0,P|270:81|200:92,1,100,2|0,2:0|1:0,2:0:0:0:
170,101,40034,2,0,P|141:99|121:79,1,50,8|0,2:0|1:0,2:0:0:0:
88,52,40392,1,0,1:0:0:0:
14,120,40749,6,0,L|20:173,1,50,10|0,2:0|1:2,2:0:0:0:
27,219,41106,2,0,P|71:215|115:253,1,100,2|8,1:2|2:0,2:0:0:0:
140,289,41642,2,0,P|187:302|236:268,1,100,2|0,2:0|1:0,2:0:0:0:
262,240,42177,1,8,2:0:0:0:
330,312,42534,1,2,1:2:0:0:
427,288,42892,1,8,2:0:0:0:
459,193,43249,6,0,L|467:88,1,100,4|8,1:2|2:0,2:0:0:0:
474,47,43784,1,2,1:2:0:0:
474,47,43963,1,0,1:0:0:0:
381,24,44320,1,8,0:0:0:0:
381,24,44499,2,0,P|335:53|236:55,1,150,2|8,0:0|0:0,0:0:0:0:
194,39,45213,1,2,1:2:0:0:
103,78,45570,1,0,1:0:0:0:
103,78,45749,2,0,L|47:69,1,50,8|4,2:0|2:3,2:0:0:0:
15,102,46106,6,0,L|29:201,1,100,2|8,1:2|2:0,2:0:0:0:
38,250,46642,1,2,1:2:0:0:
12,346,46999,1,2,1:2:0:0:
109,368,47356,2,0,P|146:334|210:333,1,100,2|8,1:2|2:0,2:0:0:0:
241,345,47892,1,0,1:0:0:0:
241,345,48070,2,0,L|251:242,1,100,8|8,2:0|2:0,2:0:0:0:
286,210,48606,2,0,L|275:147,2,50,8|0|6,2:3|1:0|1:2,2:0:0:0:
451,46,53249,5,10,2:0:0:0:
388,124,53606,1,2,1:2:0:0:
388,124,53784,1,8,2:0:0:0:
297,80,54142,2,0,L|231:98,1,50,2|8,1:2|2:0,2:0:0:0:
201,110,54499,2,0,P|182:160|205:214,1,100,8|2,2:0|2:0,2:0:0:0:
228,246,55034,1,8,2:0:0:0:
228,246,55213,1,2,2:0:0:0:
180,333,55570,6,0,L|116:325,1,50,0|8,1:0|2:0,2:0:0:0:
80,320,55927,2,0,P|57:271|71:217,1,100,2|0,1:2|1:0,2:0:0:0:
93,186,56463,1,8,2:0:0:0:
93,186,56642,1,2,1:2:0:0:
171,123,56999,1,0,1:0:0:0:
171,123,57177,2,0,P|173:93|157:63,1,50,8|2,0:0|0:2,0:0:0:0:
146,34,57534,5,8,2:0:0:0:
146,34,57713,1,8,2:0:0:0:
241,3,58070,1,10,0:0:0:0:
297,85,58427,1,10,0:0:0:0:
395,70,58784,2,0,P|429:109|426:161,1,100,10|8,2:0|2:0,2:0:0:0:
410,204,59320,1,8,2:0:0:0:
410,204,59499,1,10,2:0:0:0:
314,200,59856,1,0,1:0:0:0:
314,200,60034,2,0,L|324:257,1,50,12|0,0:0|0:0,0:0:0:0:
334,298,60392,6,0,P|380:293|435:317,2,100,4|10|2,1:0|2:0|1:2,2:0:0:0:
255,358,61463,1,8,2:0:0:0:
255,358,61642,2,0,P|198:358|153:320,1,100,2|2,2:0|2:0,2:0:0:0:
115,348,62177,1,8,2:0:0:0:
115,348,62356,2,0,P|74:307|69:249,1,100,8|0,2:0|1:0,2:0:0:0:
87,221,62892,1,8,2:0:0:0:
163,157,63249,6,0,L|273:142,1,100,2|8,1:2|2:0,2:0:0:0:
303,115,63784,2,0,P|317:59|281:25,2,100,2|2|6,2:0|1:2|1:2,2:0:0:0:
377,183,64856,2,0,P|370:207|387:235,2,50,0|8|8,1:0|2:0|2:0,2:0:0:0:
407,143,65392,2,0,L|463:135,1,50,0|8,1:0|2:0,2:0:0:0:
491,99,65749,2,0,L|502:40,1,50,8|4,2:0|2:3,2:0:0:0:
465,13,66106,6,0,P|405:9|363:51,1,100,2|10,1:2|2:0,2:0:0:0:
340,67,66642,1,2,2:0:0:0:
340,67,66820,2,0,L|221:50,1,100,2|8,1:2|2:0,2:0:0:0:
191,46,67356,1,2,2:0:0:0:
109,104,67713,2,0,L|49:114,2,50,2|8|8,2:0|2:0|2:0,2:0:0:0:
179,175,68427,1,2,1:2:0:0:
179,175,68606,2,0,L|188:232,1,50,8|8,2:0|2:0,2:0:0:0:
199,272,68963,6,0,P|249:294|302:266,1,100,2|8,1:2|0:2,2:0:0:0:
324,243,69499,1,8,2:0:0:0:
401,305,69856,2,0,L|451:300,1,50,8|0,2:0|1:0,2:0:0:0:
485,263,70213,2,0,P|500:216|479:164,1,100,8|2,2:0|1:2,2:0:0:0:
451,131,70749,1,8,2:0:0:0:
451,131,70927,2,0,P|393:153|339:128,1,100,8|8,2:0|2:0,2:0:0:0:
315,118,71463,1,12,2:0:0:0:
218,142,71820,6,0,L|200:37,2,100,4|10|2,1:0|2:0|1:2,2:0:0:0:
236,240,72892,1,8,2:0:0:0:
236,240,73070,2,0,P|181:242|139:277,1,100,2|2,2:0|2:0,2:0:0:0:
121,311,73606,1,8,2:0:0:0:
121,311,73784,2,0,P|71:326|16:282,1,100,2|0,1:2|2:0,2:0:0:0:
1,264,74320,1,8,2:0:0:0:
81,205,74677,6,0,L|89:98,1,100,2|8,1:2|2:0,2:0:0:0:
91,55,75213,2,0,P|47:33|-13:55,2,100,2|2|6,2:0|1:2|1:2,2:0:0:0:
182,95,76284,2,0,P|216:94|241:76,2,50,0|8|8,1:0|2:0|2:0,2:0:0:0:
153,136,76820,2,0,L|167:194,1,50,0|8,1:0|2:0,2:0:0:0:
201,218,77177,2,0,L|187:276,1,50,8|4,2:0|2:3,2:0:0:0:
178,315,77534,6,0,P|229:317|274:344,1,100,4|10,1:1|2:0,2:0:0:0:
307,375,78070,1,8,2:0:0:0:
307,375,78249,2,0,L|414:360,1,100,2|8,1:2|2:0,2:0:0:0:
455,355,78784,1,2,2:0:0:0:
500,265,79142,2,0,P|502:238|479:211,2,50,2|8|8,2:0|2:0|2:0,2:0:0:0:
404,283,79856,5,2,1:2:0:0:
404,283,80034,2,0,L|324:272,1,50,8|2,2:0|1:2,2:0:0:0:
304,267,80392,2,0,P|281:217|305:169,1,100,6|8,1:2|2:0,2:0:0:0:
328,139,80927,1,2,1:2:0:0:
392,62,81284,1,2,1:2:0:0:
306,10,81642,6,0,L|194:23,1,100,6|2,1:2|1:2,2:0:0:0:
161,31,82177,1,8,2:0:0:0:
161,31,82356,2,0,P|141:83|168:124,1,100,8|2,2:0|1:2,2:0:0:0:
199,150,82892,2,0,L|192:205,2,50,8|8|2,2:0|2:0|2:0,2:0:0:0:
193,199,86106,6,0,P|245:201|286:232,1,100,6|8,1:2|2:0,2:0:0:0:
328,208,86641,2,0,P|352:254|345:305,1,100,2|2,1:2|1:2,2:0:0:0:
322,343,87177,1,8,2:0:0:0:
322,343,87356,2,0,L|195:330,1,100,2|10,1:2|2:0,2:0:0:0:
181,359,87891,1,10,2:0:0:0:
181,359,88070,1,10,2:0:0:0:
