osu file format v14

[General]
AudioFilename: audio.mp3
AudioLeadIn: 0
PreviewTime: 48653
Countdown: 0
SampleSet: Soft
StackLeniency: 0.7
Mode: 0
LetterboxInBreaks: 0
WidescreenStoryboard: 1

[Editor]
Bookmarks: 60589,160119,166134
DistanceSpacing: 0.8
BeatDivisor: 4
GridSize: 32
TimelineZoom: 1.456003

[Metadata]
Title:Itsudatte Call Me!
TitleUnicode:いつだってCall Me!
Artist:Ogura Yui
ArtistUnicode:小倉唯
Creator:Yuuma
Version:Insane
Source:
Tags:Strawberry JAM japanese pop jpop j-pop
BeatmapID:2535554
BeatmapSetID:1218635

[Difficulty]
HPDrainRate:5
CircleSize:3.8
OverallDifficulty:7.5
ApproachRate:8.5
SliderMultiplier:1.7
SliderTickRate:1

[Events]
//Background and Video events
0,0,"yui.jpg",0,0
//Break Periods
2,160318,165459
//Storyboard Layer 0 (Background)
//Storyboard Layer 1 (Fail)
//Storyboard Layer 2 (Pass)
//Storyboard Layer 3 (Foreground)
//Storyboard Layer 4 (Overlay)
//Storyboard Sound Samples

[TimingPoints]
721,375.93984962406,4,2,1,80,1,0
12751,-142.857142857143,4,2,1,60,0,0
24781,-125,4,2,1,70,0,0
33803,-100,4,2,1,70,0,0
36811,-142.857142857143,4,2,1,60,0,0
42638,-111.111111111111,4,2,1,70,0,0
48841,-100,4,2,1,80,0,1
66886,-111.111111111111,4,2,1,80,0,1
69893,-100,4,2,1,80,0,1
72901,-100,4,2,1,80,0,0
84931,-142.857142857143,4,2,1,60,0,0
96961,-125,4,2,1,70,0,0
105984,-100,4,2,1,70,0,0
108991,-142.857142857143,4,2,1,60,0,0
114818,-111.111111111111,4,2,1,70,0,0
117450,-111.111111111111,4,2,1,70,0,0
117512,-111.111111111111,4,2,1,30,0,0
118014,-111.111111111111,4,2,1,70,0,0
121021,-100,4,2,1,80,0,1
139066,-111.111111111111,4,2,1,80,0,1
142074,-100,4,2,1,80,0,1
145081,-100,4,2,1,80,0,0
158615,-125,4,2,1,70,0,0
159367,-166.666666666667,4,2,1,60,0,0
166134,-142.857142857143,4,2,1,60,0,0
169142,-100,4,2,1,70,0,0
172149,-100,4,2,1,80,0,1
178164,-111.111111111111,4,2,1,80,0,1
181172,-100,4,2,1,80,0,1
184179,-100,4,2,1,80,0,0

[Colours]
Combo1 : 255,183,219
Combo2 : 255,128,255
Combo3 : 255,55,255

[HitObjects]
39,160,345,5,2,0:0:0:0:
39,160,439,1,2,0:0:0:0:
39,160,533,1,2,0:0:0:0:
39,160,627,1,2,0:0:0:0:
39,160,721,6,0,P|98:176|139:163,1,85,6|0,3:2|0:0,0:0:0:0:
273,95,1096,2,0,P|231:91|192:107,1,85,10|2,0:0|0:0,0:0:0:0:
254,235,1472,1,2,3:2:0:0:
254,235,1660,2,0,L|347:221,1,85,2|8,0:0|0:0,0:0:0:0:
427,205,2036,1,2,0:0:0:0:
381,63,2224,6,0,P|363:115|369:154,1,85,6|2,3:2|0:0,0:0:0:0:
488,273,2600,2,0,P|518:188|463:131,2,170,10|2|10,0:0|3:2|0:0,0:0:0:0:
427,340,3540,1,2,0:0:0:0:
297,229,3728,6,0,L|277:324,1,85,6|0,3:2|0:0,0:0:0:0:
150,370,4104,2,0,L|134:265,1,85,10|2,0:0|0:0,0:0:0:0:
70,131,4480,1,2,3:2:0:0:
70,131,4668,2,0,P|113:111|171:123,1,85,2|8,0:0|0:0,0:0:0:0:
286,138,5044,1,2,0:0:0:0:
133,242,5232,5,6,3:2:0:0:
115,55,5420,1,2,0:0:0:0:
224,212,5608,1,10,0:0:0:0:
35,235,5796,1,2,0:0:0:0:
187,121,5984,1,2,3:2:0:0:
141,326,6172,1,2,0:0:0:0:
141,326,6360,2,0,L|130:222,1,85,10|2,0:0|0:0,0:0:0:0:
162,25,6736,6,0,P|259:27|277:117,1,170,6|8,0:0|0:0,0:0:0:0:
225,283,7299,2,0,P|178:197|247:137,1,170,6|8,0:0|0:0,0:0:0:0:
418,99,7863,2,0,P|367:182|280:152,1,170,6|8,0:0|0:0,0:0:0:0:
162,25,8427,2,0,P|259:27|277:117,1,170,6|8,0:0|0:0,0:0:0:0:
225,283,8991,1,10,0:0:0:0:
418,99,9367,1,10,0:0:0:0:
162,25,9743,5,6,0:0:0:0:
162,25,10307,1,6,0:0:0:0:
162,25,10871,1,6,0:0:0:0:
162,25,11435,5,10,0:0:0:0:
305,175,11623,1,10,0:0:0:0:
115,110,11811,1,10,0:0:0:0:
320,21,11999,2,0,L|345:120,1,85,10|0,0:0|0:0,0:0:0:0:
383,250,12375,2,0,P|415:245|443:226,2,42.5,10|10|10,0:0|0:0|0:0,0:0:0:0:
198,209,12751,6,0,P|277:170|325:183,1,118.999996368408,6|8,3:2|0:0,0:0:0:0:
282,277,13314,1,0,3:0:0:0:
198,322,13502,2,0,P|146:308|130:297,1,59.4999981842042,2|0,3:2|0:0,0:0:0:0:
42,232,13878,2,0,L|33:301,1,59.4999981842042,8|0,0:0|0:0,0:0:0:0:
198,209,14254,6,0,L|187:136,1,59.4999981842042,2|0,3:2|0:0,0:0:0:0:
95,27,14630,2,0,P|82:64|86:91,1,59.4999981842042,8|0,0:0|0:0,0:0:0:0:
10,133,15006,2,0,P|35:162|60:172,1,59.4999981842042,2|0,3:2|0:0,0:0:0:0:
59,259,15382,2,0,P|97:251|118:234,1,59.4999981842042,8|0,0:0|0:0,0:0:0:0:
297,133,15758,6,0,P|223:126|185:154,1,118.999996368408,2|8,3:2|0:0,0:0:0:0:
255,248,16322,1,0,0:0:0:0:
351,225,16510,2,0,L|420:213,1,59.4999981842042,2|0,3:2|0:0,0:0:0:0:
297,133,16886,1,8,0:0:0:0:
386,81,17074,1,0,0:0:0:0:
285,23,17262,6,0,L|159:46,1,118.999996368408,2|8,3:2|0:0,0:0:0:0:
79,62,17826,1,0,0:0:0:0:
190,190,18014,2,0,L|197:111,1,59.4999981842042,2|2,3:2|0:0,0:0:0:0:
79,62,18390,2,0,L|84:121,1,59.4999981842042,10|0,0:0|0:0,0:0:0:0:
123,293,18766,6,0,P|179:320|241:298,1,118.999996368408,2|8,3:2|0:0,0:0:0:0:
319,247,19330,1,0,0:0:0:0:
369,149,19517,2,0,P|336:138|287:147,1,59.4999981842042,2|0,3:2|0:0,0:0:0:0:
424,249,19893,2,0,P|457:260|506:251,1,59.4999981842042,8|0,0:0|0:0,0:0:0:0:
490,106,20269,6,0,P|467:171|467:182,1,59.4999981842042,2|0,3:2|0:0,0:0:0:0:
341,301,20645,2,0,P|333:272|318:246,1,59.4999981842042,8|0,0:0|0:0,0:0:0:0:
390,94,21021,2,0,P|367:159|367:170,1,59.4999981842042,2|0,3:2|0:0,0:0:0:0:
240,312,21397,2,0,P|232:283|218:258,1,59.4999981842042,8|0,0:0|0:0,0:0:0:0:
180,86,21773,6,0,P|237:76|289:105,1,118.999996368408,2|8,3:2|0:0,0:0:0:0:
289,105,22337,1,0,0:0:0:0:
217,257,22525,2,0,P|159:266|108:238,1,118.999996368408,2|8,3:2|0:0,0:0:0:0:
108,238,23089,1,0,0:0:0:0:
220,169,23277,5,2,3:2:0:0:
79,91,23465,2,0,L|93:172,1,59.4999981842042,10|0,0:0|0:0,0:0:0:0:
45,76,23841,2,0,L|55:134,1,59.4999981842042,10|0,0:0|0:0,0:0:0:0:
11,61,24217,1,10,0:0:0:0:
38,223,24405,2,0,L|47:275,2,29.7499990921021,8|8|10,0:0|0:0|0:0,0:0:0:0:
220,169,24781,6,0,B|296:151|285:208|358:189,1,136,6|8,3:2|0:0,0:0:0:0:
450,166,25345,1,0,0:0:0:0:
403,83,25533,2,0,P|353:87|316:106,1,68,2|0,3:2|0:0,0:0:0:0:
247,257,25908,2,0,P|297:253|334:234,1,68,8|0,0:0|0:0,0:0:0:0:
216,124,26284,6,0,L|204:48,1,68,2|0,3:2|0:0,0:0:0:0:
107,1,26660,2,0,L|96:68,1,68,8|0,0:0|0:0,0:0:0:0:
121,233,27036,2,0,L|109:157,1,68,2|0,3:2|0:0,0:0:0:0:
12,110,27412,2,0,L|1:177,1,68,8|0,0:0|0:0,0:0:0:0:
52,344,27788,6,0,B|101:350|101:350|138:319|181:324,1,136,2|8,3:2|0:0,0:0:0:0:
283,350,28352,1,0,0:0:0:0:
448,314,28540,2,0,P|400:311|370:320,1,68,2|0,3:2|0:0,0:0:0:0:
283,350,28916,1,8,0:0:0:0:
259,233,29104,1,0,0:0:0:0:
347,148,29292,6,0,P|422:127|498:161,1,136,2|8,3:2|0:0,0:0:0:0:
475,143,29856,1,0,0:0:0:0:
415,248,30044,2,0,L|425:335,1,68,2|2,3:2|0:0,0:0:0:0:
347,148,30420,1,10,0:0:0:0:
294,255,30608,1,0,0:0:0:0:
176,183,30796,6,0,P|146:129|174:55,1,136,6|8,3:2|0:0,0:0:0:0:
274,4,31360,1,0,0:0:0:0:
274,4,31548,2,0,P|290:43|288:84,1,68,2|0,3:2|0:0,0:0:0:0:
192,247,31924,2,0,P|176:208|178:167,1,68,8|0,0:0|0:0,0:0:0:0:
344,177,32299,6,0,L|247:165,1,68,2|0,3:2|0:0,0:0:0:0:
92,76,32675,2,0,L|189:64,1,68,8|0,0:0|0:0,0:0:0:0:
259,255,33051,2,0,L|162:243,1,68,2|0,3:2|0:0,0:0:0:0:
31,174,33427,2,0,L|128:162,1,68,8|0,0:0|0:0,0:0:0:0:
261,59,33803,5,2,3:2:0:0:
261,59,34179,1,10,0:0:0:0:
191,246,34367,1,2,0:0:0:0:
92,76,34555,1,2,0:0:0:0:
276,168,34743,1,2,0:0:0:0:
97,265,34931,1,10,0:0:0:0:
175,58,35119,6,0,P|189:143|189:163,1,85,6|0,0:0|0:0,0:0:0:0:
158,345,35495,1,10,0:0:0:0:
317,243,35683,1,10,0:0:0:0:
110,181,35871,6,0,P|96:266|96:286,1,85,6|0,0:0|0:0,0:0:0:0:
293,359,36247,1,10,0:0:0:0:
401,321,36435,1,10,0:0:0:0:
421,206,36623,1,10,0:0:0:0:
421,206,36717,1,8,0:0:0:0:
421,206,36811,6,0,B|429:128|429:128|406:77,1,118.999996368408,6|0,3:2|0:0,0:0:0:0:
365,13,37375,1,0,3:0:0:0:
323,93,37563,2,0,P|277:117|205:103,1,118.999996368408,2|8,3:2|0:0,0:0:0:0:
212,107,38127,1,0,0:0:0:0:
152,51,38314,6,0,P|94:40|41:65,1,118.999996368408,2|0,3:2|0:0,0:0:0:0:
111,138,38878,1,0,3:0:0:0:
23,215,39066,2,0,L|13:144,1,59.4999981842042,2|0,3:2|0:0,0:0:0:0:
111,138,39442,2,0,L|119:196,1,59.4999981842042,8|0,0:0|0:0,0:0:0:0:
83,299,39818,6,0,B|147:279|135:335|201:312,1,118.999996368408,2|0,3:2|0:0,0:0:0:0:
281,278,40382,1,0,3:0:0:0:
381,355,40570,2,0,B|317:335|329:391|263:368,1,118.999996368408,2|8,3:2|0:0,0:0:0:0:
268,369,41134,1,0,0:0:0:0:
379,262,41322,5,2,3:2:0:0:
379,262,41698,2,0,P|382:232|375:202,1,59.4999981842042,2|2,0:0|3:2,0:0:0:0:
434,125,42074,2,0,P|466:175|468:242,1,118.999996368408,2|10,3:2|0:0,0:0:0:0:
342,113,42638,6,0,L|180:97,1,152.999995330811,6|2,0:0|0:0,0:0:0:0:
52,88,43202,1,10,0:0:0:0:
177,212,43390,1,10,0:0:0:0:
39,205,43578,1,10,0:0:0:0:
39,205,44142,6,0,P|58:263|63:364,1,152.999995330811,6|2,0:0|0:0,0:0:0:0:
177,212,44705,1,10,0:0:0:0:
30,284,44893,1,10,0:0:0:0:
187,372,45081,2,0,L|272:361,1,76.4999976654053,10|2,0:0|0:0,0:0:0:0:
313,341,45363,1,2,0:0:0:0:
313,341,45457,2,0,L|367:350,2,38.2499988327027,10|10|10,0:0|0:0|0:0,0:0:0:0:
275,177,45833,6,0,P|256:210|255:248,1,76.4999976654053,6|0,0:0|0:0,0:0:0:0:
341,100,46209,2,0,P|321:67|288:47,1,76.4999976654053,10|0,0:0|0:0,0:0:0:0:
374,195,46585,2,0,P|411:193|445:175,1,76.4999976654053,2|0,0:0|0:0,0:0:0:0:
462,65,46961,1,10,0:0:0:0:
288,47,47149,6,0,P|213:39|151:86,1,152.999995330811,6|2,0:0|0:0,0:0:0:0:
275,177,47713,1,10,0:0:0:0:
104,232,47901,1,2,0:0:0:0:
180,335,48089,2,0,L|188:280,3,38.2499988327027,10|8|10|8,0:0|0:0|0:0|0:0,0:0:0:0:
211,271,48465,2,0,L|216:233,3,38.2499988327027,10|8|10|8,0:0|0:0|0:0|0:0,0:0:0:0:
275,177,48841,6,0,P|332:161|371:167,1,85,6|0,3:2|0:0,0:0:0:0:
505,84,49217,2,0,P|448:68|409:74,1,85,8|0,0:0|0:0,0:0:0:0:
461,248,49593,2,0,L|449:148,1,85,2|0,3:2|0:0,0:0:0:0:
317,45,49969,2,0,L|306:129,1,85,8|0,0:0|0:0,0:0:0:0:
255,309,50345,5,6,3:2:0:0:
137,170,50533,1,0,0:0:0:0:
244,209,50720,1,8,0:0:0:0:
135,336,50908,1,0,0:0:0:0:
31,285,51096,1,2,3:2:0:0:
137,170,51284,1,2,0:0:0:0:
137,170,51378,1,2,0:0:0:0:
137,170,51472,2,0,P|150:212|142:260,1,85,10|2,0:0|0:0,0:0:0:0:
5,87,51848,6,0,L|100:72,1,85,6|0,3:2|0:0,0:0:0:0:
256,24,52224,2,0,L|161:9,1,85,8|0,0:0|0:0,0:0:0:0:
137,170,52600,2,0,L|232:155,1,85,2|0,3:2|0:0,0:0:0:0:
388,107,52976,2,0,L|293:92,1,85,8|0,0:0|0:0,0:0:0:0:
317,253,53352,5,6,3:2:0:0:
486,214,53540,1,0,0:0:0:0:
382,165,53728,1,8,0:0:0:0:
371,345,53916,1,0,0:0:0:0:
476,321,54104,1,2,3:2:0:0:
317,253,54292,1,2,0:0:0:0:
317,253,54480,2,0,P|267:248|228:249,1,85,10|2,0:0|0:0,0:0:0:0:
48,291,54856,6,0,P|92:291|141:272,1,85,6|0,3:2|0:0,0:0:0:0:
103,110,55232,2,0,P|81:148|72:200,1,85,8|0,0:0|0:0,0:0:0:0:
232,248,55608,1,2,3:2:0:0:
232,248,55796,2,0,P|210:209|169:176,1,85,0|8,0:0|0:0,0:0:0:0:
174,339,56172,6,0,P|232:364|327:284,1,170,2|0,0:0|0:0,0:0:0:0:
371,222,56736,1,8,0:0:0:0:
331,107,56924,1,0,0:0:0:0:
371,222,57111,2,0,P|425:234|467:226,1,85,2|0,3:2|0:0,0:0:0:0:
331,107,57487,2,0,P|277:95|235:103,1,85,8|0,0:0|0:0,0:0:0:0:
56,190,57863,6,0,L|70:301,1,85,6|0,3:2|0:0,0:0:0:0:
201,161,58239,2,0,L|211:76,1,85,10|0,0:0|0:0,0:0:0:0:
83,23,58615,2,0,L|97:134,1,85,2|0,3:2|0:0,0:0:0:0:
204,255,58991,1,10,0:0:0:0:
331,107,59179,6,0,P|271:91|200:184,1,170,6|2,0:0|0:0,0:0:0:0:
313,266,59743,2,0,P|311:217|284:183,1,85,10|2,0:0|0:0,0:0:0:0:
144,138,60119,2,0,L|84:150,3,42.5,10|8|10|8,0:0|0:0|0:0|0:0,0:0:0:0:
70,185,60495,2,0,L|63:227,3,42.5,10|8|10|8,0:0|0:0|0:0|0:0,0:0:0:0:
36,304,60871,6,0,P|85:304|129:279,1,85,6|0,3:2|0:0,0:0:0:0:
288,195,61247,2,0,P|239:195|195:220,1,85,8|0,0:0|0:0,0:0:0:0:
280,369,61623,2,0,L|262:274,1,85,2|0,3:2|0:0,0:0:0:0:
412,216,61999,2,0,L|427:132,1,85,8|0,0:0|0:0,0:0:0:0:
258,27,62375,5,6,3:2:0:0:
139,167,62563,1,0,0:0:0:0:
270,122,62751,1,8,0:0:0:0:
83,56,62939,1,0,0:0:0:0:
212,17,63127,1,2,3:2:0:0:
48,144,63314,1,2,0:0:0:0:
48,144,63408,1,2,0:0:0:0:
48,144,63502,2,0,L|61:242,1,85,10|2,0:0|0:0,0:0:0:0:
198,335,63878,6,0,P|143:353|98:340,1,85,6|0,3:2|0:0,0:0:0:0:
162,200,64254,2,0,P|217:182|262:195,1,85,8|0,0:0|0:0,0:0:0:0:
395,259,64630,2,0,P|340:277|295:264,1,85,2|0,3:2|0:0,0:0:0:0:
359,124,65006,2,0,P|414:106|459:119,1,85,8|0,0:0|0:0,0:0:0:0:
314,272,65382,5,6,3:2:0:0:
233,100,65570,1,0,0:0:0:0:
193,221,65758,1,8,0:0:0:0:
359,124,65946,1,0,0:0:0:0:
259,14,66134,1,2,3:2:0:0:
349,220,66322,1,2,0:0:0:0:
349,220,66510,2,0,P|398:210|441:159,1,85,10|2,0:0|0:0,0:0:0:0:
233,100,66886,6,0,P|184:110|133:224,1,152.999995330811,6|8,0:0|0:0,0:0:0:0:
225,298,67450,1,0,3:0:0:0:
331,227,67638,2,0,P|344:182|324:124,1,76.4999976654053,2|0,0:0|0:0,0:0:0:0:
233,100,68014,2,0,P|188:108|150:154,1,76.4999976654053,8|0,0:0|0:0,0:0:0:0:
81,342,68390,6,0,P|185:343|228:292,1,152.999995330811,6|8,0:0|0:0,0:0:0:0:
273,186,68954,2,0,L|279:239,1,38.2499988327027,2|2,0:0|0:0,0:0:0:0:
344,286,69142,2,0,L|328:380,1,76.4999976654053,2|0,0:0|0:0,0:0:0:0:
478,250,69517,2,0,L|463:166,1,76.4999976654053,8|0,0:0|0:0,0:0:0:0:
370,65,69893,6,0,P|285:73|195:107,1,170,6|8,0:0|0:0,0:0:0:0:
118,143,70457,1,0,0:0:0:0:
316,194,70645,1,2,0:0:0:0:
211,61,70833,1,0,0:0:0:0:
235,269,71021,1,8,0:0:0:0:
398,124,71209,1,6,0:0:0:0:
398,124,71585,5,2,0:0:0:0:
375,292,71773,1,6,0:0:0:0:
77,332,72525,5,2,0:0:0:0:
77,332,72619,1,2,0:0:0:0:
77,332,72713,1,2,0:0:0:0:
77,332,72807,1,2,0:0:0:0:
77,332,72901,6,0,P|62:292|63:250,1,85,6|0,3:2|0:0,0:0:0:0:
193,132,73277,2,0,P|207:171|206:213,1,85,10|2,0:0|0:0,0:0:0:0:
10,162,73653,1,2,3:2:0:0:
10,162,73841,2,0,L|100:148,1,85,2|8,0:0|0:0,0:0:0:0:
62,250,74217,1,2,0:0:0:0:
205,214,74405,6,0,P|207:171|193:132,1,85,6|2,3:2|0:0,0:0:0:0:
284,47,74781,2,0,B|376:26|358:101|451:74,2,170,10|2|10,0:0|3:2|0:0,0:0:0:0:
310,150,75720,1,2,0:0:0:0:
408,188,75908,6,0,P|462:202|501:195,1,85,6|0,3:2|0:0,0:0:0:0:
319,250,76284,2,0,P|265:236|226:243,1,85,10|2,0:0|0:0,0:0:0:0:
416,381,76660,1,2,3:2:0:0:
416,381,76848,2,0,P|422:332|412:288,1,85,2|8,0:0|0:0,0:0:0:0:
310,150,77224,1,2,0:0:0:0:
263,334,77412,5,6,3:2:0:0:
159,179,77600,1,2,0:0:0:0:
319,250,77788,1,10,0:0:0:0:
157,345,77976,1,2,0:0:0:0:
188,162,78164,1,2,3:2:0:0:
263,334,78352,1,2,0:0:0:0:
263,334,78540,2,0,P|317:348|356:341,1,85,10|2,0:0|0:0,0:0:0:0:
428,137,78916,6,0,P|350:162|321:239,1,170,6|8,0:0|0:0,0:0:0:0:
217,354,79480,2,0,P|235:273|183:210,1,170,6|8,0:0|0:0,0:0:0:0:
135,62,80044,2,0,P|195:117|276:104,1,170,6|8,0:0|0:0,0:0:0:0:
428,137,80608,2,0,P|350:162|321:239,1,170,6|8,0:0|0:0,0:0:0:0:
217,354,81172,1,10,0:0:0:0:
135,62,81548,1,10,0:0:0:0:
428,137,81924,5,6,0:0:0:0:
428,137,82487,1,6,0:0:0:0:
428,137,83051,1,6,0:0:0:0:
428,137,83615,5,10,0:0:0:0:
233,187,83803,1,10,0:0:0:0:
406,278,83991,1,10,0:0:0:0:
353,74,84179,2,0,P|331:115|336:174,1,85,10|0,0:0|0:0,0:0:0:0:
406,278,84555,2,0,L|465:265,2,42.5,10|10|10,0:0|0:0|0:0,0:0:0:0:
276,344,84931,6,0,L|86:323,2,178.499994552612,6|0|8,3:2|3:0|0:0,0:0:0:0:
313,250,86247,1,0,0:0:0:0:
233,187,86435,2,0,P|167:194|127:239,1,118.999996368408,2|0,3:2|0:0,0:0:0:0:
211,283,86999,1,0,3:0:0:0:
233,187,87187,2,0,B|240:153|240:153|236:128,1,59.4999981842042,2|0,0:0|0:0,0:0:0:0:
141,53,87563,2,0,B|134:87|134:87|137:111,1,59.4999981842042,8|0,0:0|0:0,0:0:0:0:
237,36,87939,6,0,B|337:14|314:100|412:67,2,178.499994552612,2|0|8,3:2|3:0|0:0,0:0:0:0:
141,53,89254,1,0,0:0:0:0:
236,128,89442,1,2,3:2:0:0:
131,167,89630,1,2,0:0:0:0:
131,167,89818,2,0,L|65:157,1,59.4999981842042,2|2,0:0|3:2,0:0:0:0:
214,250,90194,2,0,L|298:235,1,59.4999981842042,2|2,0:0|0:0,0:0:0:0:
378,186,90570,2,0,P|387:216|387:245,1,59.4999981842042,10|2,0:0|0:0,0:0:0:0:
312,366,90946,6,0,P|244:317|271:238,2,178.499994552612,2|0|8,3:2|3:0|0:0,0:0:0:0:
403,344,92262,1,0,0:0:0:0:
431,201,92450,2,0,P|378:196|385:257,1,118.999996368408,2|0,3:2|0:0,0:0:0:0:
490,315,93014,1,0,3:0:0:0:
490,315,93202,2,0,P|500:269|495:235,1,59.4999981842042,2|0,0:0|0:0,0:0:0:0:
422,169,93578,2,0,L|346:178,1,59.4999981842042,8|0,0:0|0:0,0:0:0:0:
270,238,93954,6,0,L|73:219,1,178.499994552612,2|0,3:2|3:0,0:0:0:0:
38,131,94705,2,0,L|112:136,1,59.4999981842042,2|0,0:0|0:0,0:0:0:0:
146,311,95081,2,0,L|86:306,1,59.4999981842042,8|0,0:0|0:0,0:0:0:0:
5,238,95457,5,0,0:0:0:0:
188,141,95645,2,0,P|192:97|183:68,1,59.4999981842042,10|0,0:0|0:0,0:0:0:0:
217,122,96021,2,0,P|221:78|212:49,1,59.4999981842042,10|0,0:0|0:0,0:0:0:0:
246,103,96397,1,10,0:0:0:0:
127,16,96585,2,0,L|77:22,2,29.7499990921021,8|8|10,0:0|0:0|0:0,0:0:0:0:
246,103,96961,6,0,L|380:84,1,136,6|8,3:2|0:0,0:0:0:0:
481,65,97525,1,0,0:0:0:0:
455,172,97713,2,0,P|443:226|443:259,1,68,0|0,3:0|0:0,0:0:0:0:
258,169,98089,2,0,P|254:135|245:102,1,68,8|0,0:0|0:0,0:0:0:0:
26,45,98465,6,0,L|99:52,1,68,2|0,3:2|0:0,0:0:0:0:
162,152,98841,2,0,L|89:159,1,68,8|0,0:0|0:0,0:0:0:0:
26,259,99217,2,0,L|99:266,1,68,2|0,3:2|0:0,0:0:0:0:
162,366,99593,2,0,L|89:373,1,68,8|0,0:0|0:0,0:0:0:0:
198,259,99969,6,0,P|269:303|272:370,1,136,2|8,3:2|0:0,0:0:0:0:
324,227,100533,1,0,0:0:0:0:
406,288,100720,2,0,L|390:372,1,68,2|0,3:2|0:0,0:0:0:0:
419,178,101096,1,8,0:0:0:0:
506,249,101284,1,0,0:0:0:0:
473,102,101472,6,0,P|408:89|392:92,1,68,2|0,3:2|0:0,0:0:0:0:
306,104,101848,1,10,0:0:0:0:
419,178,102036,2,0,P|356:199|343:209,1,68,2|0,0:0|3:0,0:0:0:0:
225,280,102412,1,2,0:0:0:0:
225,280,102600,2,0,P|287:258|300:248,1,68,8|0,0:0|0:0,0:0:0:0:
218,154,102976,6,0,L|80:137,1,136,6|8,3:2|0:0,0:0:0:0:
160,63,103540,1,0,0:0:0:0:
160,63,103728,2,0,P|208:46|244:50,1,68,2|0,3:2|0:0,0:0:0:0:
136,222,104104,2,0,P|88:239|52:235,1,68,8|0,0:0|0:0,0:0:0:0:
218,154,104480,6,0,P|228:227|226:243,1,68,2|0,3:2|0:0,0:0:0:0:
294,351,104856,2,0,P|295:317|304:284,1,68,8|0,0:0|0:0,0:0:0:0:
136,222,105232,2,0,P|146:295|144:311,1,68,2|0,3:2|0:0,0:0:0:0:
389,325,105608,2,0,P|390:291|399:258,1,68,8|0,0:0|0:0,0:0:0:0:
455,129,105984,5,2,3:2:0:0:
455,129,106360,1,10,0:0:0:0:
266,152,106548,1,2,0:0:0:0:
439,94,106736,1,2,0:0:0:0:
272,45,106924,1,2,0:0:0:0:
366,205,107111,1,10,0:0:0:0:
366,12,107299,6,0,P|353:65|361:108,1,85,6|0,0:0|0:0,0:0:0:0:
413,296,107675,1,10,0:0:0:0:
261,203,107863,1,10,0:0:0:0:
455,129,108051,2,0,P|467:181|459:232,1,85,6|0,0:0|0:0,0:0:0:0:
284,325,108427,5,10,0:0:0:0:
174,286,108615,1,10,0:0:0:0:
148,169,108803,1,10,0:0:0:0:
148,169,108897,1,8,0:0:0:0:
148,169,108991,6,0,P|134:104|151:50,1,118.999996368408,6|0,3:2|0:0,0:0:0:0:
231,108,109555,1,0,3:0:0:0:
314,47,109743,2,0,P|328:112|311:166,1,118.999996368408,2|8,3:2|0:0,0:0:0:0:
313,161,110307,1,0,0:0:0:0:
237,259,110495,6,0,L|231:121,1,118.999996368408,2|0,3:2|0:0,0:0:0:0:
226,23,111059,1,0,3:0:0:0:
136,91,111247,2,0,P|94:107|68:103,1,59.4999981842042,2|0,3:2|0:0,0:0:0:0:
20,217,111623,2,0,P|62:201|88:205,1,59.4999981842042,8|0,0:0|0:0,0:0:0:0:
237,259,111999,6,0,P|176:284|111:264,1,118.999996368408,2|0,3:2|0:0,0:0:0:0:
171,190,112563,1,0,3:0:0:0:
279,337,112751,2,0,P|340:362|405:342,1,118.999996368408,2|8,3:2|0:0,0:0:0:0:
345,268,113314,1,0,0:0:0:0:
487,267,113502,5,2,3:2:0:0:
487,267,113878,2,0,L|485:202,1,59.4999981842042,2|2,0:0|3:2,0:0:0:0:
393,80,114254,2,0,L|397:217,1,118.999996368408,2|10,3:2|0:0,0:0:0:0:
285,113,114818,6,0,B|205:96|215:163|134:139,1,152.999995330811,6|2,0:0|0:0,0:0:0:0:
267,201,115382,1,10,0:0:0:0:
150,54,115570,1,10,0:0:0:0:
101,242,115758,1,10,0:0:0:0:
101,242,116322,6,0,P|173:304|236:296,1,152.999995330811,6|2,0:0|0:0,0:0:0:0:
352,182,116886,1,10,0:0:0:0:
196,202,117074,1,10,0:0:0:0:
334,311,117262,1,10,0:0:0:0:
334,311,117450,2,0,L|343:277,8,25.4999992218018,2|2|2|2|2|2|2|2|2,0:0|0:0|0:0|0:0|0:0|0:0|0:0|0:0|0:0,0:0:0:0:
351,256,118014,6,0,P|360:210|348:173,1,76.4999976654053,6|0,0:0|0:0,0:0:0:0:
204,119,118390,2,0,P|239:149|277:157,1,76.4999976654053,10|0,0:0|0:0,0:0:0:0:
396,60,118766,2,0,P|351:75|325:104,1,76.4999976654053,2|0,0:0|0:0,0:0:0:0:
351,256,119142,1,10,0:0:0:0:
204,119,119330,6,0,P|130:121|77:179,1,152.999995330811,6|2,0:0|0:0,0:0:0:0:
36,301,119893,1,10,0:0:0:0:
171,213,120081,1,2,0:0:0:0:
13,188,120269,2,0,L|7:131,3,38.2499988327027,10|8|10|8,0:0|0:0|0:0|0:0,0:0:0:0:
42,114,120645,2,0,L|37:75,3,38.2499988327027,10|8|10|8,0:0|0:0|0:0|0:0,0:0:0:0:
131,122,121021,6,0,P|182:145|229:145,1,85,6|0,3:2|0:0,0:0:0:0:
374,61,121397,2,0,P|336:41|294:35,1,85,8|0,0:0|0:0,0:0:0:0:
310,234,121773,2,0,L|300:138,1,85,2|0,3:2|0:0,0:0:0:0:
476,85,122149,2,0,L|467:169,1,85,8|0,0:0|0:0,0:0:0:0:
425,361,122525,5,6,3:2:0:0:
310,234,122713,1,0,0:0:0:0:
417,259,122901,1,8,0:0:0:0:
308,372,123089,1,0,0:0:0:0:
204,345,123277,1,2,3:2:0:0:
159,202,123465,1,2,0:0:0:0:
159,202,123559,1,2,0:0:0:0:
159,202,123653,2,0,P|135:263|136:300,1,85,10|2,0:0|0:0,0:0:0:0:
314,201,124029,6,0,P|308:159|289:121,1,85,4|0,3:2|0:0,0:0:0:0:
159,202,124405,2,0,P|164:160|183:122,1,85,8|0,0:0|0:0,0:0:0:0:
293,35,124781,2,0,L|393:49,1,85,2|0,3:2|0:0,0:0:0:0:
180,34,125157,2,0,L|80:48,1,85,8|0,0:0|0:0,0:0:0:0:
238,182,125533,5,6,3:2:0:0:
69,143,125720,1,0,0:0:0:0:
168,102,125908,1,8,0:0:0:0:
184,275,126096,1,0,0:0:0:0:
79,250,126284,1,2,3:2:0:0:
238,182,126472,1,2,0:0:0:0:
238,182,126660,2,0,P|277:227|285:254,1,85,10|2,0:0|0:0,0:0:0:0:
350,378,127036,6,0,L|447:360,1,85,6|0,3:2|0:0,0:0:0:0:
511,237,127412,2,0,L|414:219,1,85,8|0,0:0|0:0,0:0:0:0:
350,96,127788,2,0,L|447:78,1,85,2|0,3:2|0:0,0:0:0:0:
340,212,128164,1,8,0:0:0:0:
243,143,128352,6,0,B|152:124|168:197|75:172,1,170,2|0,0:0|0:0,0:0:0:0:
216,230,128916,1,8,0:0:0:0:
98,93,129104,1,0,0:0:0:0:
216,230,129292,2,0,P|234:282|224:331,1,85,2|0,3:2|0:0,0:0:0:0:
82,174,129668,2,0,P|80:131|97:92,1,85,8|0,0:0|0:0,0:0:0:0:
140,284,130044,6,0,L|21:302,1,85,6|0,3:2|0:0,0:0:0:0:
220,361,130420,2,0,L|304:348,1,85,10|0,0:0|0:0,0:0:0:0:
375,178,130796,2,0,L|256:196,1,85,2|0,3:2|0:0,0:0:0:0:
413,332,131172,1,10,0:0:0:0:
494,222,131360,6,0,P|507:137|429:75,1,170,6|2,0:0|0:0,0:0:0:0:
323,31,131924,1,10,0:0:0:0:
375,178,132111,1,2,0:0:0:0:
201,116,132299,2,0,P|192:96|187:76,3,42.5,10|8|10|8,0:0|0:0|0:0|0:0,0:0:0:0:
259,199,132675,2,0,P|280:200|300:207,3,42.5,10|8|10|8,0:0|0:0|0:0|0:0,0:0:0:0:
158,207,133051,6,0,P|145:224|82:261,1,85,6|0,3:2|0:0,0:0:0:0:
24,145,133427,2,0,P|36:127|100:91,1,85,8|0,0:0|0:0,0:0:0:0:
192,31,133803,2,0,L|203:140,1,85,2|0,3:2|0:0,0:0:0:0:
300,207,134179,2,0,L|291:122,1,85,8|0,0:0|0:0,0:0:0:0:
88,93,134555,5,6,3:2:0:0:
274,30,134743,1,0,0:0:0:0:
196,155,134931,1,8,0:0:0:0:
92,3,135119,1,0,0:0:0:0:
226,39,135307,1,2,3:2:0:0:
109,186,135495,1,2,0:0:0:0:
109,186,135589,1,2,0:0:0:0:
109,186,135683,2,0,P|66:201|22:199,1,85,10|2,0:0|0:0,0:0:0:0:
147,362,136059,6,0,L|155:268,1,85,6|0,3:2|0:0,0:0:0:0:
230,166,136435,2,0,L|246:279,1,85,8|0,0:0|0:0,0:0:0:0:
348,361,136811,2,0,L|356:267,1,85,2|0,3:2|0:0,0:0:0:0:
436,112,137187,2,0,L|452:225,1,85,8|0,0:0|0:0,0:0:0:0:
283,60,137563,5,6,3:2:0:0:
241,250,137751,1,0,0:0:0:0:
339,147,137939,1,8,0:0:0:0:
183,35,138127,1,0,0:0:0:0:
212,168,138314,1,2,3:2:0:0:
382,51,138502,1,2,0:0:0:0:
382,51,138690,2,0,P|311:39|283:50,1,85,10|2,0:0|0:0,0:0:0:0:
130,182,139066,6,0,P|172:183|254:88,1,152.999995330811,6|8,0:0|0:0,0:0:0:0:
194,11,139630,1,0,3:0:0:0:
94,30,139818,2,0,P|71:66|65:109,1,76.4999976654053,2|0,0:0|0:0,0:0:0:0:
130,182,140194,2,0,P|172:183|213:166,1,76.4999976654053,8|0,0:0|0:0,0:0:0:0:
403,52,140570,6,0,P|327:33|251:76,1,152.999995330811,6|8,0:0|0:0,0:0:0:0:
278,211,141134,2,0,L|283:151,1,38.2499988327027,2|2,0:0|0:0,0:0:0:0:
158,93,141322,2,0,L|166:189,1,76.4999976654053,2|0,0:0|0:0,0:0:0:0:
298,295,141698,2,0,L|305:210,1,76.4999976654053,8|0,0:0|0:0,0:0:0:0:
69,154,142074,6,0,P|63:241|131:280,1,170,6|8,0:0|0:0,0:0:0:0:
187,175,142638,1,0,0:0:0:0:
223,354,142826,1,2,0:0:0:0:
32,282,143014,1,0,0:0:0:0:
185,140,143202,1,8,0:0:0:0:
129,332,143390,1,6,0:0:0:0:
129,332,143766,5,2,0:0:0:0:
69,154,143954,1,6,0:0:0:0:
450,35,144893,2,0,L|456:80,1,42.5,8|8,3:0|3:0,0:0:0:0:
484,168,145081,6,0,B|391:186|409:115|317:128,2,170,6|8|0,3:2|0:0|3:0,0:0:0:0:
338,216,146021,1,2,0:0:0:0:
464,285,146209,1,10,0:0:0:0:
338,216,146397,1,2,0:0:0:0:
397,349,146585,6,0,P|330:372|249:321,1,170,2|10,3:2|0:0,0:0:0:0:
208,226,147149,1,2,0:0:0:0:
146,339,147337,1,0,3:0:0:0:
311,255,147525,1,2,0:0:0:0:
311,255,147713,2,0,P|312:197|294:165,1,85,10|2,0:0|0:0,0:0:0:0:
153,76,148089,6,0,L|252:71,1,85,2|2,3:2|0:0,0:0:0:0:
104,178,148465,1,10,0:0:0:0:
104,178,148653,1,2,0:0:0:0:
311,255,148841,1,2,3:2:0:0:
435,152,149029,2,0,L|350:156,1,85,2|8,0:0|0:0,0:0:0:0:
137,293,149405,1,10,0:0:0:0:
137,293,149499,1,10,0:0:0:0:
137,293,149593,6,0,P|202:296|236:282,1,85,6|2,3:2|0:0,0:0:0:0:
260,161,149969,1,10,0:0:0:0:
103,121,150157,1,2,0:0:0:0:
103,121,150345,2,0,P|99:195|113:223,1,85,2|0,3:2|0:0,0:0:0:0:
260,161,150720,2,0,P|264:87|250:59,1,85,8|8,0:0|0:0,0:0:0:0:
246,42,151002,1,8,0:0:0:0:
246,42,151096,6,0,L|189:48,3,42.5,6|2|2|2,3:2|0:0|0:0|0:0,0:0:0:0:
117,85,151472,2,0,L|74:80,3,42.5,10|2|2|2,0:0|0:0|0:0|0:0,0:0:0:0:
3,161,151848,2,0,L|9:218,3,42.5,2|2|2|2,3:2|0:0|0:0|0:0,0:0:0:0:
46,290,152224,2,0,L|41:332,3,42.5,10|2|2|2,0:0|0:0|0:0|0:0,0:0:0:0:
110,212,152600,6,0,P|189:195|250:265,1,170,2|10,3:2|0:0,0:0:0:0:
355,357,153164,1,2,0:0:0:0:
355,357,153352,2,0,P|299:359|254:339,1,85,2|0,3:2|0:0,0:0:0:0:
164,288,153728,1,10,0:0:0:0:
335,190,153916,1,10,0:0:0:0:
335,190,154010,1,10,0:0:0:0:
335,190,154104,6,0,L|323:292,1,85,6|2,3:2|0:0,0:0:0:0:
204,166,154480,2,0,L|194:81,1,85,10|2,0:0|0:0,0:0:0:0:
303,41,154856,2,0,P|248:38|187:100,2,127.5,2|2|2,3:2|0:0|0:0,0:0:0:0:
492,44,155608,5,2,3:2:0:0:
460,217,155796,1,2,0:0:0:0:
376,54,155984,1,10,0:0:0:0:
460,217,156172,1,2,0:0:0:0:
272,123,156360,2,0,P|256:173|261:217,1,85,2|0,3:2|0:0,0:0:0:0:
360,357,156736,2,0,P|376:307|371:263,1,85,8|0,0:0|0:0,0:0:0:0:
184,128,157111,5,6,0:0:0:0:
224,293,157299,1,2,0:0:0:0:
224,293,157393,1,2,0:0:0:0:
224,293,157487,1,10,0:0:0:0:
295,103,157675,2,0,P|339:87|391:94,2,85,6|2|10,0:0|0:0|0:0,0:0:0:0:
121,225,158239,2,0,P|176:221|218:193,1,85,6|2,0:0|0:0,0:0:0:0:
194,1,158615,6,0,P|118:44|152:147,1,204,6|0,0:0|0:0,0:0:0:0:
281,306,159367,6,0,L|295:99,1,203.999993774414,6|2,0:0|0:0,0:0:0:0:
72,37,166134,6,0,L|91:100,1,59.4999981842042,2|0,3:2|0:0,0:0:0:0:
221,163,166510,2,0,L|156:147,1,59.4999981842042,0|0,3:0|0:0,0:0:0:0:
37,229,166886,2,0,L|82:181,2,59.4999981842042,2|0|0,3:2|0:0|3:0,0:0:0:0:
118,314,167450,6,0,P|198:305|227:265,1,118.999996368408,2|0,0:0|0:0,0:0:0:0:
149,234,168014,1,0,3:0:0:0:
221,163,168202,1,0,0:0:0:0:
302,220,168390,1,2,0:0:0:0:
302,220,168578,1,2,0:0:0:0:
302,220,168766,2,0,L|396:209,1,89.2499972763062,2|0,3:2|0:0,0:0:0:0:
465,153,169142,6,0,P|482:192|480:234,1,85,6|0,0:0|0:0,0:0:0:0:
343,39,169517,2,0,P|326:77|328:119,1,85,10|0,0:0|0:0,0:0:0:0:
374,343,169893,2,0,P|377:273|296:219,1,170,2|10,0:0|0:0,0:0:0:0:
121,281,170457,6,0,B|176:308|176:308|292:308,1,170,6|2,0:0|0:0,0:0:0:0:
480,233,171021,1,10,0:0:0:0:
252,151,171209,1,2,0:0:0:0:
374,343,171397,2,0,L|381:288,3,42.5,10|8|10|8,0:0|0:0|0:0|0:0,0:0:0:0:
480,233,171773,1,10,0:0:0:0:
477,211,171867,1,8,0:0:0:0:
475,190,171961,1,10,0:0:0:0:
473,169,172055,1,8,0:0:0:0:
470,147,172149,6,0,P|416:123|373:127,1,85,6|0,3:2|0:0,0:0:0:0:
236,260,172525,2,0,P|278:256|314:236,1,85,8|0,0:0|0:0,0:0:0:0:
262,67,172901,2,0,P|251:144|253:163,1,85,2|0,3:2|0:0,0:0:0:0:
136,278,173277,2,0,P|135:235|125:194,1,85,8|0,0:0|0:0,0:0:0:0:
29,31,173653,5,6,3:2:0:0:
200,92,173841,1,0,0:0:0:0:
58,136,174029,1,8,0:0:0:0:
186,7,174217,1,0,0:0:0:0:
226,176,174405,1,2,3:2:0:0:
29,31,174593,1,2,0:0:0:0:
29,31,174687,1,2,0:0:0:0:
29,31,174781,2,0,P|18:79|25:123,1,85,10|2,0:0|0:0,0:0:0:0:
51,288,175157,6,0,L|159:274,1,85,6|0,3:2|0:0,0:0:0:0:
226,176,175533,2,0,P|165:154|132:158,1,85,8|0,0:0|0:0,0:0:0:0:
256,349,175908,2,0,L|364:335,1,85,2|0,3:2|0:0,0:0:0:0:
458,206,176284,2,0,P|397:184|364:188,1,85,8|0,0:0|0:0,0:0:0:0:
227,265,176660,5,6,3:2:0:0:
436,305,176848,1,0,0:0:0:0:
319,208,177036,1,8,0:0:0:0:
512,164,177224,1,0,0:0:0:0:
413,276,177412,1,2,3:2:0:0:
339,61,177600,1,2,0:0:0:0:
339,61,177788,2,0,P|385:59|438:71,1,85,10|2,0:0|0:0,0:0:0:0:
227,265,178164,6,0,P|154:278|83:214,1,152.999995330811,6|8,0:0|0:0,0:0:0:0:
107,110,178728,1,0,3:0:0:0:
215,101,178916,2,0,P|262:157|269:173,1,76.4999976654053,2|0,0:0|0:0,0:0:0:0:
227,265,179292,2,0,P|154:276|134:268,1,76.4999976654053,8|0,0:0|0:0,0:0:0:0:
215,101,179668,6,0,P|302:80|387:95,1,152.999995330811,6|8,0:0|0:0,0:0:0:0:
494,146,180232,2,0,L|487:212,1,38.2499988327027,2|2,0:0|0:0,0:0:0:0:
410,282,180420,2,0,L|401:190,1,76.4999976654053,2|0,0:0|0:0,0:0:0:0:
215,101,180796,2,0,L|206:185,1,76.4999976654053,8|0,0:0|0:0,0:0:0:0:
49,311,181172,6,0,B|138:292|116:371|214:349,1,170,2|8,0:0|0:0,0:0:0:0:
307,310,181736,1,0,0:0:0:0:
126,219,181924,1,2,0:0:0:0:
323,162,182111,1,0,0:0:0:0:
206,351,182299,1,8,0:0:0:0:
127,131,182487,1,6,0:0:0:0:
127,131,182863,5,2,0:0:0:0:
250,246,183051,1,6,0:0:0:0:
446,38,183803,5,2,0:0:0:0:
446,38,183897,1,2,0:0:0:0:
446,38,183991,1,2,0:0:0:0:
446,38,184085,1,2,0:0:0:0:
446,38,184179,6,0,L|458:141,1,85,6|0,3:2|0:0,0:0:0:0:
277,107,184555,2,0,P|339:88|379:94,1,85,10|2,0:0|0:0,0:0:0:0:
510,205,184931,1,2,3:2:0:0:
510,205,185119,2,0,P|448:220|410:209,1,85,2|8,0:0|0:0,0:0:0:0:
338,183,185495,1,2,0:0:0:0:
282,332,185683,6,0,L|269:234,1,85,6|2,3:2|0:0,0:0:0:0:
173,134,186059,2,0,L|151:307,2,170,10|2|10,0:0|3:2|0:0,0:0:0:0:
272,92,186999,1,2,0:0:0:0:
116,27,187187,6,0,P|52:36|32:51,1,85,6|0,3:2|0:0,0:0:0:0:
16,203,187563,2,0,P|80:194|100:179,1,85,10|2,0:0|0:0,0:0:0:0:
272,92,187939,1,2,3:2:0:0:
272,92,188127,2,0,P|208:101|188:116,1,85,2|8,0:0|0:0,0:0:0:0:
202,237,188502,1,2,0:0:0:0:
381,161,188690,5,6,3:2:0:0:
192,111,188878,1,2,0:0:0:0:
329,267,189066,1,10,0:0:0:0:
306,65,189254,1,2,0:0:0:0:
329,267,189442,1,2,3:2:0:0:
455,102,189630,1,2,0:0:0:0:
455,102,189818,2,0,P|474:164|466:204,1,85,10|2,0:0|0:0,0:0:0:0:
395,368,190194,6,0,L|228:333,1,170,6|8,0:0|0:0,0:0:0:0:
77,370,190758,2,0,L|190:243,1,170,6|8,0:0|0:0,0:0:0:0:
234,94,191322,2,0,L|287:255,1,170,6|8,0:0|0:0,0:0:0:0:
395,368,191886,2,0,L|228:333,1,170,6|8,0:0|0:0,0:0:0:0:
77,370,192450,1,10,0:0:0:0:
234,94,192826,1,10,0:0:0:0:
395,368,193202,5,6,0:0:0:0:
395,368,193766,1,6,0:0:0:0:
395,368,194330,1,6,0:0:0:0:
395,368,194893,5,14,0:0:0:0:
190,243,195081,1,10,0:0:0:0:
356,133,195269,1,10,0:0:0:0:
228,333,195457,1,10,0:0:0:0:
