osu file format v14

[General]
AudioFilename: audio.mp3
AudioLeadIn: 0
PreviewTime: 48653
Countdown: 0
SampleSet: Soft
StackLeniency: 0.7
Mode: 0
LetterboxInBreaks: 0
WidescreenStoryboard: 1

[Editor]
Bookmarks: 160119,166134
DistanceSpacing: 0.9
BeatDivisor: 4
GridSize: 32
TimelineZoom: 1.256003

[Metadata]
Title:Itsudatte Call Me!
TitleUnicode:いつだってCall Me!
Artist:Ogura Yui
ArtistUnicode:小倉唯
Creator:Yuuma
Version:Hard
Source:
Tags:Strawberry JAM japanese pop jpop j-pop
BeatmapID:2535625
BeatmapSetID:1218635

[Difficulty]
HPDrainRate:4
CircleSize:3.5
OverallDifficulty:6
ApproachRate:7.5
SliderMultiplier:1.5
SliderTickRate:1

[Events]
//Background and Video events
0,0,"yui.jpg",0,0
//Break Periods
2,160318,165309
//Storyboard Layer 0 (Background)
//Storyboard Layer 1 (Fail)
//Storyboard Layer 2 (Pass)
//Storyboard Layer 3 (Foreground)
//Storyboard Layer 4 (Overlay)
//Storyboard Sound Samples

[TimingPoints]
721,375.93984962406,4,2,1,80,1,0
12751,-142.857142857143,4,2,1,60,0,0
24781,-125,4,2,1,70,0,0
33803,-100,4,2,1,70,0,0
36811,-142.857142857143,4,2,1,60,0,0
42638,-111.111111111111,4,2,1,70,0,0
48841,-100,4,2,1,80,0,1
72901,-100,4,2,1,80,0,0
84931,-142.857142857143,4,2,1,60,0,0
96961,-125,4,2,1,70,0,0
105984,-100,4,2,1,70,0,0
108991,-142.857142857143,4,2,1,60,0,0
114818,-111.111111111111,4,2,1,70,0,0
121021,-100,4,2,1,80,0,1
145081,-100,4,2,1,80,0,0
158615,-125,4,2,1,70,0,0
159367,-166.666666666667,4,2,1,60,0,0
166134,-142.857142857143,4,2,1,60,0,0
169142,-100,4,2,1,70,0,0
172149,-100,4,2,1,80,0,1
184179,-100,4,2,1,80,0,0

[Colours]
Combo1 : 255,183,219
Combo2 : 255,128,255
Combo3 : 255,55,255

[HitObjects]
35,278,345,6,0,L|38:240,3,37.5,2|2|2|2,0:0|0:0|0:0|0:0,0:0:0:0:
43,204,721,6,0,B|108:180|117:243|192:220,1,150,6|10,3:2|0:0,0:0:0:0:
289,176,1284,1,2,0:0:0:0:
384,243,1472,1,2,3:2:0:0:
384,243,1660,2,0,L|377:325,2,75,2|8|2,0:0|0:0|0:0,0:0:0:0:
470,171,2224,6,0,L|450:23,1,150,6|10,3:2|0:0,0:0:0:0:
289,176,2976,2,0,L|205:163,1,75,2|2,3:2|0:0,0:0:0:0:
155,74,3352,2,0,L|80:85,1,75,10|2,0:0|0:0,0:0:0:0:
13,174,3728,6,0,P|7:229|83:298,1,150,6|10,3:2|0:0,0:0:0:0:
175,333,4292,1,2,0:0:0:0:
233,234,4480,1,2,3:2:0:0:
233,234,4668,2,0,P|183:218|152:222,2,75,2|8|2,0:0|0:0|0:0,0:0:0:0:
328,293,5232,6,0,P|359:313|396:318,1,75,6|2,3:2|0:0,0:0:0:0:
473,236,5608,2,0,P|441:215|404:210,1,75,10|2,0:0|0:0,0:0:0:0:
305,156,5984,1,2,3:2:0:0:
397,90,6172,2,0,L|406:13,2,75,2|10|2,0:0|0:0|0:0,0:0:0:0:
292,49,6736,6,0,B|216:36|226:96|144:78,1,150,6|8,0:0|0:0,0:0:0:0:
69,5,7299,2,0,P|40:38|57:141,1,150,6|8,0:0|0:0,0:0:0:0:
155,185,7863,2,0,P|61:202|28:257,1,150,6|8,0:0|0:0,0:0:0:0:
135,301,8427,2,0,B|211:288|201:348|282:330,1,150,6|8,0:0|0:0,0:0:0:0:
379,287,8991,1,10,0:0:0:0:
247,207,9367,1,10,0:0:0:0:
385,129,9743,5,6,0:0:0:0:
277,331,10307,1,6,0:0:0:0:
156,136,10871,1,6,0:0:0:0:
385,129,11435,2,0,L|394:214,2,75,10|10|10,0:0|0:0|0:0,0:0:0:0:
405,24,11999,2,0,P|363:22|329:35,1,75,10|0,0:0|0:0,0:0:0:0:
244,105,12375,2,0,P|209:117|187:116,2,37.5,10|10|10,0:0|0:0|0:0,0:0:0:0:
195,21,12751,6,0,P|137:40|116:95,2,104.999996795654,6|8|2,3:2|0:0|3:2,0:0:0:0:
198,104,13690,1,0,0:0:0:0:
198,104,13878,2,0,L|188:178,1,52.4999983978272,8|0,0:0|0:0,0:0:0:0:
121,203,14254,2,0,L|132:275,1,52.4999983978272,2|0,3:2|0:0,0:0:0:0:
143,337,14630,2,0,P|216:351|250:329,2,104.999996795654,8|2|8,0:0|3:2|0:0,0:0:0:0:
23,201,15758,6,0,P|71:184|120:202,1,104.999996795654,2|8,3:2|0:0,0:0:0:0:
206,214,16322,1,0,0:0:0:0:
206,214,16510,2,0,L|271:207,1,52.4999983978272,2|0,3:2|0:0,0:0:0:0:
329,262,16886,2,0,L|394:255,1,52.4999983978272,8|0,0:0|0:0,0:0:0:0:
461,225,17262,6,0,B|474:181|474:181|461:114,1,104.999996795654,2|8,3:2|0:0,0:0:0:0:
371,27,18014,1,2,3:2:0:0:
371,27,18202,1,2,0:0:0:0:
371,27,18390,2,0,L|362:98,1,52.4999983978272,10|0,0:0|0:0,0:0:0:0:
287,119,18766,6,0,B|228:132|236:85|172:97,2,104.999996795654,2|8|2,3:2|0:0|3:2,0:0:0:0:
347,185,19705,1,0,0:0:0:0:
347,185,19893,2,0,P|352:231|346:245,1,52.4999983978272,8|0,0:0|0:0,0:0:0:0:
305,306,20269,2,0,L|246:297,1,52.4999983978272,2|0,3:2|0:0,0:0:0:0:
196,238,20645,2,0,L|144:245,1,52.4999983978272,8|0,0:0|0:0,0:0:0:0:
87,308,21021,2,0,P|65:260|74:208,1,104.999996795654,2|8,3:2|0:0,0:0:0:0:
182,139,21773,6,0,P|204:187|195:239,1,104.999996795654,2|8,3:2|0:0,0:0:0:0:
185,328,22337,1,0,0:0:0:0:
185,328,22525,2,0,P|228:339|256:338,1,52.4999983978272,2|0,3:2|0:0,0:0:0:0:
327,342,22901,2,0,P|338:299|337:271,1,52.4999983978272,8|0,0:0|0:0,0:0:0:0:
327,203,23277,5,2,3:2:0:0:
416,220,23465,2,0,P|449:256|505:257,2,104.999996795654,10|10|10,0:0|0:0|0:0,0:0:0:0:
388,126,24405,2,0,L|381:83,2,26.2499991989136,8|8|10,0:0|0:0|0:0,0:0:0:0:
327,203,24781,6,0,L|183:184,2,120,6|8|2,3:2|0:0|3:2,0:0:0:0:
278,113,25720,1,0,0:0:0:0:
278,113,25908,2,0,P|234:100|208:100,1,60,8|0,0:0|0:0,0:0:0:0:
141,52,26284,6,0,P|129:102|135:126,1,60,2|0,3:2|0:0,0:0:0:0:
55,159,26660,2,0,P|91:194|168:189,2,120,8|2|8,0:0|3:2|0:0,0:0:0:0:
141,52,27788,6,0,P|199:49|243:87,1,120,2|8,3:2|0:0,0:0:0:0:
284,170,28352,1,0,0:0:0:0:
284,170,28540,2,0,L|268:243,1,60,2|0,3:2|0:0,0:0:0:0:
349,278,28916,2,0,L|361:219,1,60,8|0,0:0|0:0,0:0:0:0:
437,167,29292,6,0,L|454:291,1,120,2|8,3:2|0:0,0:0:0:0:
329,366,30044,1,2,3:2:0:0:
329,366,30232,1,2,0:0:0:0:
329,366,30420,2,0,L|266:354,1,60,10|0,0:0|0:0,0:0:0:0:
209,283,30796,6,0,P|140:277|92:325,1,120,6|8,3:2|0:0,0:0:0:0:
33,366,31360,1,0,0:0:0:0:
33,366,31548,2,0,P|12:328|33:250,1,120,2|8,3:2|0:0,0:0:0:0:
89,182,32111,1,0,0:0:0:0:
23,105,32299,6,0,L|89:92,1,60,2|0,3:2|0:0,0:0:0:0:
160,34,32675,2,0,L|218:45,1,60,8|0,0:0|0:0,0:0:0:0:
276,123,33051,2,0,L|402:101,2,120,2|8|2,3:2|0:0|3:2,0:0:0:0:
89,182,34179,6,0,L|100:265,1,75,10|2,0:0|0:0,0:0:0:0:
179,337,34555,2,0,L|188:262,1,75,2|2,0:0|0:0,0:0:0:0:
288,210,34931,1,10,0:0:0:0:
323,319,35119,6,0,P|372:332|440:264,1,150,6|10,0:0|0:0,0:0:0:0:
465,158,35683,1,10,0:0:0:0:
368,94,35871,2,0,B|293:84|302:141|221:126,1,150,6|10,0:0|0:0,0:0:0:0:
123,82,36435,1,10,0:0:0:0:
32,152,36623,1,10,0:0:0:0:
32,152,36717,1,8,0:0:0:0:
32,152,36811,6,0,L|57:316,1,157.499995193482,6|0,3:2|3:0,0:0:0:0:
133,338,37563,2,0,L|146:220,1,104.999996795654,2|8,3:2|0:0,0:0:0:0:
197,109,38314,1,2,3:2:0:0:
330,121,38690,1,0,0:0:0:0:
360,252,39066,1,2,3:2:0:0:
245,320,39442,1,8,0:0:0:0:
144,233,39818,6,0,P|126:187|155:81,1,157.499995193482,2|0,3:2|3:0,0:0:0:0:
214,22,40570,2,0,P|264:42|316:38,1,104.999996795654,2|8,3:2|0:0,0:0:0:0:
395,17,41134,1,0,0:0:0:0:
439,89,41322,1,2,3:2:0:0:
439,89,41698,2,0,P|426:134|426:158,1,52.4999983978272,2|2,0:0|3:2,0:0:0:0:
353,178,42074,2,0,P|397:220|446:221,1,104.999996795654,2|10,3:2|0:0,0:0:0:0:
479,317,42638,6,0,L|335:333,1,134.999995880127,6|2,0:0|0:0,0:0:0:0:
245,343,43202,2,0,L|149:328,1,67.4999979400635,10|10,0:0|0:0,0:0:0:0:
78,315,43578,1,10,0:0:0:0:
35,107,44142,6,0,P|99:89|176:142,1,134.999995880127,6|2,0:0|0:0,0:0:0:0:
230,192,44705,2,0,P|275:210|310:204,1,67.4999979400635,10|10,0:0|0:0,0:0:0:0:
396,181,45081,1,10,0:0:0:0:
396,181,45457,2,0,L|406:227,2,33.7499989700318,10|10|10,0:0|0:0|0:0,0:0:0:0:
430,78,45833,6,0,P|353:71|304:123,1,134.999995880127,6|10,0:0|0:0,0:0:0:0:
142,236,46585,2,0,P|219:243|268:191,1,134.999995880127,2|10,0:0|0:0,0:0:0:0:
182,138,47149,6,0,P|105:131|56:183,1,134.999995880127,6|2,0:0|0:0,0:0:0:0:
15,255,47713,1,10,0:0:0:0:
93,320,47901,1,2,0:0:0:0:
142,236,48089,2,0,L|146:189,7,33.7499989700318,10|8|10|8|10|8|10|8,0:0|0:0|0:0|0:0|0:0|0:0|0:0|0:0,0:0:0:0:
151,165,48841,6,0,P|204:149|237:155,1,75,6|0,3:2|0:0,0:0:0:0:
326,184,49217,1,8,0:0:0:0:
215,335,49593,2,0,P|268:351|301:345,1,75,2|0,3:2|0:0,0:0:0:0:
390,316,49969,1,8,0:0:0:0:
473,180,50345,6,0,L|463:99,1,75,6|0,3:2|0:0,0:0:0:0:
377,36,50720,2,0,L|367:110,1,75,8|0,0:0|0:0,0:0:0:0:
303,201,51096,1,2,3:2:0:0:
236,113,51284,1,2,0:0:0:0:
236,113,51378,1,2,0:0:0:0:
236,113,51472,2,0,P|200:101|158:104,1,75,10|2,0:0|0:0,0:0:0:0:
57,47,51848,6,0,P|39:108|46:140,1,75,6|0,3:2|0:0,0:0:0:0:
59,226,52224,1,8,0:0:0:0:
192,365,52600,2,0,P|210:304|203:272,1,75,2|0,3:2|0:0,0:0:0:0:
190,186,52976,1,8,0:0:0:0:
264,22,53352,6,0,L|345:34,1,75,6|0,3:2|0:0,0:0:0:0:
426,107,53728,2,0,L|345:119,1,75,8|0,0:0|0:0,0:0:0:0:
278,194,54104,1,2,3:2:0:0:
382,235,54292,1,2,0:0:0:0:
382,235,54480,2,0,P|394:286|386:320,1,75,10|2,0:0|0:0,0:0:0:0:
281,341,54856,6,0,L|199:330,1,75,6|0,3:2|0:0,0:0:0:0:
97,307,55232,2,0,L|147:241,1,75,8|0,0:0|0:0,0:0:0:0:
218,165,55608,2,0,L|249:241,2,75,2|0|8,3:2|0:0|0:0,0:0:0:0:
116,107,56172,6,0,P|171:56|262:64,1,150,2|0,0:0|0:0,0:0:0:0:
349,81,56736,1,8,0:0:0:0:
456,105,56924,1,0,0:0:0:0:
380,190,57111,2,0,P|372:238|386:280,2,75,2|0|8,3:2|0:0|0:0,0:0:0:0:
242,54,57863,6,0,P|264:111|234:206,2,150,6|10|2,3:2|0:0|3:2,0:0:0:0:
49,7,58991,1,10,0:0:0:0:
2,104,59179,2,0,P|-19:174|2:244,1,150,6|2,0:0|0:0,0:0:0:0:
84,315,59743,2,0,L|177:296,1,75,10|2,0:0|0:0,0:0:0:0:
254,248,60119,2,0,L|305:257,7,37.5,10|8|10|8|10|8|10|8,0:0|0:0|0:0|0:0|0:0|0:0|0:0|0:0,0:0:0:0:
312,289,60871,6,0,P|356:285|389:264,1,75,6|0,3:2|0:0,0:0:0:0:
469,204,61247,1,8,0:0:0:0:
301,80,61623,2,0,P|257:84|224:105,1,75,2|0,3:2|0:0,0:0:0:0:
144,165,61999,1,8,0:0:0:0:
312,289,62375,6,0,L|322:208,1,75,6|0,3:2|0:0,0:0:0:0:
423,166,62751,2,0,L|413:85,1,75,8|0,0:0|0:0,0:0:0:0:
335,7,63127,1,2,3:2:0:0:
242,77,63314,1,2,0:0:0:0:
242,77,63408,1,2,0:0:0:0:
242,77,63502,2,0,P|188:102|165:103,1,75,10|2,0:0|0:0,0:0:0:0:
60,72,63878,6,0,L|68:165,1,75,6|0,3:2|0:0,0:0:0:0:
76,260,64254,1,8,0:0:0:0:
234,140,64630,2,0,L|226:233,1,75,2|0,3:2|0:0,0:0:0:0:
218,328,65006,1,8,0:0:0:0:
399,203,65382,6,0,P|361:202|326:213,1,75,6|0,3:2|0:0,0:0:0:0:
377,308,65758,2,0,P|414:308|449:297,1,75,8|0,0:0|0:0,0:0:0:0:
506,204,66134,1,2,3:2:0:0:
454,106,66322,1,2,0:0:0:0:
454,106,66510,2,0,P|434:62|404:34,1,75,10|2,0:0|0:0,0:0:0:0:
296,56,66886,6,0,P|244:110|153:114,1,150,6|8,0:0|0:0,0:0:0:0:
89,54,67450,1,0,3:0:0:0:
89,54,67638,2,0,P|64:109|70:145,1,75,2|0,0:0|0:0,0:0:0:0:
120,214,68014,1,8,0:0:0:0:
61,302,68202,1,0,0:0:0:0:
61,302,68390,6,0,B|142:287|123:362|236:327,1,150,6|8,0:0|0:0,0:0:0:0:
276,256,68954,1,2,0:0:0:0:
276,256,69048,1,2,0:0:0:0:
276,256,69142,2,0,P|312:249|359:263,1,75,2|0,0:0|0:0,0:0:0:0:
309,361,69517,1,8,0:0:0:0:
178,187,69893,6,0,P|168:133|221:58,1,150,6|8,0:0|0:0,0:0:0:0:
324,22,70457,1,0,0:0:0:0:
324,22,70645,2,0,L|398:37,2,75,2|0|8,0:0|0:0|0:0,0:0:0:0:
341,132,71209,1,6,0:0:0:0:
341,132,71585,5,2,0:0:0:0:
447,158,71773,1,6,0:0:0:0:
228,351,72525,2,0,L|223:298,3,37.5,2|2|2|2,0:0|0:0|0:0|0:0,0:0:0:0:
221,278,72901,6,0,P|134:254|85:287,1,150,6|10,3:2|0:0,0:0:0:0:
10,210,73465,1,2,0:0:0:0:
86,133,73653,1,2,3:2:0:0:
86,133,73841,2,0,P|86:77|75:46,2,75,2|8|2,0:0|0:0|0:0,0:0:0:0:
147,221,74405,6,0,P|237:216|273:170,1,150,6|10,3:2|0:0,0:0:0:0:
272,1,75157,2,0,P|258:52|264:86,1,75,2|2,3:2|0:0,0:0:0:0:
359,136,75533,2,0,P|410:150|444:144,1,75,10|2,0:0|0:0,0:0:0:0:
481,255,75908,6,0,P|404:253|352:315,1,150,6|10,3:2|0:0,0:0:0:0:
286,370,76472,1,2,0:0:0:0:
206,294,76660,1,2,3:2:0:0:
206,294,76848,2,0,L|128:307,2,75,2|8|2,0:0|0:0|0:0,0:0:0:0:
296,224,77412,6,0,P|303:175|295:136,1,75,6|2,3:2|0:0,0:0:0:0:
206,93,77788,2,0,P|160:111|130:137,1,75,10|2,0:0|0:0,0:0:0:0:
138,237,78164,1,2,3:2:0:0:
138,237,78352,2,0,P|176:267|214:280,2,75,2|10|2,0:0|0:0|0:0,0:0:0:0:
214,182,78916,6,0,P|276:158|376:184,1,150,6|8,0:0|0:0,0:0:0:0:
435,258,79480,2,0,B|357:239|371:303|287:287,1,150,6|8,0:0|0:0,0:0:0:0:
184,289,80044,2,0,B|106:303|120:239|42:258,1,150,6|8,0:0|0:0,0:0:0:0:
12,152,80608,2,0,P|74:154|144:77,1,150,6|8,0:0|0:0,0:0:0:0:
206,17,81172,1,10,0:0:0:0:
372,68,81548,1,10,0:0:0:0:
247,186,81924,5,6,0:0:0:0:
482,107,82487,1,6,0:0:0:0:
426,357,83051,1,6,0:0:0:0:
247,186,83615,6,0,L|332:194,2,75,10|10|10,0:0|0:0|0:0,0:0:0:0:
154,132,84179,2,0,P|142:199|147:219,1,75,10|0,0:0|0:0,0:0:0:0:
173,315,84555,2,0,P|184:365|184:377,2,37.5,10|10|10,0:0|0:0|0:0,0:0:0:0:
76,289,84931,6,0,P|12:269|15:175,2,157.499995193482,6|0|8,3:2|3:0|0:0,0:0:0:0:
76,289,86435,2,0,P|151:275|192:278,1,104.999996795654,2|0,3:2|0:0,0:0:0:0:
264,315,86999,1,0,3:0:0:0:
264,315,87187,2,0,P|316:314|367:302,1,104.999996795654,2|8,0:0|0:0,0:0:0:0:
399,136,87939,6,0,P|391:191|300:209,2,157.499995193482,2|0|8,3:2|3:0|0:0,0:0:0:0:
255,17,89442,1,2,3:2:0:0:
255,17,89630,2,0,L|320:9,2,52.4999983978272,2|2|2,0:0|0:0|3:2,0:0:0:0:
182,68,90194,2,0,L|117:60,2,52.4999983978272,2|2|10,0:0|0:0|0:0,0:0:0:0:
264,106,90758,1,2,0:0:0:0:
264,106,90946,6,0,P|300:151|268:253,2,157.499995193482,2|0|8,3:2|3:0|0:0,0:0:0:0:
141,191,92450,2,0,P|136:248|159:295,1,104.999996795654,2|0,3:2|0:0,0:0:0:0:
209,362,93014,1,0,3:0:0:0:
209,362,93202,2,0,L|93:353,1,104.999996795654,2|8,0:0|0:0,0:0:0:0:
25,244,93954,6,0,P|6:169|27:86,1,157.499995193482,2|0,3:2|3:0,0:0:0:0:
96,40,94705,2,0,L|217:50,1,104.999996795654,2|8,0:0|0:0,0:0:0:0:
354,62,95457,5,0,0:0:0:0:
275,117,95645,2,0,P|263:157|288:225,2,104.999996795654,10|10|10,0:0|0:0|0:0,0:0:0:0:
354,62,96585,2,0,L|380:63,2,26.2499991989136,8|8|10,0:0|0:0|0:0,0:0:0:0:
359,161,96961,6,0,P|383:205|356:289,2,120,6|8|0,3:2|0:0|3:0,0:0:0:0:
275,117,97901,1,0,0:0:0:0:
275,117,98089,2,0,L|189:131,1,60,8|0,0:0|0:0,0:0:0:0:
147,191,98465,6,0,L|82:181,1,60,2|0,3:2|0:0,0:0:0:0:
11,244,98841,2,0,P|62:276|128:268,2,120,8|2|8,0:0|3:2|0:0,0:0:0:0:
49,77,99969,6,0,P|107:73|157:104,1,120,2|8,3:2|0:0,0:0:0:0:
216,181,100533,1,0,0:0:0:0:
216,181,100720,2,0,P|254:199|291:202,1,60,2|0,3:2|0:0,0:0:0:0:
315,285,101096,2,0,P|350:251|359:226,1,60,8|0,0:0|0:0,0:0:0:0:
440,265,101472,6,0,P|436:205|385:157,1,120,2|10,3:2|0:0,0:0:0:0:
317,122,102036,2,0,L|327:63,1,60,2|0,0:0|3:0,0:0:0:0:
409,14,102412,1,2,0:0:0:0:
409,14,102600,2,0,L|419:73,1,60,8|0,0:0|0:0,0:0:0:0:
463,160,102976,6,0,P|404:158|356:193,1,120,6|8,3:2|0:0,0:0:0:0:
302,267,103540,1,0,0:0:0:0:
302,267,103728,2,0,P|254:302|195:300,1,120,2|8,3:2|0:0,0:0:0:0:
118,269,104292,1,0,0:0:0:0:
62,198,104480,6,0,L|71:125,1,60,2|0,3:2|0:0,0:0:0:0:
154,92,104856,2,0,L|161:151,1,60,8|0,0:0|0:0,0:0:0:0:
246,193,105232,2,0,L|262:68,2,120,2|8|2,3:2|0:0|3:2,0:0:0:0:
320,354,106360,6,0,P|364:356|396:340,1,75,10|2,0:0|0:0,0:0:0:0:
444,241,106736,2,0,P|409:227|372:230,1,75,2|2,0:0|0:0,0:0:0:0:
270,262,107111,1,10,0:0:0:0:
188,329,107299,6,0,P|128:349|56:301,1,150,6|10,0:0|0:0,0:0:0:0:
138,229,107863,1,10,0:0:0:0:
34,187,108051,2,0,L|63:33,1,150,6|10,0:0|0:0,0:0:0:0:
152,98,108615,1,10,0:0:0:0:
235,32,108803,1,10,0:0:0:0:
235,32,108897,1,8,0:0:0:0:
235,32,108991,6,0,B|320:13|299:88|389:63,1,157.499995193482,6|0,3:2|3:0,0:0:0:0:
453,18,109743,2,0,P|468:52|449:122,1,104.999996795654,2|8,3:2|0:0,0:0:0:0:
284,238,110495,5,2,3:2:0:0:
324,116,110871,1,0,0:0:0:0:
453,116,111247,1,2,3:2:0:0:
492,238,111623,1,8,0:0:0:0:
389,315,111999,6,0,P|348:346|240:300,1,157.499995193482,2|0,3:2|3:0,0:0:0:0:
206,252,112751,2,0,P|151:229|94:254,1,104.999996795654,2|8,3:2|0:0,0:0:0:0:
43,291,113314,1,0,0:0:0:0:
14,214,113502,1,2,3:2:0:0:
14,214,113878,2,0,L|20:153,1,52.4999983978272,2|2,0:0|3:2,0:0:0:0:
101,200,114254,2,0,L|109:93,1,104.999996795654,2|10,3:2|0:0,0:0:0:0:
189,33,114818,6,0,B|265:21|251:76|320:61,1,134.999995880127,6|2,0:0|0:0,0:0:0:0:
401,18,115382,2,0,P|413:64|405:98,1,67.4999979400635,10|10,0:0|0:0,0:0:0:0:
378,177,115758,1,10,0:0:0:0:
378,177,116322,6,0,P|298:192|276:242,1,134.999995880127,6|2,0:0|0:0,0:0:0:0:
259,338,116886,2,0,L|343:323,1,67.4999979400635,10|10,0:0|0:0,0:0:0:0:
420,304,117262,1,10,0:0:0:0:
488,74,118014,6,0,P|421:84|359:61,1,134.999995880127,6|10,0:0|0:0,0:0:0:0:
148,48,118766,2,0,P|214:38|276:61,1,134.999995880127,2|10,0:0|0:0,0:0:0:0:
200,136,119330,2,0,P|137:159|71:149,1,134.999995880127,6|2,0:0|0:0,0:0:0:0:
8,230,119893,1,10,0:0:0:0:
89,293,120081,1,2,0:0:0:0:
152,212,120269,2,0,L|200:217,7,33.7499989700318,10|8|10|8|10|8|10|8,0:0|0:0|0:0|0:0|0:0|0:0|0:0|0:0,0:0:0:0:
212,246,121021,6,0,L|296:235,1,75,6|0,3:2|0:0,0:0:0:0:
396,221,121397,1,8,0:0:0:0:
512,78,121773,2,0,L|428:67,1,75,2|0,3:2|0:0,0:0:0:0:
328,53,122149,1,8,0:0:0:0:
168,0,122525,6,0,P|153:61|166:95,1,75,6|0,3:2|0:0,0:0:0:0:
68,118,122901,2,0,P|113:161|149:167,1,75,8|0,0:0|0:0,0:0:0:0:
231,138,123277,1,2,3:2:0:0:
188,238,123465,1,2,0:0:0:0:
188,238,123559,1,2,0:0:0:0:
188,238,123653,2,0,P|156:258|120:263,1,75,10|2,0:0|0:0,0:0:0:0:
190,354,124029,6,0,L|285:338,1,75,4|0,3:2|0:0,0:0:0:0:
369,321,124405,1,8,0:0:0:0:
231,138,124781,2,0,L|326:154,1,75,2|0,3:2|0:0,0:0:0:0:
410,171,125157,1,8,0:0:0:0:
250,34,125533,6,0,P|186:39|172:50,1,75,6|0,3:2|0:0,0:0:0:0:
99,115,125908,2,0,L|108:198,1,75,8|0,0:0|0:0,0:0:0:0:
118,294,126284,1,2,3:2:0:0:
208,227,126472,1,2,0:0:0:0:
208,227,126660,2,0,L|222:307,1,75,10|2,0:0|0:0,0:0:0:0:
331,353,127036,6,0,P|365:367|402:363,1,75,6|0,3:2|0:0,0:0:0:0:
476,277,127412,2,0,P|471:240|449:209,1,75,8|0,0:0|0:0,0:0:0:0:
338,190,127788,2,0,P|308:212|293:246,2,75,2|0|8,3:2|0:0|0:0,0:0:0:0:
407,102,128352,6,0,L|248:74,1,150,2|0,0:0|0:0,0:0:0:0:
151,52,128916,1,8,0:0:0:0:
180,159,129104,1,0,0:0:0:0:
71,133,129292,2,0,P|61:85|66:54,2,75,2|0|8,3:2|0:0|0:0,0:0:0:0:
265,230,130044,6,0,P|201:281|125:243,2,150,6|10|2,3:2|0:0|3:2,0:0:0:0:
344,36,131172,1,10,0:0:0:0:
437,76,131360,6,0,L|458:230,1,150,6|2,0:0|0:0,0:0:0:0:
368,287,131924,2,0,L|357:200,1,75,10|2,0:0|0:0,0:0:0:0:
298,120,132299,2,0,P|269:113|249:117,7,37.5,10|8|10|8|10|8|10|8,0:0|0:0|0:0|0:0|0:0|0:0|0:0|0:0,0:0:0:0:
230,139,133051,6,0,P|187:154|139:146,1,75,6|0,3:2|0:0,0:0:0:0:
53,114,133427,1,8,0:0:0:0:
0,307,133803,2,0,P|43:322|91:314,1,75,2|0,3:2|0:0,0:0:0:0:
177,282,134179,1,8,0:0:0:0:
373,360,134555,6,0,L|383:285,1,75,6|0,3:2|0:0,0:0:0:0:
492,271,134931,2,0,L|481:196,1,75,8|0,0:0|0:0,0:0:0:0:
470,91,135307,1,2,3:2:0:0:
395,178,135495,1,2,0:0:0:0:
395,178,135589,1,2,0:0:0:0:
395,178,135683,2,0,P|343:192|310:185,1,75,10|2,0:0|0:0,0:0:0:0:
216,222,136059,6,0,L|225:134,1,75,6|0,3:2|0:0,0:0:0:0:
236,42,136435,1,8,0:0:0:0:
48,3,136811,2,0,L|39:91,1,75,2|0,3:2|0:0,0:0:0:0:
28,183,137187,1,8,0:0:0:0:
124,333,137563,6,0,P|164:333|204:315,1,75,6|0,3:2|0:0,0:0:0:0:
283,369,137939,2,0,P|303:334|307:290,1,75,8|0,0:0|0:0,0:0:0:0:
233,218,138314,1,2,3:2:0:0:
345,192,138502,1,2,0:0:0:0:
345,192,138690,2,0,P|374:216|393:249,1,75,10|2,0:0|0:0,0:0:0:0:
473,335,139066,6,0,P|503:262|481:187,1,150,6|8,0:0|0:0,0:0:0:0:
414,107,139630,1,0,3:0:0:0:
309,69,139818,2,0,L|315:156,1,75,2|0,0:0|0:0,0:0:0:0:
215,193,140194,2,0,L|209:118,1,75,8|0,0:0|0:0,0:0:0:0:
123,58,140570,6,0,P|69:62|14:141,1,150,6|8,0:0|0:0,0:0:0:0:
37,240,141134,1,2,0:0:0:0:
37,240,141228,1,2,0:0:0:0:
37,240,141322,2,0,L|114:222,1,75,2|0,0:0|0:0,0:0:0:0:
215,193,141698,1,8,0:0:0:0:
398,303,142074,6,0,P|355:333|263:297,1,150,6|8,0:0|0:0,0:0:0:0:
331,231,142638,1,0,0:0:0:0:
331,231,142826,2,0,P|337:183|327:147,2,75,2|0|8,0:0|0:0|0:0,0:0:0:0:
215,193,143390,1,6,0:0:0:0:
215,193,143766,5,2,0:0:0:0:
231,82,143954,1,6,0:0:0:0:
231,82,145081,6,0,P|174:112|92:88,2,150,6|8|0,3:2|0:0|3:0,0:0:0:0:
331,22,146021,1,2,0:0:0:0:
331,22,146209,2,0,P|380:24|411:31,1,75,10|2,0:0|0:0,0:0:0:0:
492,121,146585,6,0,P|453:115|345:165,1,150,2|10,3:2|0:0,0:0:0:0:
280,247,147149,2,0,L|290:336,1,75,2|0,0:0|3:0,0:0:0:0:
399,357,147525,2,0,L|390:282,2,75,2|10|2,0:0|0:0|0:0,0:0:0:0:
288,321,148089,6,0,P|218:307|197:312,1,75,2|2,3:2|0:0,0:0:0:0:
113,346,148465,1,10,0:0:0:0:
113,346,148653,1,2,0:0:0:0:
26,281,148841,1,2,3:2:0:0:
26,281,149029,2,0,L|36:204,2,75,2|8|10,0:0|0:0|0:0,0:0:0:0:
129,233,149593,6,0,L|138:149,1,75,6|2,3:2|0:0,0:0:0:0:
150,52,149969,1,10,0:0:0:0:
244,131,150157,1,2,0:0:0:0:
244,131,150345,2,0,L|228:293,1,150,2|8,3:2|0:0,0:0:0:0:
403,361,151096,6,0,P|431:357|445:347,7,37.5,6|2|2|2|10|2|2|2,3:2|0:0|0:0|0:0|0:0|0:0|0:0|0:0,0:0:0:0:
463,320,151848,2,0,P|459:292|449:278,7,37.5,2|2|2|2|10|2|2|2,3:2|0:0|0:0|0:0|0:0|0:0|0:0|0:0,0:0:0:0:
437,247,152600,6,0,P|417:197|454:109,1,150,2|10,3:2|0:0,0:0:0:0:
468,19,153164,1,2,0:0:0:0:
468,19,153352,2,0,B|391:0|401:68|319:40,1,150,2|10,3:2|0:0,0:0:0:0:
228,21,153916,1,10,0:0:0:0:
228,21,154010,1,10,0:0:0:0:
228,21,154104,6,0,L|238:112,1,75,6|2,3:2|0:0,0:0:0:0:
129,132,154480,2,0,L|119:223,1,75,10|2,0:0|0:0,0:0:0:0:
201,287,154856,2,0,P|278:308|334:249,1,150,2|10,3:2|0:0,0:0:0:0:
414,79,155608,6,0,P|457:63|497:66,2,75,2|2|10,3:2|0:0|0:0,0:0:0:0:
315,137,156172,1,2,0:0:0:0:
315,137,156360,2,0,L|145:112,1,150,2|8,3:2|0:0,0:0:0:0:
74,295,157111,6,0,L|-1:308,2,75,6|2|10,0:0|0:0|0:0,0:0:0:0:
167,232,157675,2,0,L|242:245,2,75,6|2|10,0:0|0:0|0:0,0:0:0:0:
68,184,158239,2,0,P|53:150|67:101,1,75,6|2,0:0|0:0,0:0:0:0:
137,37,158615,6,0,B|235:18|216:96|315:63,1,180,6|0,0:0|0:0,0:0:0:0:
399,49,159367,6,0,B|421:98|404:161|404:161|364:161|338:133,1,179.999994506836,6|2,0:0|0:0,0:0:0:0:
26,48,166134,6,0,L|37:112,1,52.4999983978272,2|0,3:2|0:0,0:0:0:0:
50,182,166510,2,0,L|114:171,1,52.4999983978272,0|0,3:0|0:0,0:0:0:0:
174,123,166886,2,0,L|225:131,2,52.4999983978272,2|0|0,3:2|0:0|3:0,0:0:0:0:
206,219,167450,2,0,P|259:220|300:181,1,104.999996795654,2|0,0:0|0:0,0:0:0:0:
331,106,168014,1,0,3:0:0:0:
331,106,168202,1,0,0:0:0:0:
407,145,168390,2,0,P|452:168|502:155,1,104.999996795654,2|2,0:0|3:2,0:0:0:0:
310,336,169142,6,0,L|295:179,2,150,6|10|2,0:0|0:0|0:0,0:0:0:0:
123,273,170269,1,10,0:0:0:0:
35,341,170457,2,0,L|50:184,1,150,6|2,0:0|0:0,0:0:0:0:
66,76,171021,1,10,0:0:0:0:
153,147,171209,1,2,0:0:0:0:
172,36,171397,2,0,L|216:42,7,37.5,10|8|10|8|10|8|10|8,0:0|0:0|0:0|0:0|0:0|0:0|0:0|0:0,0:0:0:0:
236,73,172149,6,0,L|329:62,1,75,6|0,3:2|0:0,0:0:0:0:
416,49,172525,1,8,0:0:0:0:
495,241,172901,2,0,L|402:230,1,75,2|0,3:2|0:0,0:0:0:0:
315,217,173277,1,8,0:0:0:0:
132,160,173653,6,0,P|118:198|125:245,1,75,6|0,3:2|0:0,0:0:0:0:
71,329,174029,2,0,P|109:343|156:336,1,75,8|0,0:0|0:0,0:0:0:0:
253,307,174405,1,2,3:2:0:0:
206,207,174593,1,2,0:0:0:0:
206,207,174687,1,2,0:0:0:0:
206,207,174781,2,0,P|168:193|121:200,1,75,10|2,0:0|0:0,0:0:0:0:
37,243,175157,6,0,L|30:152,1,75,6|0,3:2|0:0,0:0:0:0:
21,59,175533,1,8,0:0:0:0:
222,23,175908,2,0,L|215:114,1,75,2|0,3:2|0:0,0:0:0:0:
206,207,176284,1,8,0:0:0:0:
343,345,176660,6,0,P|386:344|418:331,1,75,6|0,3:2|0:0,0:0:0:0:
473,242,177036,2,0,P|430:241|398:228,1,75,8|0,0:0|0:0,0:0:0:0:
339,138,177412,1,2,3:2:0:0:
449,131,177600,1,2,0:0:0:0:
449,131,177788,2,0,L|461:57,1,75,10|2,0:0|0:0,0:0:0:0:
352,11,178164,6,0,P|270:19|227:81,1,150,6|8,0:0|0:0,0:0:0:0:
197,169,178728,1,0,3:0:0:0:
197,169,178916,2,0,L|208:263,1,75,2|0,0:0|0:0,0:0:0:0:
112,300,179292,2,0,L|103:225,1,75,8|0,0:0|0:0,0:0:0:0:
24,148,179668,6,0,P|78:113|168:139,1,150,6|8,0:0|0:0,0:0:0:0:
256,188,180232,1,2,0:0:0:0:
256,188,180326,1,2,0:0:0:0:
256,188,180420,2,0,P|306:205|342:198,1,75,2|0,0:0|0:0,0:0:0:0:
430,180,180796,1,8,0:0:0:0:
365,0,181172,6,0,P|321:27|326:142,1,150,2|8,0:0|0:0,0:0:0:0:
247,215,181736,1,0,0:0:0:0:
247,215,181924,2,0,L|264:312,2,75,2|0|8,0:0|0:0|0:0,0:0:0:0:
161,149,182487,1,6,0:0:0:0:
161,149,182863,5,2,0:0:0:0:
126,262,183051,1,6,0:0:0:0:
455,34,184179,6,0,P|467:78|416:173,1,150,6|10,3:2|0:0,0:0:0:0:
354,79,184743,1,2,0:0:0:0:
276,168,184931,1,2,3:2:0:0:
276,168,185119,2,0,L|288:258,2,75,2|8|2,0:0|0:0|0:0,0:0:0:0:
192,94,185683,6,0,B|117:80|122:149|44:128,1,150,6|10,3:2|0:0,0:0:0:0:
13,315,186435,2,0,P|60:320|101:292,1,75,2|2,3:2|0:0,0:0:0:0:
169,241,186811,2,0,P|203:228|240:234,1,75,10|2,0:0|0:0,0:0:0:0:
336,302,187187,6,0,P|414:315|469:255,1,150,6|10,3:2|0:0,0:0:0:0:
381,199,187751,1,2,0:0:0:0:
480,161,187939,1,2,3:2:0:0:
480,161,188127,2,0,L|488:74,2,75,2|8|2,0:0|0:0|0:0,0:0:0:0:
390,93,188690,6,0,P|338:84|297:94,1,75,6|2,3:2|0:0,0:0:0:0:
235,154,189066,2,0,P|197:157|161:148,1,75,10|2,0:0|0:0,0:0:0:0:
76,79,189442,1,2,3:2:0:0:
76,79,189630,2,0,L|88:0,2,75,2|10|2,0:0|0:0|0:0,0:0:0:0:
19,175,190194,6,0,B|4:249|4:249|30:339,1,150,6|8,0:0|0:0,0:0:0:0:
133,362,190758,2,0,B|214:377|193:314|281:328,1,150,6|8,0:0|0:0,0:0:0:0:
359,250,191322,2,0,P|288:209|223:232,1,150,6|8,0:0|0:0,0:0:0:0:
129,277,191886,2,0,P|105:213|132:120,1,150,6|8,0:0|0:0,0:0:0:0:
162,47,192450,1,10,0:0:0:0:
300,104,192826,1,10,0:0:0:0:
441,35,193202,5,6,0:0:0:0:
392,254,193766,1,6,0:0:0:0:
194,148,194330,1,6,0:0:0:0:
441,35,194893,6,0,L|422:134,1,75,14|10,0:0|0:0,0:0:0:0:
400,218,195269,1,10,0:0:0:0:
320,145,195457,1,10,0:0:0:0:
