osu file format v14

[General]
AudioFilename: Honey come.mp3
AudioLeadIn: 1000
PreviewTime: 44292
Countdown: 0
SampleSet: Soft
StackLeniency: 0.7
Mode: 0
LetterboxInBreaks: 0
WidescreenStoryboard: 0

[Editor]
DistanceSpacing: 0.6
BeatDivisor: 4
GridSize: 8
TimelineZoom: 2.4

[Metadata]
Title:Honey Come!! (TV size)
TitleUnicode:Honey♥Come!! (TV size)
Artist:Ogura Yui
ArtistUnicode:小倉唯
Creator:Line-
Version:Honey Combo
Source:城下町のダンデライオン
Tags:[C_u_r_i] Curi Beomsan Anais scanter Enon YuiKaori ゆいかおり Kaori Ishihara 石原夏織 lolicon Oomori Shouko 大森祥子 Shunryu 俊龍 Ookuba Kaoru 大久保薫 Hikari Sakurada 櫻田光Castle Town Dandelion Joukamachi no Dandelion TVsize ending
BeatmapID:792581
BeatmapSetID:360628

[Difficulty]
HPDrainRate:6.3
CircleSize:4
OverallDifficulty:8.3
ApproachRate:9.3
SliderMultiplier:2
SliderTickRate:1

[Events]
//Background and Video events
0,0,"BG.jpg",0,0
//Break Periods
//Storyboard Layer 0 (Background)
//Storyboard Layer 1 (Fail)
//Storyboard Layer 2 (Pass)
//Storyboard Layer 3 (Foreground)
//Storyboard Sound Samples

[TimingPoints]
597,326.086956521739,4,2,11,35,1,0
597,-133.333333333333,4,2,11,35,0,0
5814,-100,4,2,11,45,0,0
11031,-100,4,2,11,45,0,0
16249,-100,4,2,12,45,0,0
20162,-100,4,2,11,45,0,0
26683,-100,4,2,12,45,0,0
29292,-100,4,2,11,45,0,0
31901,-133.333333333333,4,2,11,35,0,0
37118,-100,4,2,11,45,0,0
43966,-133.333333333333,4,2,11,45,0,0
44944,-90.9090909090909,4,2,11,55,0,1
54075,-90.9090909090909,4,2,11,55,0,0
55379,-90.9090909090909,4,2,11,55,0,1
64510,-90.9090909090909,4,2,11,55,0,0
65814,-90.9090909090909,4,2,11,55,0,1
78857,-133.333333333333,4,2,11,35,0,0
84075,-100,4,2,11,45,0,0
86683,-100,4,2,11,55,0,0

[Colours]
Combo1 : 255,128,192
Combo2 : 255,255,85
Combo3 : 255,68,68

[HitObjects]
270,265,597,6,0,P|307:259|341:245,1,75.0000028610231,4|0,0:0|0:0,0:0:0:0:
420,68,923,2,0,P|383:71|349:85,1,75.0000028610231
455,309,1249,2,0,P|444:233|412:167,1,150.000005722046
270,265,1738,6,0,P|332:275|317:214,1,150.000005722046
101,81,2227,2,0,P|138:86|172:103,1,75.0000028610231
107,336,2553,2,0,P|91:303|85:266,1,75.0000028610231
246,210,2879,2,0,P|225:240|196:264,1,75.0000028610231
101,81,3205,5,4,0:0:0:0:
101,249,3368,1,0,0:0:0:0:
201,113,3531,1,0,0:0:0:0:
40,165,3694,1,0,0:0:0:0:
201,217,3857,2,0,L|299:200,1,75.0000028610231
274,204,4102,1,0,0:0:0:0:
274,204,4184,1,0,0:0:0:0:
319,338,4346,6,0,P|384:301|417:235,1,150.000005722046
248,43,4836,1,0,0:0:0:0:
293,213,4999,1,0,0:0:0:0:
184,104,5162,1,0,0:0:0:0:
355,150,5325,1,0,0:0:0:0:
206,188,5488,1,0,0:0:0:0:
332,65,5651,1,0,0:0:0:0:
375,235,5814,5,12,0:0:0:0:
157,319,6466,1,8,0:0:0:0:
74,102,7118,1,8,0:0:0:0:
290,19,7770,1,8,0:0:0:0:
160,260,8423,5,8,0:0:0:0:
95,106,8586,1,0,0:0:0:0:
54,249,8749,1,8,0:0:0:0:
201,117,8912,1,0,0:0:0:0:
160,260,9075,5,8,0:0:0:0:
314,325,9238,1,0,0:0:0:0:
171,366,9401,1,8,0:0:0:0:
242,211,9564,1,0,0:0:0:0:
95,106,9727,5,8,0:0:0:0:
171,366,10053,1,8,0:0:0:0:
413,247,10379,2,0,P|489:232|447:297,1,200,8|0,0:0|0:0,0:0:0:0:
281,304,10868,1,0,0:0:0:0:
281,304,10950,1,0,0:0:0:0:
281,304,11031,6,0,L|241:209,1,100,6|0,0:0|0:0,0:0:0:0:
186,86,11357,2,0,L|283:110,1,100,8|0,0:0|0:0,0:0:0:0:
428,206,11683,1,2,0:0:0:0:
281,304,11846,1,2,0:0:0:0:
362,130,12010,1,8,0:0:0:0:
442,296,12173,6,0,P|345:315|249:292,1,200,2|2,0:0|0:0,0:0:0:0:
283,110,12662,1,8,0:0:0:0:
428,206,12825,1,0,0:0:0:0:
249,292,12988,2,0,P|241:242|249:193,1,100,2|2,0:0|0:0,0:0:0:0:
429,107,13314,2,0,P|436:156|428:205,1,100,8|0,0:0|0:0,0:0:0:0:
289,364,13640,6,0,P|240:373|195:354,1,100,2|0,0:0|0:0,0:0:0:0:
104,237,13966,2,0,P|95:188|114:143,1,100,8|0,0:0|0:0,0:0:0:0:
283,110,14292,1,2,0:0:0:0:
428,206,14455,1,2,0:0:0:0:
389,43,14618,1,8,0:0:0:0:
288,224,14781,6,0,B|224:224|224:224|152:184|152:184|80:184,1,200,2|2,0:0|0:0,0:0:0:0:
128,281,15270,1,8,0:0:0:0:
243,125,15433,1,0,0:0:0:0:
386,233,15596,2,0,P|371:281|334:314,1,100,2|2,0:0|0:0,0:0:0:0:
335,314,15841,1,2,0:0:0:0:
335,314,15923,1,8,0:0:0:0:
243,125,16086,1,0,0:0:0:0:
100,184,16249,6,0,P|119:277|208:310,1,200,6|8,0:0|0:0,0:0:0:0:
294,227,16738,1,8,0:0:0:0:
192,215,16901,1,0,0:0:0:0:
338,314,17064,1,2,0:0:0:0:
359,135,17227,1,8,0:0:0:0:
210,310,17553,6,0,L|85:331,1,100,2|2,0:0|0:0,0:0:0:0:
193,214,17879,2,0,L|237:95,1,100,8|8,0:0|0:0,0:0:0:0:
284,247,18205,2,0,L|364:344,1,100,0|2,0:0|0:0,0:0:0:0:
210,310,18531,1,8,0:0:0:0:
31,121,18857,6,0,B|87:137|127:121|127:121|167:105|231:121,1,200,2|8,0:0|0:0,0:0:0:0:
173,206,19346,1,8,0:0:0:0:
81,36,19510,1,0,0:0:0:0:
65,212,19673,1,2,0:0:0:0:
223,121,19836,1,8,0:0:0:0:
223,121,20162,6,0,P|266:144|315:138,1,100,2|0,0:0|0:0,0:0:0:0:
428,48,20488,2,0,B|377:55|377:55|329:39|329:39|281:47,1,150,8|2,0:0|0:0,0:0:0:0:
281,46,20814,1,2,0:0:0:0:
151,40,20977,6,0,P|139:65|140:101,1,50,2|2,0:0|0:0,0:0:0:0:
59,148,21140,1,8,0:0:0:0:
86,172,21221,1,0,0:0:0:0:
121,186,21303,1,2,0:0:0:0:
158,186,21384,1,2,0:0:0:0:
193,173,21466,6,0,P|239:153|289:152,1,100,6|0,0:0|0:0,0:0:0:0:
398,110,21792,2,0,P|392:159|368:203,1,100,8|0,0:0|0:0,0:0:0:0:
349,319,22118,2,0,P|309:290|284:248,1,100,2|0,0:0|0:0,0:0:0:0:
324,59,22444,1,8,0:0:0:0:
193,173,22607,6,0,P|290:195|389:190,1,200,2|2,0:0|0:0,0:0:0:0:
350,320,23096,1,8,0:0:0:0:
398,110,23260,1,0,0:0:0:0:
480,266,23423,1,2,0:0:0:0:
306,246,23586,1,2,0:0:0:0:
475,241,23749,1,8,0:0:0:0:
311,221,23912,1,0,0:0:0:0:
458,168,24075,6,0,L|480:266,1,100,2|0,0:0|0:0,0:0:0:0:
289,319,24401,2,0,L|311:222,1,100,8|0,0:0|0:0,0:0:0:0:
410,113,24727,1,2,0:0:0:0:
239,158,24890,1,2,0:0:0:0:
383,287,25053,1,8,0:0:0:0:
383,56,25216,6,0,P|462:53|410:113,1,200,2|2,0:0|0:0,0:0:0:0:
239,158,25705,1,8,0:0:0:0:
430,197,25868,1,0,0:0:0:0:
275,75,26031,1,2,0:0:0:0:
352,272,26194,1,2,0:0:0:0:
352,272,26276,1,2,0:0:0:0:
352,272,26357,1,8,0:0:0:0:
410,113,26520,1,0,0:0:0:0:
301,333,26683,6,0,P|251:330|202:318,1,100,6|2,0:0|0:0,0:0:0:0:
39,198,27010,1,8,0:0:0:0:
188,86,27173,1,8,0:0:0:0:
51,287,27336,1,2,0:0:0:0:
185,251,27499,1,2,0:0:0:0:
87,65,27662,1,8,0:0:0:0:
301,333,27988,6,0,P|350:330|399:318,1,100,2|2,0:0|0:0,0:0:0:0:
308,148,28314,1,8,0:0:0:0:
128,240,28477,1,8,0:0:0:0:
301,333,28640,1,2,0:0:0:0:
195,147,28803,1,2,0:0:0:0:
163,351,28966,1,8,0:0:0:0:
163,351,29292,6,0,P|113:348|64:336,1,100,6|0,0:0|0:0,0:0:0:0:
77,138,29618,2,0,P|127:141|176:153,1,100,8|0,0:0|0:0,0:0:0:0:
383,327,29944,1,2,0:0:0:0:
201,250,30107,1,2,0:0:0:0:
362,135,30270,1,8,0:0:0:0:
301,333,30433,1,0,0:0:0:0:
280,87,30596,6,0,P|268:134|281:182,1,100,2|0,0:0|0:0,0:0:0:0:
301,333,30923,1,8,0:0:0:0:
84,252,31086,1,0,0:0:0:0:
84,252,31168,1,2,0:0:0:0:
84,252,31249,1,8,0:0:0:0:
232,74,31412,1,2,0:0:0:0:
232,74,31493,1,2,0:0:0:0:
232,74,31575,1,8,0:0:0:0:
401,214,31738,1,2,0:0:0:0:
412,262,31819,1,2,0:0:0:0:
406,310,31901,6,0,P|383:351|344:280,1,150.000005722046,6|0,0:0|0:0,0:0:0:0:
401,214,32390,2,0,P|332:186|262:209,1,150.000005722046
185,280,32879,2,0,L|215:334,3,37.5000014305115
185,280,33205,6,0,L|13:240,1,150.000005722046,2|0,0:0|0:0,0:0:0:0:
115,196,33694,2,0,P|128:267|85:325,1,150.000005722046,2|0,0:0|0:0,0:0:0:0:
157,380,34183,6,0,L|226:371,2,50.0000019073487
214,339,34510,1,4,0:0:0:0:
212,245,34999,5,0,0:0:0:0:
118,216,35162,1,0,0:0:0:0:
65,297,35325,1,0,0:0:0:0:
124,372,35488,1,0,0:0:0:0:
214,339,35651,1,0,0:0:0:0:
343,372,35814,6,0,P|357:298|344:224,1,150.000005722046,6|0,0:0|0:0,0:0:0:0:
214,339,36303,1,0,0:0:0:0:
214,338,36466,2,0,P|147:309|128:239,1,150.000005722046,6|8,0:0|0:0,0:0:0:0:
134,212,36874,1,8,0:0:0:0:
136,183,36955,1,8,0:0:0:0:
134,155,37037,1,8,0:0:0:0:
128,128,37119,5,6,0:0:0:0:
332,102,37281,1,0,0:0:0:0:
183,34,37444,1,8,0:0:0:0:
231,237,37607,2,0,L|340:253,1,100,0|2,0:0|0:0,0:0:0:0:
214,338,37933,5,0,0:0:0:0:
308,131,38096,1,8,0:0:0:0:
183,34,38260,2,0,L|74:50,1,100,0|2,0:0|0:0,0:0:0:0:
200,229,38586,5,0,0:0:0:0:
71,66,38749,1,8,0:0:0:0:
71,244,38912,1,0,0:0:0:0:
211,136,39075,5,2,0:0:0:0:
19,138,39238,1,0,0:0:0:0:
183,34,39401,1,8,0:0:0:0:
200,229,39564,1,0,0:0:0:0:
355,107,39727,6,0,L|475:96,1,100,14|0,0:0|0:0,0:0:0:0:
300,239,40053,2,0,L|200:229,1,100,10|0,0:0|0:0,0:0:0:0:
407,297,40379,2,0,L|398:198,1,100,10|0,0:0|0:0,0:0:0:0:
275,43,40705,2,0,L|266:143,1,100,10|0,0:0|0:0,0:0:0:0:
173,318,41031,5,14,0:0:0:0:
73,156,41194,1,0,0:0:0:0:
13,318,41357,1,10,0:0:0:0:
181,188,41520,1,0,0:0:0:0:
289,360,41683,5,10,0:0:0:0:
337,367,41764,1,0,0:0:0:0:
384,349,41846,1,0,0:0:0:0:
415,311,41928,1,0,0:0:0:0:
424,262,42009,1,10,0:0:0:0:
408,215,42090,1,0,0:0:0:0:
371,183,42172,1,0,0:0:0:0:
322,172,42253,1,0,0:0:0:0:
275,187,42336,5,10,0:0:0:0:
466,381,42499,1,10,0:0:0:0:
356,80,42825,5,10,0:0:0:0:
173,318,43151,1,10,0:0:0:0:
466,381,43477,1,10,0:0:0:0:
257,19,43966,6,0,B|268:48|250:73|250:73|269:89|269:89|247:127|257:154,1,150.000005722046
173,318,44455,1,0,0:0:0:0:
354,194,44618,1,0,0:0:0:0:
148,176,44781,1,0,0:0:0:0:
284,367,44944,6,0,P|306:371|255:326,1,220.000006713867,6|8,0:0|0:0,0:0:0:0:
160,344,45433,1,0,0:0:0:0:
50,263,45596,2,0,P|36:210|57:160,1,110.000003356934,2|0,0:0|0:0,0:0:0:0:
187,77,45923,1,8,0:0:0:0:
363,205,46086,6,0,L|487:222,1,110.000003356934,0|2,0:0|0:0,0:0:0:0:
277,199,46412,2,0,L|209:285,1,110.000003356934,0|8,0:0|0:0,0:0:0:0:
325,128,46738,2,0,L|282:26,1,110.000003356934,0|2,0:0|0:0,0:0:0:0:
444,154,47064,1,0,0:0:0:0:
248,128,47227,1,8,0:0:0:0:
273,335,47390,1,0,0:0:0:0:
248,128,47553,6,0,P|199:54|286:64,1,220.000006713867,2|8,0:0|0:0,0:0:0:0:
161,238,48042,1,0,0:0:0:0:
325,203,48205,1,2,0:0:0:0:
146,116,48368,1,0,0:0:0:0:
376,116,48531,1,8,0:0:0:0:
287,291,48694,6,0,P|246:254|231:202,1,110.000003356934,0|2,0:0|0:0,0:0:0:0:
395,294,49020,2,0,P|379:347|340:384,1,110.000003356934,0|8,0:0|0:0,0:0:0:0:
376,116,49346,1,0,0:0:0:0:
287,290,49510,2,0,L|147:311,1,110.000003356934,2|0,0:0|0:0,0:0:0:0:
152,288,49754,1,2,0:0:0:0:
152,288,49836,1,8,0:0:0:0:
246,73,49999,1,2,0:0:0:0:
246,73,50162,6,0,B|394:33,1,110.000003356934,2|0,0:0|0:0,0:0:0:0:
412,200,50488,2,0,B|263:239,1,110.000003356934,8|0,0:0|0:0,0:0:0:0:
246,73,50814,1,2,0:0:0:0:
412,200,50977,1,0,0:0:0:0:
352,44,51140,1,8,0:0:0:0:
305,228,51303,1,0,0:0:0:0:
85,151,51466,6,0,P|134:128|189:128,1,110.000003356934,2|0,0:0|0:0,0:0:0:0:
180,339,51792,2,0,P|157:289|158:235,1,110.000003356934,8|0,0:0|0:0,0:0:0:0:
410,245,52118,2,0,P|361:268|306:268,1,110.000003356934,2|0,0:0|0:0,0:0:0:0:
315,57,52444,2,0,P|337:106|337:161,1,110.000003356934,8|0,0:0|0:0,0:0:0:0:
26,129,52770,6,0,B|90:153|138:129|138:129|186:105|240:127,1,220.000006713867,2|8,0:0|0:0,0:0:0:0:
108,299,53260,1,0,0:0:0:0:
88,44,53423,1,2,0:0:0:0:
189,229,53586,1,2,0:0:0:0:
25,262,53749,1,8,0:0:0:0:
239,126,53912,1,2,0:0:0:0:
239,126,53993,1,2,0:0:0:0:
239,126,54075,5,12,0:0:0:0:
293,339,54238,1,8,0:0:0:0:
435,143,54401,1,8,0:0:0:0:
176,296,54564,1,8,0:0:0:0:
88,79,54890,5,8,0:0:0:0:
166,277,55053,1,0,0:0:0:0:
228,75,55216,1,0,0:0:0:0:
53,272,55379,6,0,P|158:264|203:169,1,220.000006713867,6|8,0:0|0:0,0:0:0:0:
210,360,55868,1,0,0:0:0:0:
97,179,56031,1,2,0:0:0:0:
277,273,56194,1,0,0:0:0:0:
53,272,56357,1,8,0:0:0:0:
150,76,56520,6,0,P|203:66|258:71,1,110.000003356934,0|2,0:0|0:0,0:0:0:0:
349,192,56846,2,0,P|331:242|299:288,1,110.000003356934,0|8,0:0|0:0,0:0:0:0:
149,306,57173,2,0,P|113:265|90:214,1,110.000003356934,0|2,0:0|0:0,0:0:0:0:
258,71,57499,1,0,0:0:0:0:
223,275,57662,1,8,0:0:0:0:
150,76,57825,1,0,0:0:0:0:
329,284,57988,6,0,P|293:185|354:99,1,220.000006713867,2|8,0:0|0:0,0:0:0:0:
196,171,58477,1,0,0:0:0:0:
404,200,58640,1,2,0:0:0:0:
223,275,58803,1,0,0:0:0:0:
258,71,58966,1,8,0:0:0:0:
331,254,59129,6,0,L|222:274,1,110.000003356934,0|2,0:0|0:0,0:0:0:0:
404,200,59455,2,0,L|512:220,1,110.000003356934,0|8,0:0|0:0,0:0:0:0:
320,163,59781,1,0,0:0:0:0:
171,357,59944,2,0,P|135:315|126:262,1,110.000003356934,2|0,0:0|0:0,0:0:0:0:
126,262,60189,1,2,0:0:0:0:
126,262,60270,1,8,0:0:0:0:
159,69,60433,1,2,0:0:0:0:
159,69,60596,6,0,P|204:37|258:30,1,110.000003356934,2|0,0:0|0:0,0:0:0:0:
426,62,60923,2,0,P|430:116|410:166,1,110.000003356934,8|0,0:0|0:0,0:0:0:0:
442,316,61249,2,0,P|387:320|337:300,1,110.000003356934,2|0,0:0|0:0,0:0:0:0:
182,357,61575,2,0,P|177:302|197:252,1,110.000003356934,8|0,0:0|0:0,0:0:0:0:
267,85,61901,6,0,L|159:69,1,110.000003356934,2|0,0:0|0:0,0:0:0:0:
112,253,62227,2,0,L|220:236,1,110.000003356934,8|0,0:0|0:0,0:0:0:0:
389,153,62553,2,0,L|372:261,1,110.000003356934,2|0,0:0|0:0,0:0:0:0:
222,352,62879,1,8,0:0:0:0:
126,193,63042,1,0,0:0:0:0:
276,85,63205,5,2,0:0:0:0:
276,270,63368,1,0,0:0:0:0:
147,172,63531,1,8,0:0:0:0:
334,172,63694,1,0,0:0:0:0:
167,290,63857,5,2,0:0:0:0:
276,85,64020,1,2,0:0:0:0:
378,270,64183,1,8,0:0:0:0:
86,242,64346,1,2,0:0:0:0:
86,242,64428,1,2,0:0:0:0:
86,242,64510,5,12,0:0:0:0:
152,92,64673,1,8,0:0:0:0:
225,341,64836,1,8,0:0:0:0:
359,92,64999,1,8,0:0:0:0:
359,92,65325,5,8,0:0:0:0:
235,240,65488,1,0,0:0:0:0:
448,156,65651,1,0,0:0:0:0:
271,48,65814,6,0,P|192:93|271:137,1,220.000006713867,6|8,0:0|0:0,0:0:0:0:
352,248,66303,1,0,0:0:0:0:
160,272,66466,1,2,0:0:0:0:
344,352,66629,1,0,0:0:0:0:
264,160,66792,1,8,0:0:0:0:
203,359,66955,6,0,P|149:368|99:347,1,110.000003356934,0|2,0:0|0:0,0:0:0:0:
160,147,67281,2,0,P|213:138|263:159,1,110.000003356934,0|8,0:0|0:0,0:0:0:0:
352,248,67607,1,0,0:0:0:0:
65,258,67770,5,6,0:0:0:0:
158,33,67933,1,0,0:0:0:0:
240,288,68096,1,6,0:0:0:0:
158,33,68260,1,0,0:0:0:0:
65,257,68423,6,0,P|80:346|149:287,1,220.000006713867,6|8,0:0|0:0,0:0:0:0:
128,112,68912,1,0,0:0:0:0:
310,169,69075,1,2,0:0:0:0:
150,287,69238,1,0,0:0:0:0:
240,95,69401,1,8,0:0:0:0:
311,321,69564,6,0,P|364:330|412:305,1,110.000003356934,0|2,0:0|0:0,0:0:0:0:
341,79,69890,2,0,P|287:69|239:94,1,110.000003356934,0|8,0:0|0:0,0:0:0:0:
131,214,70216,1,0,0:0:0:0:
351,247,70379,2,0,L|368:366,1,110.000003356934,2|0,0:0|0:0,0:0:0:0:
225,204,70705,2,0,L|241:85,1,110.000003356934,8|0,0:0|0:0,0:0:0:0:
416,152,71031,5,2,0:0:0:0:
272,280,71194,1,0,0:0:0:0:
131,213,71357,2,0,P|78:196|24:206,1,110.000003356934,8|0,0:0|0:0,0:0:0:0:
162,77,71683,5,2,0:0:0:0:
331,169,71846,1,0,0:0:0:0:
188,276,72010,2,0,P|181:330|200:381,1,110.000003356934,8|0,0:0|0:0,0:0:0:0:
374,322,72336,5,2,0:0:0:0:
407,136,72499,1,0,0:0:0:0:
463,278,72662,2,0,P|470:332|451:383,1,110.000003356934,8|0,0:0|0:0,0:0:0:0:
289,376,72988,5,2,0:0:0:0:
355,231,73151,1,0,0:0:0:0:
193,157,73314,2,0,P|199:102|180:51,1,110.000003356934,8|2,0:0|0:0,0:0:0:0:
407,136,73640,5,8,0:0:0:0:
288,294,73803,1,0,0:0:0:0:
231,108,73966,1,8,0:0:0:0:
455,257,74129,1,0,0:0:0:0:
345,68,74292,5,8,0:0:0:0:
345,355,74455,1,2,0:0:0:0:
175,223,74618,1,8,0:0:0:0:
491,186,74781,1,2,0:0:0:0:
491,186,74863,1,2,0:0:0:0:
491,186,74944,5,8,0:0:0:0:
175,223,75107,1,2,0:0:0:0:
490,185,75433,2,0,P|480:279|397:235,1,220.000006713867,8|2,0:0|0:0,0:0:0:0:
289,60,75923,1,8,0:0:0:0:
75,163,76086,1,2,0:0:0:0:
75,163,76167,1,2,0:0:0:0:
75,163,76249,5,8,0:0:0:0:
161,355,76412,1,0,0:0:0:0:
304,185,76575,1,8,0:0:0:0:
44,317,76738,1,0,0:0:0:0:
193,112,76901,5,8,0:0:0:0:
287,314,77064,1,2,0:0:0:0:
28,234,77227,1,8,0:0:0:0:
366,261,77390,1,2,0:0:0:0:
366,261,77471,1,2,0:0:0:0:
366,261,77553,5,8,0:0:0:0:
75,163,77716,1,2,0:0:0:0:
379,72,78042,1,8,0:0:0:0:
163,224,78368,5,0,0:0:0:0:
195,39,78531,1,0,0:0:0:0:
379,72,78694,1,0,0:0:0:0:
363,329,78857,6,0,L|347:256,1,75.0000028610231,6|0,0:0|0:0,0:0:0:0:
470,205,79183,2,0,L|487:279,1,75.0000028610231
342,345,79510,2,0,L|305:183,1,150.000005722046
379,72,79999,6,0,B|339:56|307:72|307:72|275:88|233:73,1,150.000005722046
129,26,80488,2,0,L|102:101,1,75.0000028610231
17,162,80814,2,0,L|65:219,1,75.0000028610231
63,328,81140,2,0,L|136:314,1,75.0000028610231
220,206,81466,6,0,P|256:201|293:207,1,75.0000028610231,4|0,0:0|0:0,0:0:0:0:
390,232,81792,2,0,P|373:264|346:291,1,75.0000028610231
267,358,82118,2,0,P|250:326|244:289,1,75.0000028610231
245,289,82363,1,0,0:0:0:0:
245,289,82444,1,0,0:0:0:0:
322,209,82607,6,0,P|376:161|382:88,1,150.000005722046
291,118,83096,1,0,0:0:0:0:
134,76,83260,1,0,0:0:0:0:
234,176,83422,1,0,0:0:0:0:
193,20,83585,1,0,0:0:0:0:
155,153,83748,1,0,0:0:0:0:
270,40,83911,1,0,0:0:0:0:
310,196,84075,5,12,0:0:0:0:
121,59,84727,1,8,0:0:0:0:
97,292,85379,1,8,0:0:0:0:
310,196,86031,1,8,0:0:0:0:
108,197,86683,5,8,0:0:0:0:
250,103,86846,1,0,0:0:0:0:
250,281,87010,1,8,0:0:0:0:
108,103,87173,1,0,0:0:0:0:
311,197,87336,1,8,0:0:0:0:
102,292,87499,5,2,0:0:0:0:
55,278,87580,1,2,0:0:0:0:
21,242,87662,1,8,0:0:0:0:
9,194,87743,1,2,0:0:0:0:
24,147,87825,1,0,0:0:0:0:
60,114,87906,1,2,0:0:0:0:
108,103,87988,6,0,B|155:84|211:109|211:109|240:79|240:79|309:129|384:94,1,300,12|12,0:0|0:0,0:0:0:0:
