osu file format v14

[General]
AudioFilename: audio.mp3
AudioLeadIn: 0
PreviewTime:43978
Countdown: 0
SampleSet: Soft
StackLeniency: 0.7
Mode: 0
LetterboxInBreaks: 0
WidescreenStoryboard: 0

[Editor]
DistanceSpacing: 1.5
BeatDivisor: 4
GridSize: 4
TimelineZoom: 1

[Metadata]
Title:Honey Come!! (TV Size)
TitleUnicode:Honey♥Come!! (TV Size)
Artist:Ogura Yui
ArtistUnicode:小倉 唯
Creator:Sotarks
Version:Expert
Source:城下町のダンデライオン
Tags:japanese ed Ending Mikagura Seisa Sakurada Akane Hikari Shiori Joukamachi no Dandelion Castle Town anime female vocalist vocals jpop j-pop sytho elinor [_eli_] eli my_angel_ram
BeatmapID:3317508
BeatmapSetID:1624872

[Difficulty]
HPDrainRate:5.2
CircleSize:4
OverallDifficulty:8.8
ApproachRate:9.2
SliderMultiplier:1.82
SliderTickRate:1

[Events]
//Background and Video events
0,0,"bg.png",0,0
//Break Periods
//Storyboard Layer 0 (Background)
//Storyboard Layer 1 (Fail)
//Storyboard Layer 2 (Pass)
//Storyboard Layer 3 (Foreground)
//Storyboard Layer 4 (Overlay)
//Storyboard Sound Samples

[TimingPoints]
201,326.086956521739,4,2,22,52,1,0
201,-138.888888888889,4,2,22,52,0,0
5418,-138.888888888889,4,2,22,72,0,0
8027,-121.951219512195,4,2,22,72,0,0
10635,-108.695652173913,4,2,22,72,0,0
15853,-121.951219512195,4,2,22,72,0,0
21070,-108.695652173913,4,2,22,72,0,0
26287,-121.951219512195,4,2,22,72,0,0
28896,-108.695652173913,4,2,22,72,0,0
31505,-161.290322580645,4,2,22,72,0,0
32809,-121.951219512195,4,2,22,72,0,0
34114,-161.290322580645,4,2,22,72,0,0
35418,-121.951219512195,4,2,22,72,0,0
36722,-108.695652173913,4,2,22,72,0,0
43570,-98.0392156862745,4,2,22,72,0,0
44548,-98.0392156862745,4,2,22,82,0,0
78461,-138.888888888889,4,2,22,52,0,0
83679,-138.888888888889,4,2,22,82,0,0
86287,-121.951219512195,4,2,22,82,0,0
88081,-98.0392156862744,4,2,22,82,0,0

[Colours]
Combo1 : 231,190,209
Combo2 : 217,55,100
Combo3 : 230,253,255

[HitObjects]
66,237,201,6,0,P|111:250|147:266,1,65.5200015996094,6|0,1:2|0:0,0:0:0:0:
275,177,527,1,2,0:2:0:0:
207,237,690,1,0,0:0:0:0:
347,310,853,2,0,P|284:306|216:364,1,131.040003199219,2|0,0:2|0:0,0:0:0:0:
425,384,1342,6,0,P|438:327|466:236,1,131.040003199219,2|0,0:2|0:0,0:0:0:0:
351,160,1831,2,0,P|363:197|372:235,1,65.5200015996094,2|0,0:2|3:0,0:0:0:0:
461,161,2157,1,2,3:2:0:0:
461,161,2320,1,0,3:0:0:0:
364,39,2483,1,2,0:2:0:0:
464,70,2646,1,0,3:0:0:0:
287,145,2809,6,0,P|332:153|369:167,1,65.5200015996094,6|0,1:2|0:0,0:0:0:0:
240,46,3135,2,0,P|195:54|158:68,1,65.5200015996094,2|0,0:2|0:0,0:0:0:0:
49,117,3461,2,0,P|59:84|67:40,1,65.5200015996094,2|0,0:2|3:0,0:0:0:0:
65,53,3706,1,0,3:0:0:0:
65,53,3787,1,0,3:0:0:0:
115,255,3950,6,0,P|70:217|-22:220,1,131.040003199219,2|0,0:2|0:0,0:0:0:0:
103,342,4440,2,0,P|136:331|174:324,1,65.5200015996094,2|0,0:2|3:0,0:0:0:0:
259,186,4766,1,2,3:2:0:0:
193,234,4929,1,2,3:2:0:0:
279,270,5092,1,2,0:2:0:0:
151,137,5255,1,2,3:2:0:0:
335,90,5418,5,10,1:2:0:0:
16,223,6070,1,10,1:2:0:0:
336,384,6722,1,10,1:2:0:0:
306,0,7374,1,10,1:2:0:0:
306,0,8027,6,0,P|296:50|286:93,1,74.6200011386109,10|0,1:2|1:0,0:0:0:0:
356,219,8353,1,10,1:2:0:0:
194,134,8516,1,0,1:0:0:0:
194,134,8597,1,0,1:0:0:0:
194,134,8679,1,10,1:2:0:0:
376,59,8842,1,0,1:0:0:0:
239,257,9005,1,10,1:2:0:0:
392,360,9168,1,0,1:0:0:0:
392,360,9249,1,0,1:0:0:0:
392,360,9331,5,14,1:2:0:0:
212,0,9657,1,10,1:2:0:0:
0,321,9983,1,14,1:2:0:0:
0,321,10309,1,0,1:0:0:0:
143,248,10472,1,0,1:0:0:0:
143,248,10554,1,0,1:0:0:0:
143,248,10635,6,0,P|95:236|46:221,1,83.7199971895753,6|0,1:2|0:0,0:0:0:0:
279,321,10961,2,0,P|269:280|257:240,1,83.7199971895753,10|0,0:2|0:0,0:0:0:0:
305,79,11287,1,2,1:2:0:0:
190,160,11450,1,0,1:2:0:0:
355,260,11614,1,8,0:2:0:0:
462,127,11777,6,0,P|374:145|292:163,1,167.439994379151,2|2,1:2|1:2,0:0:0:0:
465,225,12266,1,10,0:2:0:0:
314,76,12429,1,2,0:0:0:0:
314,76,12510,1,0,0:0:0:0:
314,76,12592,1,2,1:2:0:0:
422,5,12755,1,0,1:2:0:0:
298,161,12918,2,0,P|261:144|206:132,1,83.7199971895753,10|0,0:2|0:0,0:0:0:0:
39,59,13244,6,0,P|56:106|66:148,1,83.7199971895753,2|0,1:2|0:0,0:0:0:0:
81,281,13570,2,0,P|31:272|-9:259,1,83.7199971895753,10|0,0:2|0:0,0:0:0:0:
219,133,13896,1,2,1:2:0:0:
124,197,14059,1,0,1:2:0:0:
289,334,14222,1,8,0:2:0:0:
326,216,14385,6,0,P|254:211|192:288,1,167.439994379151,2|2,1:2|1:2,0:0:0:0:
411,359,14874,1,10,0:2:0:0:
482,270,15037,1,2,0:0:0:0:
482,270,15119,1,0,0:0:0:0:
482,270,15200,2,0,P|471:232|454:172,1,83.7199971895753,2|0,1:2|1:2,0:0:0:0:
451,164,15445,1,0,1:2:0:0:
451,164,15527,2,0,L|492:168,3,41.8599985947876,10|0|8|8,0:2|0:0|0:2|0:2,0:0:0:0:
393,107,15853,6,0,P|347:114|301:125,1,74.6200011386109,4|0,1:2|0:0,0:0:0:0:
134,65,16179,1,8,0:1:0:0:
208,211,16342,2,0,P|216:173|226:127,1,74.6200011386109,8|0,0:1|0:0,0:0:0:0:
79,207,16668,1,0,1:2:0:0:
79,207,16749,1,0,0:0:0:0:
79,207,16831,2,0,P|86:243|94:279,1,74.6200011386109,8|0,0:1|0:0,0:0:0:0:
290,371,17157,5,0,1:2:0:0:
185,299,17320,1,0,1:0:0:0:
381,181,17483,1,8,0:1:0:0:
291,281,17646,2,0,P|283:243|273:197,1,74.6200011386109,8|0,0:1|0:0,0:0:0:0:
434,282,17972,1,0,1:2:0:0:
434,282,18054,1,0,0:0:0:0:
434,282,18135,2,0,P|426:318|418:354,1,74.6200011386109,8|0,0:1|0:0,0:0:0:0:
309,127,18461,6,0,P|349:80|444:96,1,149.240002277222,0|8,1:2|0:1,0:0:0:0:
292,243,18950,1,8,0:1:0:0:
415,180,19114,1,0,0:0:0:0:
287,93,19277,1,0,1:2:0:0:
287,93,19358,1,0,0:0:0:0:
287,93,19440,2,0,P|240:103|200:114,1,74.6200011386109,8|0,0:1|0:0,0:0:0:0:
0,215,19766,5,6,1:2:0:0:
69,42,19929,1,0,0:0:0:0:
219,221,20092,1,8,1:2:0:0:
107,136,20255,2,0,L|94:177,2,37.3100005693054,0|0|6,0:0|1:2|1:2,0:0:0:0:
246,52,20581,1,0,1:2:0:0:
246,52,20662,1,0,1:2:0:0:
246,52,20744,1,8,1:2:0:0:
116,262,20907,1,2,1:3:0:0:
116,262,20989,1,4,1:3:0:0:
116,262,21070,6,0,P|75:250|34:244,1,83.7199971895753,6|0,1:2|0:0,0:0:0:0:
240,301,21396,2,0,P|228:253|214:208,1,83.7199971895753,10|0,0:2|0:0,0:0:0:0:
249,81,21722,1,2,1:2:0:0:
142,169,21885,1,0,1:2:0:0:
336,237,22048,1,8,0:2:0:0:
201,381,22211,6,0,P|261:330|361:337,1,167.439994379151,2|2,1:2|1:2,0:0:0:0:
471,166,22700,1,10,0:2:0:0:
336,237,22864,1,2,0:0:0:0:
336,237,22945,1,0,0:0:0:0:
336,237,23027,1,2,1:2:0:0:
469,322,23190,1,0,1:2:0:0:
308,141,23353,2,0,P|349:131|395:116,1,83.7199971895753,10|0,0:2|0:0,0:0:0:0:
183,265,23679,6,0,P|142:255|102:242,1,83.7199971895753,2|0,1:2|0:0,0:0:0:0:
150,48,24005,2,0,P|161:88|170:129,1,83.7199971895753,10|0,0:2|0:0,0:0:0:0:
0,58,24331,1,2,1:2:0:0:
90,160,24494,1,0,1:2:0:0:
253,52,24657,1,8,0:2:0:0:
302,170,24820,6,0,P|222:187|169:118,1,167.439994379151,2|2,1:2|1:2,0:0:0:0:
381,125,25309,1,10,0:2:0:0:
268,275,25472,1,2,0:0:0:0:
268,275,25554,1,0,0:0:0:0:
268,275,25635,1,2,1:2:0:0:
420,205,25798,1,0,1:2:0:0:
420,205,25880,1,0,1:0:0:0:
420,205,25961,1,10,0:2:0:0:
253,103,26124,2,0,P|259:85|267:56,1,41.8599985947876,8|8,1:2|1:2,0:0:0:0:
321,6,26287,5,6,1:2:0:0:
133,104,26450,1,0,1:0:0:0:
321,193,26614,1,8,0:1:0:0:
321,193,26777,1,8,0:1:0:0:
253,103,26940,1,6,1:2:0:0:
328,309,27103,1,0,1:2:0:0:
495,136,27266,2,0,P|435:150|401:160,1,74.6200011386109,8|0,0:1|0:0,0:0:0:0:
180,229,27592,5,6,1:2:0:0:
344,89,27755,1,0,1:0:0:0:
166,38,27918,1,8,0:1:0:0:
166,38,28081,1,8,0:1:0:0:
251,124,28244,1,6,1:2:0:0:
36,53,28407,1,0,1:2:0:0:
179,228,28570,2,0,P|169:186|157:138,1,74.6200011386109,8|0,0:1|0:0,0:0:0:0:
44,319,28896,6,0,P|101:375|200:348,1,167.439994379151,6|8,1:2|1:2,0:0:0:0:
388,244,29385,1,0,0:0:0:0:
388,244,29467,1,0,0:0:0:0:
388,244,29548,1,6,1:2:0:0:
311,376,29711,1,0,1:2:0:0:
179,228,29874,1,8,1:2:0:0:
297,170,30037,1,2,1:2:0:0:
182,363,30200,5,6,1:2:0:0:
66,227,30364,1,0,1:2:0:0:
66,227,30445,1,0,0:0:0:0:
66,227,30527,1,10,1:2:0:0:
276,298,30690,2,0,L|266:248,2,41.8599985947876,2|0|2,1:2|1:0|1:2,0:0:0:0:
159,135,31016,1,2,1:2:0:0:
161,114,31097,1,0,1:0:0:0:
163,93,31179,1,8,1:2:0:0:
166,72,31260,1,8,1:2:0:0:
170,52,31342,1,8,1:2:0:0:
173,31,31423,1,8,1:2:0:0:
177,10,31505,6,0,P|240:6|290:33,1,112.839995523316,6|2,1:2|0:0,0:0:0:0:
379,84,31994,2,0,P|386:58|400:23,1,56.4199977616578,2|0,0:0|0:0,0:0:0:0:
285,116,32320,1,2,0:0:0:0:
365,181,32483,2,0,P|380:177|399:172,3,28.2099988808289
365,181,32809,2,0,P|354:268|345:345,1,149.240002277222,2|2,1:2|0:2,0:0:0:0:
210,236,33298,2,0,P|221:323|230:400,1,149.240002277222,2|2,1:2|0:0,0:0:0:0:
53,276,33787,1,0,0:0:0:0:
130,331,33950,1,0,0:0:0:0:
97,159,34114,6,0,P|50:196|-10:191,1,112.839995523316,6|0,1:2|0:0,0:0:0:0:
91,72,34603,1,2,0:0:0:0:
0,45,34766,2,0,P|10:80|18:114,1,56.4199977616578,2|2,0:0|0:0,0:0:0:0:
82,213,35092,2,0,P|88:185|96:158,1,56.4199977616578,2|2,0:0|0:0,0:0:0:0:
207,36,35418,6,0,P|256:83|356:75,1,149.240002277222,6|0,1:2|0:0,0:0:0:0:
215,191,35907,1,2,0:0:0:0:
369,271,36070,2,0,P|359:232|351:185,1,74.6200011386109,6|0,1:2|0:0,0:0:0:0:
241,309,36396,1,0,3:2:0:0:
239,328,36477,1,0,3:0:0:0:
236,346,36559,1,0,3:2:0:0:
233,364,36640,1,0,3:2:0:0:
231,383,36722,5,4,1:2:0:0:
139,307,36885,1,2,0:0:0:0:
337,364,37048,1,8,0:2:0:0:
201,227,37211,2,0,P|244:213|300:201,1,83.7199971895753,2|0,0:0|1:2,0:0:0:0:
468,128,37537,1,2,0:0:0:0:
367,258,37700,1,8,0:2:0:0:
512,314,37864,2,0,P|503:270|489:221,1,83.7199971895753,2|4,0:0|1:2,0:0:0:0:
269,77,38190,5,2,0:0:0:0:
464,22,38353,1,8,0:2:0:0:
359,173,38516,2,0,P|368:129|382:80,1,83.7199971895753,2|0,0:0|1:2,0:0:0:0:
265,202,38842,1,2,0:0:0:0:
265,202,38923,1,0,0:0:0:0:
265,202,39005,1,8,0:2:0:0:
416,290,39168,1,2,0:0:0:0:
265,373,39331,5,4,1:2:0:0:
443,202,39494,1,2,0:3:0:0:
206,111,39657,1,10,0:2:0:0:
298,231,39820,1,2,0:3:0:0:
131,306,39983,2,0,P|139:267|154:210,1,83.7199971895753,2|2,1:2|0:3,0:0:0:0:
155,203,40228,1,0,0:0:0:0:
155,203,40309,2,0,P|102:208|42:220,1,83.7199971895753,10|2,0:0|0:3,0:0:0:0:
164,373,40635,5,4,1:2:0:0:
70,124,40798,1,2,1:3:0:0:
273,325,40961,1,8,1:2:0:0:
179,76,41124,1,2,1:3:0:0:
399,299,41287,1,2,1:2:0:0:
305,50,41450,1,0,1:0:0:0:
305,50,41532,1,0,1:0:0:0:
305,50,41614,2,0,L|294:103,1,41.8599985947876,10|0,1:2|1:0,0:0:0:0:
275,179,41777,2,0,L|264:232,1,41.8599985947876,0|0,1:0|1:0,0:0:0:0:
369,150,41940,5,6,1:2:0:0:
120,221,42103,1,2,1:2:0:0:
453,370,42429,1,6,1:2:0:0:
299,0,42755,1,6,1:2:0:0:
7,304,43081,1,6,1:2:0:0:
7,304,43570,6,0,B|108:273|82:360|196:325,1,185.640001133057,6|0,1:2|0:0,0:0:0:0:
351,228,44059,1,2,0:0:0:0:
273,273,44222,1,2,0:0:0:0:
355,315,44385,1,2,0:0:0:0:
205,141,44548,6,0,P|194:191|179:249,1,92.8200005665283,6|0,1:2|0:0,0:0:0:0:
96,52,44874,2,0,P|140:37|184:25,1,92.8200005665283,8|2,0:2|0:0,0:0:0:0:
86,159,45200,1,2,1:2:0:0:
281,58,45364,1,2,0:0:0:0:
318,278,45527,1,10,0:2:0:0:
212,178,45690,6,0,P|256:163|300:151,1,92.8200005665283,2|0,0:0|1:2,0:0:0:0:
182,315,46016,2,0,P|147:283|114:251,1,92.8200005665283,2|8,0:0|0:2,0:0:0:0:
318,278,46342,2,0,P|308:323|296:368,1,92.8200005665283,2|0,0:0|1:2,0:0:0:0:
446,241,46668,1,2,1:0:0:0:
446,241,46749,1,0,1:0:0:0:
446,241,46831,1,10,0:2:0:0:
300,151,46994,2,0,P|306:129|315:97,1,46.4100002832642,2|0,1:2|1:0,0:0:0:0:
389,10,47157,6,0,P|330:60|211:41,1,185.640001133057,2|8,1:2|0:2,0:0:0:0:
3,158,47646,1,2,0:0:0:0:
116,58,47809,1,2,1:2:0:0:
237,197,47972,1,2,0:0:0:0:
84,242,48135,1,10,0:2:0:0:
254,348,48298,6,0,P|201:364|149:381,1,92.8200005665283,2|0,0:0|1:2,0:0:0:0:
396,233,48624,1,2,0:0:0:0:
354,365,48787,1,8,0:2:0:0:
208,204,48950,1,2,1:0:0:0:
237,197,49031,1,0,1:0:0:0:
267,189,49113,1,0,1:2:0:0:
431,97,49277,1,0,1:0:0:0:
385,85,49358,1,0,1:2:0:0:
342,74,49440,1,8,0:2:0:0:
396,233,49603,1,10,0:2:0:0:
214,107,49766,6,0,P|228:162|241:217,1,92.8200005665283,6|0,1:2|0:0,0:0:0:0:
78,53,50092,2,0,P|64:108|51:163,1,92.8200005665283,10|0,0:2|0:0,0:0:0:0:
87,299,50418,2,0,P|35:280|-10:267,1,92.8200005665283,2|0,1:2|0:0,0:0:0:0:
271,335,50744,2,0,P|235:345|183:364,1,92.8200005665283,10|0,0:2|0:0,0:0:0:0:
153,378,50989,1,0,0:0:0:0:
153,378,51070,6,0,P|164:333|179:289,1,92.8200005665283,2|0,1:2|0:0,0:0:0:0:
376,276,51396,2,0,P|364:231|349:187,1,92.8200005665283,10|0,0:2|0:0,0:0:0:0:
349,187,51641,1,0,1:0:0:0:
349,187,51722,1,2,1:2:0:0:
425,70,51885,1,0,0:0:0:0:
188,136,52048,1,10,0:2:0:0:
290,49,52211,1,2,0:0:0:0:
248,263,52374,6,0,P|171:292|81:219,1,185.640001133057,6|10,1:2|0:2,0:0:0:0:
0,65,52864,1,8,0:2:0:0:
0,65,52945,1,8,0:2:0:0:
0,65,53027,1,2,1:2:0:0:
188,136,53190,1,0,1:2:0:0:
0,286,53353,1,10,0:2:0:0:
73,154,53516,1,0,1:2:0:0:
73,154,53597,1,0,1:2:0:0:
73,154,53679,5,6,1:2:0:0:
194,352,53842,1,0,1:2:0:0:
365,146,54005,1,8,0:2:0:0:
162,46,54168,2,0,P|178:97|194:167,1,92.8200005665283,4|0,1:2|0:0,0:0:0:0:
273,292,54494,1,14,1:2:0:0:
276,269,54575,1,8,0:0:0:0:
280,246,54657,1,10,0:2:0:0:
382,47,54820,2,0,L|394:109,1,46.4100002832642,10|8,0:2|0:2,0:0:0:0:
414,214,54983,6,0,P|371:235|247:153,1,185.640001133057,6|8,1:2|0:2,0:0:0:0:
87,220,55472,1,2,0:0:0:0:
254,70,55635,1,2,1:2:0:0:
98,0,55798,1,2,0:0:0:0:
256,180,55961,1,10,0:2:0:0:
58,131,56124,6,0,P|109:114|153:99,1,92.8200005665283,2|0,0:0|1:2,0:0:0:0:
198,305,56450,2,0,P|157:269|122:238,1,92.8200005665283,2|8,0:0|0:2,0:0:0:0:
274,89,56777,2,0,P|263:141|254:187,1,92.8200005665283,2|0,0:0|1:2,0:0:0:0:
421,264,57103,1,2,1:0:0:0:
421,264,57184,1,0,1:0:0:0:
421,264,57266,1,10,0:2:0:0:
304,364,57429,2,0,P|313:334|319:318,1,46.4100002832642,2|0,1:2|1:0,0:0:0:0:
461,185,57592,6,0,P|398:232|292:207,1,185.640001133057,2|8,1:2|0:2,0:0:0:0:
96,115,58081,1,2,0:0:0:0:
181,255,58244,1,2,1:2:0:0:
325,113,58407,1,2,0:0:0:0:
196,39,58570,1,10,0:2:0:0:
298,212,58733,6,0,P|342:203|396:193,1,92.8200005665283,2|0,0:0|1:2,0:0:0:0:
262,341,59059,1,2,0:0:0:0:
439,257,59222,1,8,0:2:0:0:
202,162,59385,1,2,1:2:0:0:
195,193,59466,1,0,1:0:0:0:
189,225,59548,1,0,1:2:0:0:
342,111,59711,1,0,1:0:0:0:
331,65,59792,1,0,1:2:0:0:
321,20,59874,1,8,0:2:0:0:
464,134,60037,1,2,1:2:0:0:
231,59,60200,6,0,P|176:68|115:79,1,92.8200005665283,6|0,1:2|0:0,0:0:0:0:
92,190,60527,2,0,P|46:181|0:174,1,92.8200005665283,10|0,0:2|0:0,0:0:0:0:
202,274,60853,2,0,P|211:233|227:162,1,92.8200005665283,2|0,1:2|0:0,0:0:0:0:
361,310,61179,2,0,P|352:269|336:198,1,92.8200005665283,10|0,0:2|0:0,0:0:0:0:
332,193,61423,1,0,0:0:0:0:
332,193,61505,6,0,P|380:198|432:205,1,92.8200005665283,2|0,1:2|0:0,0:0:0:0:
512,52,61831,2,0,P|464:57|412:64,1,92.8200005665283,10|0,0:2|0:0,0:0:0:0:
419,62,62075,1,0,1:0:0:0:
419,62,62157,1,2,1:2:0:0:
205,0,62320,1,0,0:0:0:0:
340,103,62483,1,10,0:2:0:0:
198,208,62646,1,2,0:0:0:0:
343,374,62809,6,0,P|322:284|298:174,1,185.640001133057,6|10,1:2|0:2,0:0:0:0:
172,341,63298,1,8,0:2:0:0:
172,341,63380,1,8,0:2:0:0:
172,341,63461,1,2,1:2:0:0:
402,220,63624,1,0,1:2:0:0:
190,96,63787,1,10,0:2:0:0:
268,236,63951,1,0,1:2:0:0:
268,236,64032,1,0,1:2:0:0:
268,236,64114,5,6,1:2:0:0:
322,38,64277,1,0,1:2:0:0:
106,238,64440,1,8,0:2:0:0:
173,9,64603,2,0,P|124:17|77:26,1,92.8200005665283,4|0,1:2|0:0,0:0:0:0:
203,130,64929,1,6,1:2:0:0:
0,78,65092,1,2,0:2:0:0:
231,222,65255,1,10,0:2:0:0:
36,336,65418,6,0,P|-15:267|22:166,1,185.640001133057,6|8,1:2|0:2,0:0:0:0:
222,319,65907,1,2,0:0:0:0:
82,258,66070,1,2,1:2:0:0:
283,146,66233,1,2,0:0:0:0:
170,0,66396,1,10,0:2:0:0:
93,158,66559,6,0,P|133:139|183:121,1,92.8200005665283,2|0,0:0|1:2,0:0:0:0:
282,283,66885,2,0,P|245:257|204:223,1,92.8200005665283,2|8,0:0|0:2,0:0:0:0:
294,54,67211,2,0,P|290:98|281:150,1,92.8200005665283,2|8,0:0|1:2,0:0:0:0:
453,300,67537,1,2,0:0:0:0:
384,108,67700,1,10,0:2:0:0:
282,283,67864,1,2,0:0:0:0:
152,168,68027,6,0,P|232:180|351:200,1,185.640001133057,6|8,1:2|0:2,0:0:0:0:
219,9,68516,1,2,1:2:0:0:
219,9,68597,1,0,1:0:0:0:
219,9,68679,1,2,1:2:0:0:
312,85,68842,1,2,0:0:0:0:
152,168,69005,1,10,0:2:0:0:
122,50,69168,1,2,0:0:0:0:
249,216,69331,6,0,P|237:268|227:314,1,92.8200005665283,0|2,1:2|0:0,0:0:0:0:
63,195,69657,2,0,P|114:179|158:165,1,92.8200005665283,8|2,0:2|0:0,0:0:0:0:
312,85,69983,2,0,P|260:69|216:55,1,92.8200005665283,0|0,1:2|0:0,0:0:0:0:
422,171,70309,1,8,0:2:0:0:
362,0,70472,1,2,0:2:0:0:
255,166,70635,5,6,1:2:0:0:
119,59,70798,2,0,P|107:111|97:157,1,92.8200005665283,2|8,0:0|0:2,0:0:0:0:
201,308,71124,1,2,0:0:0:0:
0,245,71287,1,2,1:2:0:0:
101,360,71450,2,0,P|54:373|3:387,1,92.8200005665283,2|8,0:0|0:2,0:0:0:0:
161,211,71777,1,2,0:0:0:0:
301,342,71940,5,2,1:2:0:0:
275,150,72103,2,0,P|263:202|253:248,1,92.8200005665283,2|8,0:0|0:2,0:0:0:0:
419,120,72429,1,2,0:0:0:0:
224,22,72592,1,2,1:2:0:0:
275,150,72755,1,2,0:0:0:0:
374,0,72918,1,8,0:2:0:0:
169,114,73081,1,4,0:3:0:0:
359,295,73244,6,0,P|366:244|376:180,1,92.8200005665283,6|0,1:2|0:0,0:0:0:0:
156,293,73570,2,0,P|162:338|169:384,1,92.8200005665283,10|8,0:2|0:2,0:0:0:0:
169,384,73815,1,8,0:2:0:0:
169,384,73896,1,6,1:2:0:0:
228,174,74059,1,0,1:2:0:0:
43,283,74222,1,10,0:2:0:0:
201,77,74385,1,0,1:2:0:0:
155,66,74466,1,0,1:2:0:0:
110,55,74548,5,6,1:2:0:0:
255,260,74711,1,0,1:2:0:0:
377,45,74874,1,8,0:2:0:0:
228,174,75037,2,0,P|295:240|394:221,1,185.640001133057,4|0,1:2|1:2,0:0:0:0:
177,384,75527,1,8,0:2:0:0:
317,323,75690,1,0,1:2:0:0:
317,323,75771,1,0,1:2:0:0:
317,323,75853,5,14,1:2:0:0:
134,206,76016,1,0,1:0:0:0:
189,298,76179,1,8,1:2:0:0:
319,166,76342,1,0,1:0:0:0:
187,105,76505,1,14,1:2:0:0:
317,323,76668,1,0,1:2:0:0:
214,197,76831,1,8,1:2:0:0:
400,104,76994,1,0,1:2:0:0:
355,91,77075,1,0,1:0:0:0:
310,78,77157,5,14,1:2:0:0:
470,249,77320,2,0,P|480:205|494:151,1,92.8200005665283,10|0,1:2|0:0,0:0:0:0:
254,2,77646,2,0,P|276:101|295:190,1,185.640001133057,14|0,1:2|0:0,0:0:0:0:
218,320,78135,1,2,3:2:0:0:
364,256,78298,1,2,0:0:0:0:
327,381,78461,6,0,P|319:347|308:299,1,65.5200015996094,6|0,1:2|0:0,0:0:0:0:
232,256,78787,2,0,P|224:287|217:319,1,65.5200015996094,2|0,0:2|0:0,0:0:0:0:
129,384,79114,2,0,P|120:323|107:243,1,131.040003199219,2|0,0:2|0:0,0:0:0:0:
20,122,79603,6,0,P|75:156|152:137,1,131.040003199219,2|0,0:2|0:0,0:0:0:0:
234,44,80092,2,0,P|198:35|158:27,1,65.5200015996094,2|0,0:2|3:0,0:0:0:0:
244,145,80418,1,2,3:2:0:0:
244,145,80581,1,0,3:0:0:0:
358,67,80744,1,2,0:2:0:0:
264,23,80907,1,0,3:0:0:0:
383,163,81070,6,0,P|347:170|309:181,1,65.5200015996094,6|0,1:2|0:0,0:0:0:0:
449,60,81396,2,0,P|481:66|512:74,1,65.5200015996094,2|0,0:2|0:0,0:0:0:0:
504,243,81722,2,0,P|496:213|483:171,1,65.5200015996094,2|0,0:2|3:0,0:0:0:0:
485,180,81967,1,0,3:0:0:0:
485,180,82048,1,0,3:0:0:0:
398,301,82211,6,0,P|433:342|528:342,1,131.040003199219,2|0,0:2|0:0,0:0:0:0:
386,201,82700,2,0,P|349:209|307:221,1,65.5200015996094,2|0,0:2|3:0,0:0:0:0:
155,264,83027,1,2,3:2:0:0:
219,187,83190,1,2,3:2:0:0:
258,276,83353,1,2,0:2:0:0:
103,162,83516,1,2,3:2:0:0:
264,69,83679,5,10,1:2:0:0:
6,314,84331,1,10,1:2:0:0:
431,138,84983,1,10,1:2:0:0:
173,383,85635,1,10,1:2:0:0:
173,383,86287,6,0,P|167:350|158:301,1,74.6200011386109,10|0,1:2|1:0,0:0:0:0:
260,116,86614,1,10,1:2:0:0:
90,197,86777,1,0,1:0:0:0:
286,335,86940,1,10,1:2:0:0:
205,220,87103,2,0,L|219:178,1,37.3100005693054,0|0,1:0|1:0,0:0:0:0:
351,77,87266,1,10,1:2:0:0:
355,102,87347,1,8,0:2:0:0:
359,128,87429,1,8,1:2:0:0:
363,154,87510,1,8,0:2:0:0:
367,180,87592,6,0,P|442:202|503:137,1,149.240002277222,14|0,1:2|0:0,0:0:0:0:
246,78,88081,2,0,B|148:59|179:147|56:121,1,185.640001133057,14|0,1:2|0:0,0:0:0:0:
