osu file format v14

[General]
AudioFilename: audio.mp3
AudioLeadIn: 0
PreviewTime: 44455
Countdown: 0
SampleSet: Soft
StackLeniency: 0.3
Mode: 0
LetterboxInBreaks: 0
WidescreenStoryboard: 1

[Editor]
Bookmarks: 5814,11031,21466,31901,37118,44944,55379,65814,78857,84075,89292
DistanceSpacing: 1.4
BeatDivisor: 4
GridSize: 4
TimelineZoom: 2.799999

[Metadata]
Title:Honey Come!! (TV Size)
TitleUnicode:Honey Come!! (TV Size)
Artist:Ogura Yui
ArtistUnicode:小倉唯
Creator:Kawashiro
Version:Expert
Source:城下町のダンデライオン
Tags:Castle Town Dandelion Joukamachi no Dandelion Ending Akitoshi LowComboFC [_Space_] tkbaka
BeatmapID:1401279
BeatmapSetID:661932

[Difficulty]
HPDrainRate:6.5
CircleSize:4.5
OverallDifficulty:9
ApproachRate:9.3
SliderMultiplier:1.7
SliderTickRate:1

[Events]
//Background and Video events
0,0,"bgbgbg.jpg",0,0
//Break Periods
//Storyboard Layer 0 (Background)
//Storyboard Layer 1 (Fail)
//Storyboard Layer 2 (Pass)
//Storyboard Layer 3 (Foreground)
//Storyboard Sound Samples

[TimingPoints]
597,326.086956521739,4,2,69,60,1,0
5814,-100,4,2,69,70,0,0
9971,-100,4,2,69,10,0,0
10053,-100,4,2,69,70,0,0
10298,-100,4,2,69,10,0,0
10379,-100,4,2,69,70,0,0
10624,-100,4,2,69,10,0,0
10705,-100,4,2,69,70,0,0
11031,-100,4,2,69,60,0,0
31901,-133.333333333333,4,2,69,55,0,0
37118,-100,4,2,69,60,0,0
44944,-100,4,2,69,80,0,1
54890,-100,4,2,69,80,0,0
55379,-100,4,2,69,80,0,1
65325,-100,4,2,69,80,0,0
65814,-100,4,2,69,80,0,1
78857,-100,4,2,69,60,0,0
84075,-100,4,2,69,70,0,0
87988,-133.333333333333,4,2,69,70,0,0

[HitObjects]
408,138,597,6,0,P|370:157|328:153,1,85,6|0,0:0|0:0,0:0:0:0:
172,82,923,2,0,P|213:78|260:112,1,85,0|0,0:0|0:0,0:0:0:0:
228,254,1249,2,0,B|200:286|200:286|196:158,1,170,0|0,0:0|0:0,0:0:0:0:
84,62,1738,2,0,B|112:30|112:30|115:157,1,170,2|0,0:0|0:0,0:0:0:0:
156,234,2227,2,0,P|114:243|74:233,1,85,0|0,0:0|0:0,0:0:0:0:
197,158,2553,1,0,0:0:0:0:
120,314,2716,1,0,0:0:0:0:
28,166,2879,1,0,0:0:0:0:
184,243,3042,1,0,0:0:0:0:
332,158,3205,6,0,B|344:134|344:134|331:77,1,85,6|0,0:0|0:0,0:0:0:0:
188,82,3531,2,0,B|202:104|202:104|258:121,1,85,0|0,0:0|0:0,0:0:0:0:
436,202,3857,2,0,B|384:190|384:190|271:220,1,170,0|0,0:0|0:0,0:0:0:0:
137,113,4346,2,0,B|189:101|189:101|301:131,1,170,2|0,0:0|0:0,0:0:0:0:
196,268,4836,2,0,P|182:227|189:186,1,85,0|0,0:0|0:0,0:0:0:0:
268,44,5162,1,0,0:0:0:0:
272,220,5325,1,0,0:0:0:0:
125,135,5488,1,0,0:0:0:0:
301,131,5651,1,0,0:0:0:0:
84,212,5814,6,0,P|45:162|49:100,1,127.5,12|0,0:0|0:0,0:0:0:0:
28,31,6140,2,0,P|69:30|105:52,1,85,0|0,0:0|0:0,0:0:0:0:
292,99,6466,1,8,0:0:0:0:
208,119,6629,2,0,L|124:134,1,85,0|0,0:0|0:0,0:0:0:0:
236,40,6955,1,0,0:0:0:0:
268,184,7118,6,0,B|264:272|264:272|220:312,1,127.5,8|0,0:0|0:0,0:0:0:0:
188,236,7444,2,0,L|192:148,1,85,0|0,0:0|0:0,0:0:0:0:
351,47,7770,1,8,0:0:0:0:
347,131,7933,2,0,L|343:215,1,85,0|0,0:0|0:0,0:0:0:0:
423,91,8260,1,0,0:0:0:0:
268,184,8423,5,6,0:0:0:0:
472,204,8586,1,0,0:0:0:0:
351,47,8749,1,8,0:0:0:0:
336,300,8912,1,0,0:0:0:0:
170,76,9075,1,8,0:0:0:0:
423,91,9238,1,0,0:0:0:0:
236,248,9401,1,8,0:0:0:0:
256,44,9564,1,0,0:0:0:0:
336,300,9727,6,0,B|288:300|288:300|264:320|264:320|208:320,1,127.5,8|0,0:0|0:0,0:0:0:0:
72,320,10053,2,0,P|127:305|136:362,1,127.5,8|0,0:0|0:0,0:0:0:0:
40,252,10379,2,0,L|40:124,1,127.5,8|0,0:0|0:0,0:0:0:0:
40,52,10705,1,2,0:0:0:0:
152,124,10868,1,0,0:0:0:0:
148,136,10950,1,0,0:0:0:0:
143,148,11031,6,0,P|183:133|264:172,1,127.5,6|0,0:0|0:0,0:0:0:0:
264,246,11357,2,0,P|223:239|191:211,1,85,8|0,0:0|0:0,0:0:0:0:
276,44,11683,1,2,0:0:0:0:
332,108,11846,2,0,L|332:204,1,85,2|8,0:0|0:0,0:0:0:0:
456,272,12173,6,0,B|416:252|372:272|372:272|332:292|292:272,1,170,2|2,0:0|0:0,0:0:0:0:
332,193,12662,1,8,0:0:0:0:
412,344,12825,1,0,0:0:0:0:
136,276,12988,1,2,0:0:0:0:
136,276,13151,1,2,0:0:0:0:
207,231,13314,2,0,P|220:272|210:313,1,85,8|0,0:0|0:0,0:0:0:0:
64,244,13640,6,0,B|64:196|64:196|84:168|84:168|84:122,1,127.5,2|0,0:0|0:0,0:0:0:0:
37,67,13966,2,0,B|16:92|16:92|16:144,1,85,8|0,0:0|0:0,0:0:0:0:
172,188,14292,1,2,0:0:0:0:
228,124,14455,2,0,B|203:102|203:102|151:102,1,85,2|8,0:0|0:0,0:0:0:0:
316,52,14781,6,0,L|312:221,1,170,2|2,0:0|0:0,0:0:0:0:
480,164,15270,2,0,P|441:179|399:176,1,85,8|0,0:0|0:0,0:0:0:0:
308,308,15596,1,2,0:0:0:0:
164,120,15760,1,0,0:0:0:0:
152,144,15841,1,0,0:0:0:0:
140,168,15923,2,0,P|179:183|221:179,1,85,8|8,0:0|0:0,0:0:0:0:
428,96,16249,6,0,B|412:56|412:56|421:11,1,85,2|0,0:0|0:0,0:0:0:0:
500,44,16575,1,8,0:0:0:0:
348,80,16738,2,0,B|308:104|268:80|268:80|228:56|188:80,1,170,8|2,0:0|0:0,0:0:0:0:
199,231,17227,2,0,B|224:204|224:204|228:156,1,85,8|0,0:0|0:0,0:0:0:0:
96,288,17553,6,0,B|112:328|112:328|102:372,1,85,2|0,0:0|0:0,0:0:0:0:
24,340,17879,1,8,0:0:0:0:
176,304,18042,2,0,B|216:280|256:304|256:304|296:328|336:304,1,170,8|2,0:0|0:0,0:0:0:0:
324,152,18531,2,0,B|299:179|299:179|295:227,1,85,8|0,0:0|0:0,0:0:0:0:
508,296,18857,6,0,P|458:281|423:290,1,85,2|0,0:0|0:0,0:0:0:0:
460,368,19183,1,8,0:0:0:0:
424,176,19346,2,0,B|384:152|344:176|344:176|304:200|264:176,1,170,8|2,0:0|0:0,0:0:0:0:
307,31,19836,2,0,P|316:73|303:113,1,85,8|0,0:0|0:0,0:0:0:0:
184,244,20162,6,0,L|92:248,1,85,2|0,0:0|0:0,0:0:0:0:
264,176,20488,2,0,L|356:180,1,85,2|0,0:0|0:0,0:0:0:0:
428,156,20732,1,2,0:0:0:0:
423,163,20814,2,0,P|429:184|427:205,1,42.5,2|0,0:0|0:0,0:0:0:0:
408,280,20977,1,2,0:0:0:0:
373,308,21059,1,2,0:0:0:0:
329,308,21141,1,2,0:0:0:0:
288,288,21221,1,2,0:0:0:0:
252,264,21303,1,2,0:0:0:0:
208,264,21385,1,2,0:0:0:0:
168,284,21466,6,0,P|183:223|151:170,1,127.5,6|0,0:0|0:0,0:0:0:0:
73,162,21792,2,0,P|78:204|105:235,1,85,8|0,0:0|0:0,0:0:0:0:
273,151,22118,1,2,0:0:0:0:
209,95,22281,2,0,L|113:95,1,85,2|8,0:0|0:0,0:0:0:0:
249,235,22607,6,0,B|321:235|321:235|337:219|337:219|412:219,1,170,2|0,0:0|0:0,0:0:0:0:
273,151,23096,1,8,0:0:0:0:
388,303,23260,1,0,0:0:0:0:
436,52,23423,1,2,0:0:0:0:
436,52,23586,1,2,0:0:0:0:
468,133,23749,2,0,P|428:141|388:125,1,85,8|0,0:0|0:0,0:0:0:0:
208,200,24075,6,0,B|208:248|208:248|228:276|228:276|228:322,1,127.5,2|0,0:0|0:0,0:0:0:0:
181,377,24401,2,0,B|160:352|160:352|160:300,1,85,8|0,0:0|0:0,0:0:0:0:
316,256,24727,1,2,0:0:0:0:
372,320,24890,2,0,B|347:342|347:342|295:342,1,85,2|8,0:0|0:0,0:0:0:0:
276,164,25216,6,0,B|296:128|296:128|316:256,1,170,2|2,0:0|0:0,0:0:0:0:
476,196,25705,2,0,P|438:177|396:180,1,85,8|0,0:0|0:0,0:0:0:0:
236,244,26031,1,2,0:0:0:0:
404,376,26194,1,2,0:0:0:0:
412,356,26276,1,2,0:0:0:0:
419,336,26357,2,0,P|431:295|424:254,1,85,8|0,0:0|0:0,0:0:0:0:
292,72,26683,5,6,0:0:0:0:
292,72,26846,1,0,0:0:0:0:
240,140,27010,2,0,P|277:158|324:152,1,85,8|8,0:0|0:0,0:0:0:0:
456,24,27336,1,2,0:0:0:0:
456,24,27499,1,0,0:0:0:0:
508,92,27663,2,0,P|470:110|425:104,1,85,8|0,0:0|0:0,0:0:0:0:
332,312,27988,5,2,0:0:0:0:
332,312,28151,1,0,0:0:0:0:
400,260,28314,2,0,L|392:164,1,85,8|8,0:0|0:0,0:0:0:0:
304,40,28640,1,2,0:0:0:0:
304,40,28803,1,0,0:0:0:0:
240,96,28966,2,0,L|248:192,1,85,8|0,0:0|0:0,0:0:0:0:
128,256,29292,6,0,B|168:232|208:256|208:256|248:280|288:256,1,170,2|8,0:0|0:0,0:0:0:0:
168,332,29781,1,0,0:0:0:0:
0,264,29944,1,2,0:0:0:0:
60,204,30107,2,0,P|77:165|70:123,1,85,2|8,0:0|0:0,0:0:0:0:
172,0,30433,1,0,0:0:0:0:
220,67,30596,6,0,P|181:83|139:77,1,85,2|0,0:0|0:0,0:0:0:0:
284,136,30923,2,0,P|323:120|365:126,1,85,8|2,0:0|0:0,0:0:0:0:
416,180,31167,1,2,0:0:0:0:
416,180,31249,2,0,L|420:268,1,85,2|2,0:0|0:0,0:0:0:0:
376,324,31493,1,2,0:0:0:0:
368,332,31575,5,10,0:0:0:0:
336,304,31657,1,2,0:0:0:0:
296,296,31738,1,2,0:0:0:0:
256,304,31820,1,2,0:0:0:0:
220,328,31901,6,0,L|220:200,1,127.500004863739,6|0,0:0|0:0,0:0:0:0:
84,235,32390,2,0,P|112:249|144:248,1,63.7500024318696,2|0,0:0|0:0,0:0:0:0:
240,123,32716,1,0,0:0:0:0:
240,123,32879,2,0,P|208:122|180:135,1,63.7500024318696,0|0,0:0|0:0,0:0:0:0:
332,208,33205,6,0,L|332:80,1,127.500004863739,2|0,0:0|0:0,0:0:0:0:
468,115,33694,2,0,P|440:129|408:128,1,63.7500024318696,2|0,0:0|0:0,0:0:0:0:
312,3,34020,1,0,0:0:0:0:
312,3,34183,2,0,P|344:2|372:15,1,63.7500024318696
412,208,34510,6,0,B|332:192|332:192|287:203,1,127.500004863739,2|0,0:0|0:0,0:0:0:0:
332,268,34999,1,0,0:0:0:0:
376,84,35162,2,0,L|368:20,1,63.7500024318696,2|0,0:0|0:0,0:0:0:0:
144,20,35488,2,0,L|136:84,1,63.7500024318696,2|0,0:0|0:0,0:0:0:0:
200,256,35814,6,0,B|186:229|202:197|202:197|218:165|202:133,1,127.500004863739,2|0,0:0|0:0,0:0:0:0:
132,164,36303,1,0,0:0:0:0:
312,90,36466,2,0,L|376:84,1,63.7500024318696,2|0,0:0|0:0,0:0:0:0:
472,200,36792,1,8,0:0:0:0:
456,196,36874,1,8,0:0:0:0:
440,196,36955,1,8,0:0:0:0:
424,200,37037,1,8,0:0:0:0:
412,212,37118,5,6,0:0:0:0:
452,284,37281,1,0,0:0:0:0:
375,84,37444,1,8,0:0:0:0:
262,263,37607,2,0,P|256:305|269:344,1,85,0|2,0:0|0:0,0:0:0:0:
341,296,37933,1,0,0:0:0:0:
168,324,38096,1,8,0:0:0:0:
432,368,38260,2,0,P|474:368|520:336,1,85,0|2,0:0|0:0,0:0:0:0:
452,288,38586,5,0,0:0:0:0:
293,373,38749,2,0,P|250:373|212:348,1,85,8|0,0:0|0:0,0:0:0:0:
293,210,39075,2,0,L|273:293,1,85,2|0,0:0|0:0,0:0:0:0:
272,128,39401,2,0,P|314:127|352:152,1,85,8|0,0:0|0:0,0:0:0:0:
192,196,39727,5,2,0:0:0:0:
328,40,39890,1,0,0:0:0:0:
384,240,40053,2,0,L|376:336,1,85,8|0,0:0|0:0,0:0:0:0:
286,182,40379,1,8,0:0:0:0:
302,174,40461,1,0,0:0:0:0:
318,166,40542,1,0,0:0:0:0:
334,158,40624,1,0,0:0:0:0:
349,149,40705,2,0,P|369:145|390:147,3,42.5,8|0|0|0,0:0|0:0|0:0|0:0,0:0:0:0:
456,192,41031,5,2,0:0:0:0:
240,112,41194,1,8,0:0:0:0:
456,28,41357,2,0,P|472:66|467:108,1,85,8|8,0:0|0:0,0:0:0:0:
300,232,41683,1,8,0:0:0:0:
276,212,41765,1,0,0:0:0:0:
248,204,41846,1,0,0:0:0:0:
220,208,41928,1,0,0:0:0:0:
192,224,42010,1,8,0:0:0:0:
164,240,42091,1,8,0:0:0:0:
136,244,42173,1,8,0:0:0:0:
108,236,42254,1,8,0:0:0:0:
84,216,42336,5,8,0:0:0:0:
236,364,42499,2,0,B|248:339|248:339|244:280,1,85,10|0,0:0|0:0,0:0:0:0:
152,84,42825,2,0,B|139:108|139:108|144:168,1,85,10|0,0:0|0:0,0:0:0:0:
360,216,43151,2,0,B|386:229|418:213|418:213|450:197|482:213,1,127.5,10|0,0:0|0:0,0:0:0:0:
452,276,43477,1,10,0:0:0:0:
335,76,43966,6,0,P|423:68|387:148,1,212.5,2|0,0:0|0:0,0:0:0:0:
304,148,44455,5,0,0:0:0:0:
504,16,44618,1,0,0:0:0:0:
440,264,44781,1,0,0:0:0:0:
238,90,44944,6,0,B|196:100|196:100|112:88,1,127.5,6|0,0:0|0:0,0:0:0:0:
40,84,45270,2,0,P|45:125|75:153,1,85,8|0,0:0|0:0,0:0:0:0:
328,100,45596,1,2,0:0:0:0:
156,20,45760,1,0,0:0:0:0:
4,152,45923,1,8,0:0:0:0:
230,258,46086,6,0,B|242:230|242:230|233:176,1,85,0|2,0:0|0:0,0:0:0:0:
66,222,46412,2,0,L|166:222,1,85,0|8,0:0|0:0,0:0:0:0:
176,52,46738,2,0,B|158:76|158:76|154:131,1,85,0|2,0:0|0:0,0:0:0:0:
152,312,47064,5,0,0:0:0:0:
348,132,47227,1,8,0:0:0:0:
108,40,47390,1,0,0:0:0:0:
334,296,47553,6,0,B|418:308|418:308|466:284,1,127.5,2|0,0:0|0:0,0:0:0:0:
406,232,47879,2,0,L|321:221,1,85,8|0,0:0|0:0,0:0:0:0:
88,204,48205,1,2,0:0:0:0:
260,336,48368,1,0,0:0:0:0:
330,141,48531,1,8,0:0:0:0:
125,36,48694,6,0,P|108:74|116:116,1,85,0|2,0:0|0:0,0:0:0:0:
321,221,49020,2,0,P|338:183|330:141,1,85,0|8,0:0|0:0,0:0:0:0:
32,68,49346,1,0,0:0:0:0:
176,296,49510,1,2,0:0:0:0:
296,56,49673,1,2,0:0:0:0:
320,52,49755,1,2,0:0:0:0:
344,48,49836,1,8,0:0:0:0:
264,256,49999,1,2,0:0:0:0:
90,100,50162,6,0,L|104:16,1,85,6|0,0:0|0:0,0:0:0:0:
24,164,50488,2,0,P|57:188|99:190,1,85,8|0,0:0|0:0,0:0:0:0:
244,114,50814,2,0,P|202:115|168:139,1,85,2|0,0:0|0:0,0:0:0:0:
243,278,51140,2,0,L|229:194,1,85,8|0,0:0|0:0,0:0:0:0:
172,348,51466,5,2,0:0:0:0:
332,320,51629,1,0,0:0:0:0:
216,112,51792,1,8,0:0:0:0:
243,278,51955,1,0,0:0:0:0:
287,42,52118,1,2,0:0:0:0:
127,70,52281,1,0,0:0:0:0:
229,194,52444,1,8,0:0:0:0:
202,28,52607,1,0,0:0:0:0:
168,250,52770,6,0,P|201:276|243:278,1,85,2|0,0:0|0:0,0:0:0:0:
380,131,53096,2,0,P|338:129|303:152,1,85,8|0,0:0|0:0,0:0:0:0:
279,352,53423,2,0,P|313:328|327:289,1,85,2|0,0:0|0:0,0:0:0:0:
231,114,53749,2,0,P|216:153|228:193,1,85,8|2,0:0|0:0,0:0:0:0:
296,224,53993,1,2,0:0:0:0:
296,224,54075,1,2,0:0:0:0:
88,120,54238,1,0,0:0:0:0:
308,44,54401,1,8,0:0:0:0:
248,304,54564,2,0,B|222:317|190:301|190:301|158:285|126:301,1,127.5,2|0,0:0|0:0,0:0:0:0:
156,364,54890,5,0,0:0:0:0:
208,140,55053,1,0,0:0:0:0:
0,264,55216,1,0,0:0:0:0:
355,248,55379,6,0,B|384:236|384:236|390:140,1,127.5,6|0,0:0|0:0,0:0:0:0:
428,80,55705,2,0,P|387:67|347:79,1,85,8|0,0:0|0:0,0:0:0:0:
200,240,56031,1,2,0:0:0:0:
392,316,56194,1,0,0:0:0:0:
236,136,56357,1,8,0:0:0:0:
108,332,56520,6,0,L|192:328,1,85,0|2,0:0|0:0,0:0:0:0:
440,252,56846,2,0,L|356:248,1,85,0|8,0:0|0:0,0:0:0:0:
192,76,57173,2,0,P|164:108|164:156,1,85,0|2,0:0|0:0,0:0:0:0:
268,376,57499,5,0,0:0:0:0:
511,258,57662,1,8,0:0:0:0:
276,136,57825,1,0,0:0:0:0:
495,348,57988,6,0,P|540:309|511:258,1,127.5,2|0,0:0|0:0,0:0:0:0:
440,252,58314,2,0,L|356:248,1,85,8|0,0:0|0:0,0:0:0:0:
116,212,58640,1,2,0:0:0:0:
308,312,58803,1,0,0:0:0:0:
416,132,58966,1,8,0:0:0:0:
154,54,59129,6,0,P|144:94|156:135,1,85,0|2,0:0|0:0,0:0:0:0:
355,247,59455,2,0,P|367:206|357:165,1,85,0|8,0:0|0:0,0:0:0:0:
160,288,59781,1,0,0:0:0:0:
292,124,59944,1,2,0:0:0:0:
328,364,60107,1,2,0:0:0:0:
328,364,60189,1,2,0:0:0:0:
328,364,60270,1,8,0:0:0:0:
156,135,60433,1,2,0:0:0:0:
184,364,60596,6,0,P|142:368|99:344,1,85,6|0,0:0|0:0,0:0:0:0:
280,240,60923,2,0,P|321:235|364:259,1,85,8|0,0:0|0:0,0:0:0:0:
192,280,61249,2,0,L|180:180,1,85,2|0,0:0|0:0,0:0:0:0:
348,76,61575,2,0,L|337:160,1,85,8|0,0:0|0:0,0:0:0:0:
277,6,61901,5,2,0:0:0:0:
437,34,62064,1,0,0:0:0:0:
321,242,62227,1,8,0:0:0:0:
348,76,62390,1,0,0:0:0:0:
392,312,62553,1,2,0:0:0:0:
232,284,62716,1,0,0:0:0:0:
334,160,62879,1,8,0:0:0:0:
307,326,63042,1,0,0:0:0:0:
400,108,63205,6,0,P|368:80|326:76,1,85,2|0,0:0|0:0,0:0:0:0:
182,215,63531,2,0,P|223:219|259:198,1,85,8|0,0:0|0:0,0:0:0:0:
294,0,63858,2,0,P|258:22|242:60,1,85,2|0,0:0|0:0,0:0:0:0:
329,240,64184,2,0,P|346:201|336:161,1,85,8|0,0:0|0:0,0:0:0:0:
272,129,64428,1,2,0:0:0:0:
272,129,64510,1,2,0:0:0:0:
464,84,64673,1,2,0:0:0:0:
416,320,64836,1,2,0:0:0:0:
272,129,64999,2,0,B|298:116|330:132|330:132|362:148|394:132,1,127.5,2|0,0:0|0:0,0:0:0:0:
364,69,65325,5,0,0:0:0:0:
248,284,65488,1,0,0:0:0:0:
488,272,65651,1,0,0:0:0:0:
180,120,65814,6,0,B|96:108|96:108|58:128,1,127.5,6|0,0:0|0:0,0:0:0:0:
32,200,66140,2,0,P|51:207|72:205,2,42.5,8|0|0,0:0|0:0|0:0,0:0:0:0:
152,48,66466,1,2,0:0:0:0:
192,244,66629,2,0,L|184:336,1,85,0|8,0:0|0:0,0:0:0:0:
148,171,66955,6,0,P|188:159|229:168,1,85,0|2,0:0|0:0,0:0:0:0:
356,304,67281,1,0,0:0:0:0:
428,88,67444,1,8,0:0:0:0:
400,372,67607,2,0,P|359:385|318:376,1,85,0|2,0:0|0:0,0:0:0:0:
96,280,67933,5,0,0:0:0:0:
391,184,68096,1,8,0:0:0:0:
176,72,68260,1,0,0:0:0:0:
414,340,68423,6,0,B|440:320|440:320|452:225,1,127.5,2|0,0:0|0:0,0:0:0:0:
391,184,68749,2,0,P|380:202|377:223,2,42.5,8|0|0,0:0|0:0|0:0,0:0:0:0:
512,324,69075,1,2,0:0:0:0:
308,355,69238,2,0,L|212:336,1,85,0|8,0:0|0:0,0:0:0:0:
64,296,69564,6,0,L|160:277,1,85,0|2,0:0|0:0,0:0:0:0:
384,232,69890,1,0,0:0:0:0:
160,136,70053,1,8,0:0:0:0:
224,338,70216,1,0,0:0:0:0:
227,83,70379,2,0,P|153:51|83:93,1,170,0|8,0:0|0:0,0:0:0:0:
468,184,70868,5,0,0:0:0:0:
483,14,71031,1,2,0:0:0:0:
468,184,71194,2,0,L|458:293,1,85,0|8,0:0|0:0,0:0:0:0:
324,184,71520,1,0,0:0:0:0:
339,354,71683,1,2,0:0:0:0:
324,184,71846,2,0,L|314:74,1,85,0|8,0:0|0:0,0:0:0:0:
180,184,72173,5,0,0:0:0:0:
195,14,72336,1,2,0:0:0:0:
180,184,72499,2,0,L|170:293,1,85,0|8,0:0|0:0,0:0:0:0:
36,184,72825,1,0,0:0:0:0:
51,354,72988,1,2,0:0:0:0:
36,184,73151,2,0,L|26:74,1,85,0|8,0:0|0:0,0:0:0:0:
195,14,73477,1,0,0:0:0:0:
260,197,73640,6,0,P|218:200|179:183,1,85,6|0,0:0|0:0,0:0:0:0:
348,100,73966,1,8,0:0:0:0:
312,320,74129,1,0,0:0:0:0:
448,124,74292,1,8,0:0:0:0:
212,168,74455,1,0,0:0:0:0:
408,264,74618,1,8,0:0:0:0:
84,332,74781,1,2,0:0:0:0:
100,340,74863,1,2,0:0:0:0:
116,348,74944,5,8,0:0:0:0:
408,264,75107,2,0,P|366:260|327:277,1,85,8|0,0:0|0:0,0:0:0:0:
131,351,75433,2,0,B|179:372|179:372|295:356,1,170,8|2,0:0|0:0,0:0:0:0:
308,136,75923,2,0,P|269:119|227:123,1,85,8|2,0:0|0:0,0:0:0:0:
168,164,76167,1,2,0:0:0:0:
179,178,76249,6,0,B|199:195|199:195|257:192,1,85,6|0,0:0|0:0,0:0:0:0:
324,56,76575,1,8,0:0:0:0:
356,272,76738,1,0,0:0:0:0:
443,90,76901,1,8,0:0:0:0:
227,122,77064,1,0,0:0:0:0:
356,288,77227,1,8,0:0:0:0:
324,40,77390,1,2,0:0:0:0:
316,24,77471,1,0,0:0:0:0:
308,8,77553,5,8,0:0:0:0:
111,183,77716,2,0,P|149:203|190:198,1,85,8|0,0:0|0:0,0:0:0:0:
492,80,78042,2,0,P|454:60|413:65,1,85,8|0,0:0|0:0,0:0:0:0:
64,312,78368,1,0,0:0:0:0:
356,288,78531,1,0,0:0:0:0:
176,28,78694,1,0,0:0:0:0:
112,184,78857,6,0,P|150:203|192:199,1,85,6|0,0:0|0:0,0:0:0:0:
348,128,79183,2,0,P|307:124|264:152,1,85,0|0,0:0|0:0,0:0:0:0:
292,300,79509,2,0,B|320:332|320:332|324:204,1,170,2|0,0:0|0:0,0:0:0:0:
436,108,79998,2,0,B|408:76|408:76|405:203,1,170,2|0,0:0|0:0,0:0:0:0:
364,280,80487,2,0,P|406:289|446:279,1,85,2|0,0:0|0:0,0:0:0:0:
323,204,80813,1,0,0:0:0:0:
400,360,80976,1,0,0:0:0:0:
492,212,81139,1,2,0:0:0:0:
336,289,81302,1,0,0:0:0:0:
188,204,81465,6,0,B|176:180|176:180|189:123,1,85,6|0,0:0|0:0,0:0:0:0:
332,128,81791,2,0,B|318:150|318:150|262:167,1,85,0|0,0:0|0:0,0:0:0:0:
84,248,82117,2,0,B|136:236|136:236|249:266,1,170,2|0,0:0|0:0,0:0:0:0:
384,159,82606,2,0,B|332:147|332:147|220:177,1,170,2|0,0:0|0:0,0:0:0:0:
325,314,83096,2,0,P|339:273|332:232,1,85,0|0,0:0|0:0,0:0:0:0:
253,90,83422,1,0,0:0:0:0:
249,266,83585,1,2,0:0:0:0:
396,181,83748,1,0,0:0:0:0:
220,177,83911,1,0,0:0:0:0:
437,258,84075,6,0,P|476:208|472:146,1,127.5,10|0,0:0|0:0,0:0:0:0:
493,77,84401,2,0,P|452:76|416:98,1,85,0|0,0:0|0:0,0:0:0:0:
229,145,84727,1,10,0:0:0:0:
313,165,84890,2,0,L|397:180,1,85,0|0,0:0|0:0,0:0:0:0:
285,86,85216,1,0,0:0:0:0:
253,230,85379,6,0,B|257:318|257:318|301:358,1,127.5,10|0,0:0|0:0,0:0:0:0:
333,282,85705,2,0,L|329:194,1,85,0|0,0:0|0:0,0:0:0:0:
170,93,86031,1,10,0:0:0:0:
174,177,86194,2,0,L|178:261,1,85,0|0,0:0|0:0,0:0:0:0:
98,137,86521,1,0,0:0:0:0:
253,230,86684,5,10,0:0:0:0:
37,274,86846,1,0,0:0:0:0:
170,93,87010,1,8,0:0:0:0:
182,345,87173,1,0,0:0:0:0:
101,77,87336,5,8,0:0:0:0:
121,41,87417,1,0,0:0:0:0:
158,22,87499,1,0,0:0:0:0:
200,28,87580,1,0,0:0:0:0:
230,57,87662,1,8,0:0:0:0:
259,86,87744,1,0,0:0:0:0:
300,92,87825,1,0,0:0:0:0:
338,74,87907,1,0,0:0:0:0:
369,42,87988,6,0,B|492:28|492:28|460:68,1,159.375006079674,2|0,0:0|0:0,0:0:0:0:
293,18,88477,5,6,0:0:0:0:
