osu file format v14

[General]
AudioFilename: GAeR9QtiLgLJ.128.mp3
AudioLeadIn: 0
PreviewTime: 123166
Countdown: 0
SampleSet: Soft
StackLeniency: 0.7
Mode: 0
LetterboxInBreaks: 0
WidescreenStoryboard: 1

[Editor]
Bookmarks: 31862,42133,110612,194090,198003,199307
DistanceSpacing: 0.8
BeatDivisor: 4
GridSize: 32
TimelineZoom: 3.099999

[Metadata]
Title:Honey Come!!
TitleUnicode:Honey♥Come!!
Artist:Ogura Yui
ArtistUnicode:小倉唯
Creator:MrSergio
Version:Pick Me!!
Source:城下町のダンデライオン
Tags:Castle Town Joukamachi no Dandelion
BeatmapID:766956
BeatmapSetID:347596

[Difficulty]
HPDrainRate:7
CircleSize:4.5
OverallDifficulty:9.3
ApproachRate:9.3
SliderMultiplier:1.8
SliderTickRate:1

[Events]
//Background and Video events
0,0,"0Pzm8wN.jpg",0,0
//Break Periods
2,194290,197449
//Storyboard Layer 0 (Background)
//Storyboard Layer 1 (Fail)
//Storyboard Layer 2 (Pass)
//Storyboard Layer 3 (Foreground)
//Storyboard Sound Samples

[TimingPoints]
1047,326.086956521739,4,2,1,70,1,0
17025,-125,4,2,1,70,0,0
20612,-100,4,2,1,70,0,0
32351,-133.333333333333,4,2,1,55,0,0
37568,-133.333333333333,4,2,1,60,0,0
40177,-133.333333333333,4,2,1,70,0,0
42786,-133.333333333333,4,2,1,70,0,0
45394,-100,4,2,1,80,0,1
54525,-100,4,2,1,90,0,0
55829,-100,4,2,1,80,0,1
64960,-100,4,2,1,90,0,0
66264,-100,4,2,1,80,0,1
79307,-100,4,2,1,70,0,0
84525,-100,4,2,1,80,0,0
89742,-166.666666666667,4,2,1,60,0,0
94960,-125,4,2,1,70,0,0
98873,-100,4,2,1,70,0,0
110612,-125,4,2,1,60,0,0
115829,-100,4,2,1,70,0,0
118438,-100,4,2,1,75,0,0
121046,-100,4,2,1,80,0,0
123655,-100,4,2,1,80,0,1
132786,-100,4,2,1,90,0,0
134090,-100,4,2,1,80,0,1
143220,-100,4,2,1,90,0,0
144525,-100,4,2,1,80,0,1
157568,-100,4,2,1,80,0,0
169960,-125,4,2,1,70,0,0
186264,-100,4,2,1,80,0,0
188873,-100,4,2,1,80,0,0
198003,-133.333333333333,4,2,1,60,0,0
203220,-133.333333333333,4,2,1,70,0,0
204525,-100,4,2,1,80,0,1
213655,-100,4,2,1,90,0,0
214960,-100,4,2,1,80,0,1
233220,-100,4,2,1,70,0,0
238438,-100,4,2,1,80,0,0
242840,-100,4,2,1,80,0,0

[Colours]
Combo1 : 255,40,40
Combo2 : 255,128,64
Combo3 : 255,255,66
Combo4 : 255,47,151

[HitObjects]
127,224,1047,6,0,P|176:235|223:218,1,90,4|0,0:0|0:0,0:0:0:0:
152,113,1373,2,0,P|103:102|56:119,1,90,2|0,0:0|0:0,0:0:0:0:
284,154,1699,2,0,B|308:163|336:154|336:154|363:186|363:186|410:156|410:156|468:157,1,180,2|0,0:0|0:0,0:0:0:0:
440,157,2188,6,0,P|429:84|316:30,1,180,2|0,0:0|0:0,0:0:0:0:
168,103,2677,1,2,0:0:0:0:
293,104,2840,1,0,0:0:0:0:
211,33,3003,5,0,0:0:0:0:
181,180,3166,1,0,0:0:0:0:
292,118,3329,1,2,0:0:0:0:
262,265,3492,1,0,0:0:0:0:
211,33,3655,6,0,P|168:19|125:30,1,90,4|0,0:0|0:0,0:0:0:0:
125,171,3981,2,0,P|167:183|210:172,1,90,2|0,0:0|0:0,0:0:0:0:
47,127,4307,2,0,B|23:172|39:220|39:220|15:262|15:262|10:329,1,180,2|0,0:0|0:0,0:0:0:0:
12,297,4796,6,0,P|51:257|169:278,1,180,2|0,0:0|0:0,0:0:0:0:
348,282,5286,1,2,0:0:0:0:
261,227,5449,1,0,0:0:0:0:
196,348,5612,5,0,0:0:0:0:
184,201,5775,1,0,0:0:0:0:
281,297,5938,1,2,0:0:0:0:
269,150,6101,1,0,0:0:0:0:
368,363,6264,5,4,0:0:0:0:
176,269,6916,1,4,0:0:0:0:
440,180,7568,5,4,0:0:0:0:
248,86,8220,1,4,0:0:0:0:
176,269,8873,5,0,1:0:0:0:
176,269,9036,1,0,3:0:0:0:
81,185,9199,1,0,1:0:0:0:
81,185,9362,1,0,0:0:0:0:
199,141,9525,1,0,1:0:0:0:
199,141,9688,1,0,0:0:0:0:
296,220,9851,1,0,1:0:0:0:
296,220,10014,1,0,0:0:0:0:
62,298,10177,5,4,0:0:0:0:
102,60,10503,1,4,0:0:0:0:
296,220,10829,1,4,0:0:0:0:
296,220,11155,5,0,1:0:0:0:
256,319,11318,1,0,3:0:0:0:
256,319,11400,1,0,3:0:0:0:
256,319,11481,6,0,L|372:312,1,90,4|0,1:0|0:0,0:0:0:0:
210,231,11807,2,0,L|94:224,1,90,0|0,1:0|0:0,0:0:0:0:
296,220,12133,1,0,1:0:0:0:
147,309,12296,1,0,0:0:0:0:
162,142,12460,1,0,1:0:0:0:
121,321,12623,6,0,B|76:376|76:376|90:268,1,180,2|2,3:2|0:0,0:0:0:0:
145,127,13112,1,0,1:0:0:0:
210,231,13275,1,0,0:0:0:0:
59,247,13438,2,0,L|52:141,1,90,0|0,1:0|1:0,0:0:0:0:
241,222,13764,2,0,L|235:311,1,90,0|2,1:0|0:0,0:0:0:0:
307,107,14090,5,0,1:0:0:0:
360,240,14253,1,0,0:0:0:0:
303,82,14416,1,0,1:0:0:0:
234,199,14579,1,0,0:0:0:0:
300,57,14742,2,0,B|359:44|359:44|387:68|421:68|421:68|454:56|485:62,1,180,0|0,3:0|1:0,0:0:0:0:
465,313,15231,6,0,B|469:284|443:252|443:252|487:198|437:122,1,180,2|2,0:0|0:0,0:0:0:0:
382,317,15720,1,0,1:0:0:0:
380,200,15883,1,0,0:0:0:0:
465,313,16046,1,0,1:0:0:0:
306,357,16210,5,0,3:0:0:0:
306,357,16291,1,0,3:0:0:0:
306,357,16373,2,0,L|198:347,1,90,0|0,1:0|3:0,0:0:0:0:
492,283,16699,1,4,0:0:0:0:
481,296,17025,5,8,0:0:0:0:
457,180,17188,1,8,0:0:0:0:
468,312,17351,1,2,0:0:0:0:
464,162,17514,1,0,1:0:0:0:
341,258,17677,1,8,0:0:0:0:
341,258,18003,5,0,1:0:0:0:
345,78,18166,1,0,1:0:0:0:
240,104,18329,1,8,0:0:0:0:
359,97,18492,1,8,0:0:0:0:
293,212,18655,1,2,0:0:0:0:
373,112,18818,1,0,1:0:0:0:
292,232,18981,1,8,0:0:0:0:
290,255,19307,6,0,L|209:261,1,72,0|0,1:0|0:0,0:0:0:0:
417,234,19633,1,8,0:0:0:0:
289,276,19796,1,8,0:0:0:0:
410,122,19960,1,2,0:0:0:0:
287,297,20123,1,0,3:0:0:0:
420,101,20286,2,0,L|498:105,1,72,8|0,0:0|0:0,0:0:0:0:
225,191,20612,6,0,L|132:186,1,90,0|0,1:0|0:0,0:0:0:0:
70,66,20938,2,0,L|163:61,1,90,0|0,1:0|3:0,0:0:0:0:
180,72,21182,1,0,3:0:0:0:
198,85,21264,1,0,1:0:0:0:
222,240,21427,1,2,0:0:0:0:
202,230,21508,1,2,0:0:0:0:
182,218,21590,5,2,3:2:0:0:
197,250,21671,1,0,3:0:0:0:
211,282,21753,1,0,3:0:0:0:
227,314,21835,1,0,3:0:0:0:
244,345,21916,6,0,L|277:248,1,90,0|0,1:0|0:0,0:0:0:0:
388,152,22242,2,0,L|417:238,1,90,0|0,1:0|0:0,0:0:0:0:
260,111,22568,1,0,3:0:0:0:
353,31,22731,1,0,3:0:0:0:
241,116,22894,1,0,1:0:0:0:
413,116,23057,6,0,P|456:83|484:52,2,90,2|0|2,0:0|0:0|0:0,0:0:0:0:
349,202,23546,2,0,P|356:255|368:295,1,90,0|0,1:0|0:0,0:0:0:0:
366,289,23791,1,0,0:0:0:0:
366,289,23873,1,0,1:0:0:0:
413,116,24036,1,0,1:0:0:0:
305,104,24199,2,0,P|255:96|214:74,1,90,0|0,1:0|3:0,0:0:0:0:
120,214,24525,6,0,L|96:301,1,90,0|0,1:0|0:0,0:0:0:0:
99,114,24851,2,0,L|124:28,1,90,0|0,1:0|0:0,0:0:0:0:
345,198,25177,1,0,1:0:0:0:
246,189,25340,1,0,1:0:0:0:
307,111,25503,1,0,1:0:0:0:
284,275,25666,6,0,B|344:314|398:278|398:278|419:303|483:320,1,180,2|2,0:0|0:0,0:0:0:0:
345,198,26155,1,0,1:0:0:0:
476,227,26318,1,0,0:0:0:0:
330,183,26481,2,0,B|332:85,1,90,0|0,1:0|3:0,0:0:0:0:
307,111,26726,1,0,3:0:0:0:
284,129,26807,2,0,L|191:112,1,90,0|0,1:0|0:0,0:0:0:0:
412,33,27133,5,0,1:0:0:0:
412,33,27296,1,0,1:0:0:0:
476,107,27460,2,0,L|468:202,1,90,8|8,0:0|0:0,0:0:0:0:
351,247,27786,1,0,0:0:0:0:
480,211,27949,1,0,1:0:0:0:
337,232,28112,2,0,L|239:244,1,90,8|0,0:0|0:0,0:0:0:0:
83,164,28438,5,0,1:0:0:0:
83,164,28601,1,0,1:0:0:0:
149,249,28764,2,0,P|199:260|256:235,1,90,8|8,0:0|0:0,0:0:0:0:
338,135,29090,1,0,1:0:0:0:
204,128,29253,1,0,3:0:0:0:
353,254,29416,2,0,P|403:265|460:240,1,90,8|0,0:0|0:0,0:0:0:0:
417,87,29742,6,0,L|330:35,1,90,0|0,1:0|0:0,0:0:0:0:
276,217,30068,2,0,L|354:171,1,90,0|0,1:0|0:0,0:0:0:0:
169,217,30394,1,0,1:0:0:0:
272,102,30557,1,0,1:0:0:0:
148,79,30720,1,0,1:0:0:0:
288,236,30883,1,0,3:0:0:0:
83,157,31046,5,2,1:2:0:0:
224,33,31210,1,0,3:0:0:0:
169,217,31373,1,0,1:0:0:0:
97,43,31536,1,2,0:0:0:0:
97,43,31617,1,2,0:0:0:0:
97,43,31699,1,0,1:0:0:0:
244,158,31862,1,2,0:0:0:0:
266,119,31943,1,2,0:0:0:0:
286,78,32025,5,2,3:2:0:0:
299,101,32106,1,0,3:0:0:0:
313,123,32188,1,0,3:0:0:0:
326,146,32269,1,0,3:0:0:0:
360,157,32351,6,0,L|496:100,1,135.000005149842,2|0,0:0|0:0,0:0:0:0:
488,315,32840,1,2,0:0:0:0:
482,323,32921,1,2,0:0:0:0:
476,331,33003,2,0,L|340:274,1,135.000005149842,2|0,0:0|0:0,0:0:0:0:
92,64,33655,6,0,L|96:162,1,67.5000025749208,2|0,0:3|0:0,0:0:0:0:
176,230,33981,1,0,0:0:0:0:
71,41,34144,2,0,L|75:139,1,67.5000025749208,2|0,0:3|0:0,0:0:0:0:
116,297,34470,1,0,0:0:0:0:
196,146,34633,6,0,L|175:96,2,45.0000017166138,2|0|0,0:0|0:0|0:0,0:0:0:0:
225,158,34960,2,0,P|258:115|216:35,1,135.000005149842,2|0,0:0|0:0,0:0:0:0:
372,127,35449,5,0,0:0:0:0:
395,204,35612,1,2,0:0:0:0:
228,254,35775,1,0,0:0:0:0:
283,195,35938,1,2,0:0:0:0:
412,319,36101,1,0,0:0:0:0:
333,300,36264,5,4,0:0:0:0:
323,294,36916,1,4,0:0:0:0:
283,195,37242,5,0,1:0:0:0:
251,315,37405,1,0,3:0:0:0:
240,336,37487,1,0,3:0:0:0:
228,356,37568,1,4,0:0:0:0:
18,268,37731,5,0,0:0:0:0:
203,195,37894,1,0,1:0:0:0:
103,127,38057,1,0,0:0:0:0:
18,268,38220,2,0,L|43:353,1,67.5000025749208,2|0,0:0|0:0,0:0:0:0:
206,182,38546,5,0,1:0:0:0:
87,128,38709,1,0,0:0:0:0:
23,293,38873,2,0,L|66:358,1,67.5000025749208,2|0,0:0|0:0,0:0:0:0:
210,170,39199,5,0,1:0:0:0:
73,135,39362,1,0,0:0:0:0:
36,321,39525,2,0,L|89:362,1,67.5000025749208,2|0,0:0|0:0,0:0:0:0:
212,157,39851,5,0,1:0:0:0:
241,28,40014,1,0,0:0:0:0:
449,217,40177,6,0,L|468:281,1,67.5000025749208,4|0,1:0|0:0,0:0:0:0:
346,118,40503,2,0,L|373:30,1,67.5000025749208,0|0,1:0|0:0,0:0:0:0:
246,254,40829,2,0,L|273:342,1,67.5000025749208,0|0,1:0|0:0,0:0:0:0:
140,142,41155,2,0,L|167:54,1,67.5000025749208,0|0,1:0|0:0,0:0:0:0:
364,118,41481,5,0,1:0:0:0:
456,258,41644,1,0,1:0:0:0:
205,259,41807,1,0,1:0:0:0:
113,119,41970,1,0,1:0:0:0:
327,254,42133,5,0,1:0:0:0:
309,294,42215,1,0,1:0:0:0:
272,316,42296,1,0,1:0:0:0:
228,323,42378,1,0,1:0:0:0:
188,304,42460,5,0,1:0:0:0:
231,307,42541,1,0,3:0:0:0:
275,308,42623,1,0,3:0:0:0:
318,311,42704,1,0,3:0:0:0:
361,314,42786,5,4,0:0:0:0:
145,111,42949,1,4,0:0:0:0:
351,202,43275,5,4,3:2:0:0:
220,167,43601,1,4,3:2:0:0:
417,60,43927,1,4,3:2:0:0:
432,47,44416,6,0,L|439:205,1,135.000005149842,4|0,0:3|0:0,0:0:0:0:
259,307,44905,5,0,0:0:0:0:
373,251,45068,1,2,0:0:0:0:
148,244,45231,1,0,0:0:0:0:
270,321,45394,6,0,L|379:333,1,90,4|0,3:2|0:0,0:0:0:0:
439,152,45720,2,0,L|349:161,1,90,0|0,1:0|0:0,0:0:0:0:
373,251,46046,1,0,3:0:0:0:
286,86,46210,1,0,0:0:0:0:
224,256,46373,1,0,1:0:0:0:
321,170,46536,6,0,P|361:159|430:182,1,90,0|0,0:0|3:0,0:0:0:0:
174,155,46862,2,0,P|145:124|133:53,1,90,0|0,0:0|1:0,0:0:0:0:
242,283,47188,2,0,P|253:323|230:392,1,90,0|0,0:0|3:0,0:0:0:0:
437,181,47514,5,0,0:0:0:0:
286,86,47677,1,0,1:0:0:0:
343,248,47840,1,0,0:0:0:0:
265,75,48003,6,0,L|168:89,1,90,4|0,3:2|0:0,0:0:0:0:
55,192,48329,2,0,L|152:206,1,90,0|0,1:0|0:0,0:0:0:0:
290,171,48655,1,0,3:0:0:0:
145,205,48818,1,0,0:0:0:0:
265,75,48981,1,0,1:0:0:0:
298,279,49144,6,0,P|333:308|387:315,1,90,0|0,0:0|3:0,0:0:0:0:
145,205,49470,2,0,P|129:253|143:318,1,90,0|0,0:0|1:0,0:0:0:0:
139,69,49796,1,0,0:0:0:0:
365,148,49960,5,2,0:0:0:0:
265,75,50123,1,0,3:0:0:0:
265,75,50204,1,0,3:0:0:0:
265,75,50286,1,0,1:0:0:0:
120,282,50449,1,0,3:0:0:0:
120,282,50530,1,0,0:0:0:0:
120,282,50612,6,0,P|162:336|214:357,1,90,2|0,0:0|0:0,0:0:0:0:
315,273,50939,2,0,P|264:268|223:235,1,90,0|0,1:0|0:0,0:0:0:0:
307,161,51265,2,0,P|363:167|417:151,1,90,0|0,3:0|0:0,0:0:0:0:
439,19,51591,2,0,P|399:50|347:59,1,90,0|0,1:0|0:0,0:0:0:0:
168,187,51916,5,0,3:0:0:0:
376,137,52079,1,0,0:0:0:0:
234,258,52242,1,0,1:0:0:0:
376,137,52405,1,0,0:0:0:0:
154,191,52568,5,0,3:0:0:0:
180,33,52731,1,0,0:0:0:0:
154,191,52894,1,0,1:0:0:0:
292,47,53057,1,0,0:0:0:0:
292,47,53220,6,0,B|289:146,1,90,0|0,3:2|0:0,0:0:0:0:
154,191,53546,2,0,B|157:92,1,90,0|0,1:0|0:0,0:0:0:0:
156,101,53791,1,0,0:0:0:0:
156,101,53873,5,0,1:0:0:0:
366,196,54036,1,0,1:0:0:0:
451,101,54199,1,0,1:0:0:0:
252,40,54362,1,0,3:0:0:0:
252,40,54443,1,0,3:0:0:0:
252,40,54525,5,0,1:0:0:0:
292,232,54688,1,0,1:0:0:0:
319,129,54851,1,0,3:0:0:0:
348,320,55014,1,0,1:0:0:0:
355,330,55340,5,0,0:0:0:0:
251,213,55503,1,2,0:0:0:0:
399,98,55666,1,0,0:0:0:0:
441,351,55829,6,0,L|254:353,1,180,4|0,3:2|1:0,0:0:0:0:
276,188,56318,1,0,0:0:0:0:
242,343,56481,1,0,3:0:0:0:
235,91,56644,1,0,0:0:0:0:
196,252,56807,1,0,1:0:0:0:
397,269,56970,6,0,B|434:269|434:269|454:276|454:276|485:278,1,90,0|0,0:0|3:0,0:0:0:0:
401,111,57296,2,0,B|369:108|369:108|349:102|349:102|312:101,1,90,0|0,0:0|1:0,0:0:0:0:
170,192,57623,2,0,B|204:193|204:193|227:202|227:202|279:204,1,90,0|0,0:0|3:0,0:0:0:0:
162,54,57949,5,0,0:0:0:0:
63,205,58112,1,0,1:0:0:0:
268,217,58275,1,0,0:0:0:0:
88,26,58438,2,0,B|67:59|92:94|92:94|84:126|84:126|104:160|82:198,1,180,4|0,3:2|1:0,0:0:0:0:
279,180,58927,5,0,0:0:0:0:
60,319,59090,1,0,3:0:0:0:
264,301,59253,1,0,0:0:0:0:
82,196,59416,1,0,1:0:0:0:
284,312,59579,2,0,L|379:313,1,90,0|0,0:0|3:0,0:0:0:0:
290,162,59905,2,0,L|195:163,1,90,0|0,0:0|1:0,0:0:0:0:
445,366,60231,5,0,0:0:0:0:
284,312,60394,1,2,0:0:0:0:
398,243,60557,1,0,3:0:0:0:
398,243,60639,1,0,3:0:0:0:
398,243,60721,1,0,1:0:0:0:
350,124,60883,1,0,3:0:0:0:
319,305,61046,6,0,P|277:359|225:380,1,90,2|0,0:0|0:0,0:0:0:0:
124,296,61373,2,0,P|175:291|216:258,1,90,0|0,1:0|0:0,0:0:0:0:
132,184,61699,2,0,P|76:190|22:174,1,90,0|0,3:0|0:0,0:0:0:0:
0,42,62025,2,0,P|40:73|92:82,1,90,0|0,1:0|0:0,0:0:0:0:
192,26,62351,5,0,3:0:0:0:
295,77,62514,1,0,0:0:0:0:
215,155,62677,1,0,1:0:0:0:
318,206,62840,1,0,0:0:0:0:
310,61,63003,5,0,3:0:0:0:
327,238,63166,1,0,0:0:0:0:
429,132,63329,1,0,1:0:0:0:
197,163,63492,1,0,0:0:0:0:
284,337,63655,6,0,L|365:281,1,90,0|0,3:2|0:0,0:0:0:0:
159,177,63981,2,0,L|178:291,1,90,0|0,1:0|0:0,0:0:0:0:
357,165,64307,2,0,L|288:108,1,90,0|0,1:0|3:0,0:0:0:0:
288,108,64552,1,0,0:0:0:0:
288,108,64633,1,0,1:0:0:0:
396,67,64796,1,0,3:0:0:0:
421,47,64878,1,0,3:0:0:0:
446,27,64960,5,0,1:0:0:0:
199,109,65123,1,0,1:0:0:0:
350,168,65286,1,0,3:0:0:0:
153,210,65449,1,0,1:0:0:0:
140,222,65775,5,0,0:0:0:0:
199,109,65938,1,2,0:0:0:0:
350,168,66101,1,0,0:0:0:0:
111,307,66264,6,0,L|118:109,1,180,4|0,3:2|1:0,0:0:0:0:
356,168,66753,1,0,0:0:0:0:
384,34,66916,1,0,3:0:0:0:
270,139,67079,1,0,0:0:0:0:
317,270,67242,1,0,1:0:0:0:
416,109,67405,6,0,P|460:89|506:92,1,90,0|0,0:0|3:0,0:0:0:0:
288,207,67731,2,0,P|244:227|198:224,1,90,0|0,0:0|1:0,0:0:0:0:
480,183,68057,2,0,L|476:294,1,90,0|0,0:0|3:0,0:0:0:0:
303,189,68383,5,0,0:0:0:0:
471,166,68546,1,0,1:0:0:0:
296,166,68710,1,0,0:0:0:0:
477,303,68873,6,0,L|497:120,1,180,4|0,3:2|1:0,0:0:0:0:
329,41,69362,1,0,0:0:0:0:
221,230,69525,1,0,3:0:0:0:
239,90,69688,1,0,0:0:0:0:
291,309,69851,1,0,1:0:0:0:
132,220,70014,6,0,P|122:177|134:134,1,90,0|0,0:0|3:0,0:0:0:0:
387,123,70340,2,0,P|397:166|386:210,1,90,0|0,0:0|1:0,0:0:0:0:
217,333,70666,1,0,0:0:0:0:
217,158,70829,1,2,0:0:0:0:
303,253,70992,1,0,0:0:0:0:
303,78,71155,1,0,1:0:0:0:
156,215,71318,5,0,0:0:0:0:
313,338,71481,2,0,L|333:238,2,90,2|0|0,0:0|0:0|1:0,0:0:0:0:
156,215,71970,1,0,0:0:0:0:
347,226,72133,2,0,L|453:246,2,90,2|0|0,0:0|0:0|1:0,0:0:0:0:
156,215,72622,5,0,0:0:0:0:
347,158,72786,2,0,L|453:138,2,90,2|0|0,0:0|0:0|1:0,0:0:0:0:
156,215,73275,1,0,0:0:0:0:
331,134,73438,2,0,L|313:46,2,90,2|0|0,0:0|0:0|1:0,0:0:0:0:
155,189,73927,1,0,1:0:0:0:
261,262,74090,5,0,1:0:0:0:
226,81,74253,1,0,3:0:0:0:
332,154,74416,1,0,1:0:0:0:
155,189,74579,1,0,3:0:0:0:
347,238,74742,5,0,1:0:0:0:
119,99,74905,1,0,1:0:0:0:
161,287,75068,1,0,1:0:0:0:
243,173,75231,1,0,3:0:0:0:
262,148,75313,1,0,3:0:0:0:
280,122,75394,1,0,1:0:0:0:
245,23,75557,5,0,1:0:0:0:
258,22,75883,2,0,L|229:207,1,180,4|0,0:0|3:0,0:0:0:0:
323,104,76373,1,0,1:0:0:0:
383,269,76536,1,0,3:0:0:0:
396,297,76617,1,0,3:0:0:0:
409,325,76699,5,0,1:0:0:0:
456,185,76862,1,0,3:0:0:0:
268,251,77025,1,0,1:0:0:0:
490,281,77188,1,0,3:0:0:0:
340,168,77351,5,0,1:0:0:0:
377,331,77514,1,0,1:0:0:0:
486,150,77677,1,0,3:0:0:0:
383,335,77840,1,0,3:0:0:0:
353,314,77921,1,0,3:0:0:0:
332,283,78003,2,0,L|305:218,1,45,0|0,1:0|0:0,0:0:0:0:
261,113,78166,5,0,1:0:0:0:
270,106,78492,2,0,L|261:202,1,90,4|0,0:0|0:0,0:0:0:0:
315,14,78818,5,0,0:0:0:0:
415,78,78981,1,2,0:0:0:0:
225,26,79144,1,0,0:0:0:0:
473,149,79307,6,0,L|457:243,1,90,4|0,3:2|0:0,0:0:0:0:
389,357,79633,2,0,L|373:268,1,90,2|0,0:0|0:0,0:0:0:0:
312,134,79960,2,0,B|283:172|297:220|297:220|229:153,1,180,2|0,0:0|0:0,0:0:0:0:
233,157,80449,1,2,0:0:0:0:
387,185,80612,5,0,0:0:0:0:
466,298,80775,1,0,0:0:0:0:
370,170,80938,1,2,0:0:0:0:
494,228,81101,1,0,0:0:0:0:
352,155,81264,5,0,0:0:0:0:
287,315,81427,1,0,0:0:0:0:
315,71,81590,1,2,0:0:0:0:
250,231,81753,1,0,0:0:0:0:
406,78,81916,6,0,P|457:86|497:115,1,90,4|0,0:0|0:0,0:0:0:0:
249,127,82242,2,0,P|230:78|235:29,1,90,2|0,0:0|0:0,0:0:0:0:
377,222,82568,2,0,P|344:262|197:286,1,180,2|0,0:0|0:0,0:0:0:0:
224,294,83057,1,2,0:0:0:0:
118,196,83220,6,0,L|106:302,1,90,0|0,0:0|0:0,0:0:0:0:
83,90,83546,2,0,L|95:196,1,90,2|0,0:0|0:0,0:0:0:0:
195,94,83873,6,0,L|106:82,1,90,0|0,0:0|0:0,0:0:0:0:
308,105,84199,2,0,L|218:117,1,90,2|0,0:0|0:0,0:0:0:0:
257,23,84525,5,4,0:0:0:0:
449,117,85177,1,4,0:0:0:0:
185,206,85829,5,4,0:0:0:0:
377,300,86481,1,4,0:0:0:0:
185,206,87133,5,0,1:0:0:0:
185,206,87296,1,0,3:0:0:0:
296,169,87460,1,0,1:0:0:0:
296,169,87623,1,0,0:0:0:0:
97,108,87786,1,0,1:0:0:0:
97,108,87949,1,0,0:0:0:0:
219,73,88113,1,0,1:0:0:0:
219,73,88276,1,0,0:0:0:0:
82,202,88438,5,4,0:0:0:0:
266,280,88764,1,4,0:0:0:0:
453,352,89090,1,4,0:0:0:0:
312,209,89416,5,0,1:0:0:0:
348,304,89579,1,0,3:0:0:0:
351,317,89661,1,0,3:0:0:0:
354,330,89742,6,0,L|389:286,1,53.9999983520508,2|0,0:0|0:0,0:0:0:0:
332,157,90068,2,0,L|298:199,1,53.9999983520508,2|0,0:0|0:0,0:0:0:0:
471,123,90394,2,0,P|479:93|474:60,1,53.9999983520508,2|0,0:0|0:0,0:0:0:0:
466,62,90883,6,0,L|354:71,1,107.999996704102,2|0,0:0|0:0,0:0:0:0:
266,118,91373,1,2,0:0:0:0:
333,186,91536,1,0,0:0:0:0:
192,257,91699,5,2,0:0:0:0:
192,257,92025,1,0,0:0:0:0:
77,78,92351,6,0,P|66:111|71:142,1,53.9999983520508,2|0,0:0|0:0,0:0:0:0:
179,234,92677,2,0,P|190:201|185:170,1,53.9999983520508,2|0,0:0|0:0,0:0:0:0:
48,286,93003,2,0,L|63:344,1,53.9999983520508,2|0,0:0|0:0,0:0:0:0:
79,350,93492,6,0,P|139:337|196:356,1,107.999996704102,2|0,0:0|0:0,0:0:0:0:
266,215,93981,1,2,0:0:0:0:
202,339,94144,1,0,0:0:0:0:
337,333,94307,2,0,L|402:325,1,53.9999983520508,2|0,0:0|3:0,0:0:0:0:
403,330,94552,1,0,3:0:0:0:
415,334,94633,1,0,1:0:0:0:
444,186,94796,1,0,3:0:0:0:
431,191,94878,1,0,3:0:0:0:
419,195,94960,6,0,L|331:171,1,72,4|0,1:0|1:0,0:0:0:0:
328,68,95286,1,8,0:0:0:0:
235,186,95449,1,8,0:0:0:0:
394,192,95612,1,0,0:0:0:0:
326,53,95775,1,0,1:0:0:0:
403,206,95938,1,8,0:0:0:0:
305,304,96264,6,0,L|386:305,1,72,4|0,1:0|0:0,0:0:0:0:
155,330,96590,1,8,0:0:0:0:
202,180,96753,1,8,0:0:0:0:
143,344,96916,1,0,0:0:0:0:
188,193,97079,1,0,1:0:0:0:
317,310,97242,1,8,0:0:0:0:
326,157,97568,6,0,L|316:68,1,72,4|0,1:0|0:0,0:0:0:0:
214,170,97894,1,8,0:0:0:0:
345,179,98057,1,8,0:0:0:0:
201,180,98220,1,0,0:0:0:0:
305,65,98383,1,0,1:0:0:0:
188,193,98546,1,8,0:0:0:0:
178,204,98873,6,0,L|186:298,1,90,4|0,1:0|0:0,0:0:0:0:
343,252,99199,2,0,L|351:346,1,90,0|0,1:0|3:0,0:0:0:0:
370,351,99443,1,0,3:0:0:0:
390,360,99525,1,4,1:0:0:0:
461,187,99688,1,2,0:0:0:0:
449,205,99769,1,2,0:0:0:0:
435,224,99851,5,2,3:2:0:0:
402,195,99932,1,0,3:0:0:0:
369,163,100014,1,0,3:0:0:0:
336,130,100095,1,0,3:0:0:0:
301,99,100177,6,0,L|226:149,1,90,0|0,1:0|0:0,0:0:0:0:
36,191,100503,2,0,L|110:241,1,90,0|0,1:0|0:0,0:0:0:0:
227,149,100829,1,0,1:0:0:0:
110,241,100992,1,0,1:0:0:0:
153,73,101155,1,0,3:0:0:0:
227,149,101318,6,0,B|268:171|312:157|312:157|357:142|401:166,1,180,0|2,1:0|0:0,0:0:0:0:
227,232,101807,2,0,P|184:222|152:192,1,90,0|0,1:0|0:0,0:0:0:0:
152,192,102052,1,0,0:0:0:0:
152,192,102133,1,0,1:0:0:0:
279,78,102296,1,0,1:0:0:0:
373,236,102460,2,0,P|417:242|459:225,1,90,0|0,1:0|0:0,0:0:0:0:
451,56,102786,5,0,1:0:0:0:
390,309,103112,1,0,1:0:0:0:
199,130,103438,1,0,1:0:0:0:
280,172,103601,1,0,1:0:0:0:
205,39,103764,1,0,1:0:0:0:
116,175,103927,6,0,B|56:274|56:274|60:209,1,180,2|2,0:0|0:0,0:0:0:0:
326,88,104416,1,0,1:0:0:0:
116,175,104579,1,0,0:0:0:0:
229,29,104742,1,0,1:0:0:0:
280,172,104905,1,0,3:0:0:0:
280,172,104987,1,0,3:0:0:0:
280,172,105068,2,0,P|322:183|378:165,1,90,0|0,1:0|0:0,0:0:0:0:
254,321,105394,5,4,1:0:0:0:
254,321,105557,1,0,1:0:0:0:
104,312,105720,1,10,0:0:0:0:
190,200,105883,1,8,0:0:0:0:
262,332,106046,2,0,L|363:334,1,90,0|0,0:0|1:0,0:0:0:0:
104,312,106373,1,8,0:0:0:0:
183,183,106699,5,4,1:0:0:0:
183,183,106862,1,0,1:0:0:0:
145,49,107025,1,10,0:0:0:0:
301,84,107188,1,8,0:0:0:0:
171,197,107351,2,0,L|73:203,1,90,0|0,1:0|3:0,0:0:0:0:
301,84,107677,1,8,0:0:0:0:
301,84,108003,6,0,P|304:129|279:179,1,90,0|0,1:0|0:0,0:0:0:0:
321,324,108329,2,0,P|280:304|249:257,1,90,0|0,1:0|0:0,0:0:0:0:
89,227,108655,2,0,P|126:201|180:201,2,90,0|0|0,1:0|1:0|1:0,0:0:0:0:
157,289,109144,1,0,3:0:0:0:
249,160,109307,5,4,1:0:0:0:
321,324,109470,1,0,3:0:0:0:
139,296,109633,1,0,1:0:0:0:
346,183,109796,1,2,0:0:0:0:
367,159,109878,1,2,0:0:0:0:
388,136,109960,1,0,1:0:0:0:
253,266,110123,1,2,0:0:0:0:
229,293,110204,1,2,0:0:0:0:
206,321,110286,5,2,3:2:0:0:
163,299,110367,1,0,3:0:0:0:
123,269,110449,1,0,3:0:0:0:
81,296,110530,1,0,3:0:0:0:
37,322,110612,6,0,L|79:157,1,144,2|0,0:0|0:0,0:0:0:0:
229,261,111101,1,2,0:0:0:0:
242,264,111182,1,2,0:0:0:0:
253,266,111264,2,0,L|295:101,1,144,2|0,0:0|0:0,0:0:0:0:
76,69,111916,6,0,L|161:53,1,72,2|0,0:3|0:0,0:0:0:0:
288,126,112242,1,0,0:0:0:0:
41,47,112405,2,0,L|126:31,1,72,2|0,0:3|0:0,0:0:0:0:
288,126,112731,1,0,0:0:0:0:
135,190,112894,6,0,L|78:199,2,48,2|0|0,0:0|0:0|0:0,0:0:0:0:
160,217,113220,2,0,L|313:201,1,144,2|0,0:0|0:0,0:0:0:0:
375,76,113710,5,0,0:0:0:0:
310,232,113873,1,2,0:0:0:0:
437,163,114036,1,0,0:0:0:0:
318,265,114199,1,2,0:0:0:0:
476,263,114362,1,0,0:0:0:0:
326,294,114525,5,4,0:0:0:0:
328,308,115177,1,4,0:0:0:0:
412,312,115503,5,0,1:0:0:0:
254,338,115666,1,0,3:0:0:0:
232,342,115748,1,0,3:0:0:0:
211,347,115829,1,4,0:0:0:0:
258,202,115992,5,0,0:0:0:0:
254,338,116155,1,0,1:0:0:0:
176,150,116318,1,0,0:0:0:0:
317,277,116481,2,0,P|372:289|417:273,1,90,2|0,0:0|0:0,0:0:0:0:
219,314,116807,5,0,1:0:0:0:
265,169,116970,1,0,0:0:0:0:
137,346,117133,2,0,P|83:353|39:337,1,90,2|0,0:0|0:0,0:0:0:0:
233,288,117460,5,0,1:0:0:0:
267,138,117623,1,0,0:0:0:0:
316,323,117786,2,0,P|359:333|403:323,1,90,2|0,0:0|0:0,0:0:0:0:
245,267,118112,5,0,1:0:0:0:
268,107,118275,1,0,0:0:0:0:
135,293,118438,6,0,P|85:295|43:273,1,90,0|0,1:0|0:0,0:0:0:0:
127,150,118764,2,0,P|100:107|98:60,1,90,0|0,1:0|0:0,0:0:0:0:
258,82,119090,2,0,P|281:37|321:12,1,90,0|0,1:0|0:0,0:0:0:0:
403,145,119416,2,0,P|452:143|495:164,1,90,0|0,1:0|0:0,0:0:0:0:
200,186,119742,5,0,1:0:0:0:
384,138,119905,1,0,1:0:0:0:
168,92,120068,1,0,1:0:0:0:
416,232,120231,1,0,1:0:0:0:
128,264,120394,5,0,1:0:0:0:
115,239,120476,1,0,1:0:0:0:
103,214,120557,1,0,1:0:0:0:
88,256,120639,1,0,1:0:0:0:
75,298,120720,1,0,1:0:0:0:
61,341,120802,1,0,1:0:0:0:
45,382,120883,5,0,3:0:0:0:
68,120,121046,1,4,0:0:0:0:
128,264,121210,5,4,0:0:0:0:
139,49,121536,1,4,3:2:0:0:
216,282,121862,1,4,3:2:0:0:
374,115,122188,1,4,3:2:0:0:
395,95,122677,6,0,L|207:126,1,180,4|0,0:3|0:0,0:0:0:0:
145,37,123166,5,0,0:0:0:0:
27,207,123329,1,2,0:0:0:0:
217,124,123492,1,0,0:0:0:0:
175,294,123655,6,0,P|132:304|90:291,1,90,4|0,3:2|0:0,0:0:0:0:
277,196,123981,2,0,P|320:186|363:200,1,90,0|0,1:0|0:0,0:0:0:0:
175,294,124307,1,0,3:0:0:0:
277,196,124470,1,0,0:0:0:0:
339,313,124633,1,0,1:0:0:0:
110,213,124796,6,0,L|81:129,1,90,0|0,0:0|3:0,0:0:0:0:
314,139,125122,2,0,L|269:217,1,90,0|0,0:0|1:0,0:0:0:0:
148,18,125448,2,0,L|238:21,2,90,0|0|0,0:0|3:0|0:0,0:0:0:0:
65,175,125938,5,0,1:0:0:0:
148,18,126101,1,0,0:0:0:0:
168,212,126264,2,0,L|268:221,1,90,4|0,3:2|0:0,0:0:0:0:
95,353,126590,2,0,L|-5:362,1,90,0|0,1:0|0:0,0:0:0:0:
368,324,126916,1,0,3:0:0:0:
172,276,127079,1,0,0:0:0:0:
295,159,127242,1,0,1:0:0:0:
86,319,127405,6,0,P|77:275|88:231,1,90,0|0,0:0|3:0,0:0:0:0:
336,240,127731,2,0,P|302:269|259:281,1,90,0|0,0:0|1:0,0:0:0:0:
130,72,128057,1,0,0:0:0:0:
191,215,128220,1,2,0:0:0:0:
124,44,128383,1,0,3:0:0:0:
124,44,128465,1,0,3:0:0:0:
124,44,128546,1,0,1:0:0:0:
154,224,128710,1,0,3:0:0:0:
159,250,128791,1,0,0:0:0:0:
164,276,128873,6,0,L|246:311,1,90,0|0,3:0|0:0,0:0:0:0:
445,206,129199,2,0,L|363:241,1,90,0|0,1:0|0:0,0:0:0:0:
166,147,129525,2,0,L|248:182,1,90,0|0,3:0|0:0,0:0:0:0:
447,77,129851,2,0,L|365:112,1,90,0|0,1:0|0:0,0:0:0:0:
248,182,130177,5,0,3:0:0:0:
364,112,130340,1,0,0:0:0:0:
234,216,130503,1,0,1:0:0:0:
372,77,130666,1,0,0:0:0:0:
222,248,130829,5,0,3:0:0:0:
170,124,130992,1,0,0:0:0:0:
305,277,131155,1,0,1:0:0:0:
81,92,131318,1,0,0:0:0:0:
81,92,131481,6,0,P|92:140|75:204,1,90,0|0,3:2|0:0,0:0:0:0:
175,345,131807,2,0,P|164:297|181:233,1,90,0|0,1:0|0:0,0:0:0:0:
170,257,132052,1,0,0:0:0:0:
170,257,132133,5,0,1:0:0:0:
8,140,132296,1,0,1:0:0:0:
254,296,132460,1,0,1:0:0:0:
52,303,132623,1,0,3:0:0:0:
52,303,132704,1,0,3:0:0:0:
52,303,132786,5,0,1:0:0:0:
164,157,132949,1,0,1:0:0:0:
292,269,133112,1,0,3:0:0:0:
404,123,133275,1,0,1:0:0:0:
418,115,133601,5,0,0:0:0:0:
323,204,133764,1,2,0:0:0:0:
445,311,133927,1,0,0:0:0:0:
509,84,134090,2,0,L|308:106,1,180,4|0,3:2|1:0,0:0:0:0:
292,269,134579,5,0,0:0:0:0:
204,193,134742,1,0,3:0:0:0:
287,370,134905,1,0,0:0:0:0:
190,170,135068,1,0,1:0:0:0:
374,320,135231,6,0,B|418:331|418:331|468:324,1,90,0|0,0:0|3:0,0:0:0:0:
381,177,135557,2,0,B|337:166|337:166|292:172,1,90,0|0,0:0|1:0,0:0:0:0:
111,293,135883,2,0,L|223:275,1,90,0|0,0:0|3:0,0:0:0:0:
79,60,136210,5,0,0:0:0:0:
190,170,136373,1,0,1:0:0:0:
194,15,136536,1,0,0:0:0:0:
200,200,136699,2,0,B|232:230|274:214|274:214|314:226|314:226|339:209|373:210,1,180,4|0,3:2|1:0,0:0:0:0:
249,137,137188,5,0,0:0:0:0:
370,295,137351,1,0,3:0:0:0:
225,296,137514,1,0,0:0:0:0:
380,142,137677,1,0,1:0:0:0:
205,306,137840,2,0,P|148:296|119:268,1,90,0|0,0:0|3:0,0:0:0:0:
370,295,138166,2,0,P|389:349|380:388,1,90,0|0,0:0|1:0,0:0:0:0:
281,161,138492,5,0,0:0:0:0:
370,295,138655,1,2,0:0:0:0:
435,132,138818,1,0,3:0:0:0:
435,132,138900,1,0,3:0:0:0:
435,132,138981,1,0,1:0:0:0:
332,8,139144,1,0,3:0:0:0:
385,212,139307,6,0,P|405:256|454:280,1,90,2|0,0:0|0:0,0:0:0:0:
277,248,139633,2,0,P|271:191|296:138,1,90,0|0,1:0|0:0,0:0:0:0:
252,57,139960,2,0,P|203:73|174:115,1,90,0|0,3:0|0:0,0:0:0:0:
400,153,140286,2,0,P|449:137|478:95,1,90,0|0,1:0|0:0,0:0:0:0:
249,189,140612,5,0,3:0:0:0:
388,133,140775,1,0,0:0:0:0:
209,100,140938,1,0,1:0:0:0:
345,49,141101,1,0,0:0:0:0:
248,209,141264,5,0,3:0:0:0:
400,153,141427,1,0,0:0:0:0:
344,11,141590,1,0,1:0:0:0:
240,225,141753,1,0,0:0:0:0:
62,133,141916,6,0,L|72:44,1,90,0|0,3:2|0:0,0:0:0:0:
231,245,142242,2,0,L|222:335,1,90,0|0,1:0|0:0,0:0:0:0:
446,153,142568,1,0,1:0:0:0:
239,127,142731,1,0,3:0:0:0:
239,127,142813,1,0,3:0:0:0:
239,127,142894,1,0,1:0:0:0:
362,325,143057,1,0,3:0:0:0:
362,325,143139,1,0,3:0:0:0:
362,325,143220,5,0,1:0:0:0:
313,184,143383,1,0,1:0:0:0:
391,47,143546,1,0,3:0:0:0:
362,325,143710,1,0,1:0:0:0:
373,340,144036,5,0,0:0:0:0:
200,253,144199,1,2,0:0:0:0:
339,153,144362,1,0,0:0:0:0:
180,347,144525,2,0,P|114:298|132:186,1,180,4|0,3:2|1:0,0:0:0:0:
200,253,145014,5,0,0:0:0:0:
202,109,145177,1,0,3:0:0:0:
266,320,145340,1,0,0:0:0:0:
63,274,145503,1,0,1:0:0:0:
270,181,145666,2,0,L|387:206,1,90,0|0,0:0|3:0,0:0:0:0:
266,320,145992,2,0,L|177:338,1,90,0|0,0:0|1:0,0:0:0:0:
357,65,146318,2,0,L|445:46,1,90,0|0,0:0|3:0,0:0:0:0:
270,181,146644,5,0,0:0:0:0:
182,39,146807,1,0,1:0:0:0:
357,65,146970,1,0,0:0:0:0:
288,277,147133,2,0,P|206:255|181:145,1,180,4|0,3:2|1:0,0:0:0:0:
270,181,147623,5,0,0:0:0:0:
149,321,147786,2,0,L|49:332,2,90,0|0|0,3:0|0:0|1:0,0:0:0:0:
356,215,148275,2,0,P|361:166|338:118,1,90,0|0,0:0|3:0,0:0:0:0:
194,246,148601,2,0,P|233:274|287:278,1,90,0|0,0:0|1:0,0:0:0:0:
249,91,148927,1,0,0:0:0:0:
194,246,149090,1,2,3:2:0:0:
332,72,149253,1,0,0:0:0:0:
130,186,149416,1,0,1:0:0:0:
356,215,149579,5,0,0:0:0:0:
199,338,149742,2,0,L|179:238,2,90,2|0|0,0:0|0:0|1:0,0:0:0:0:
356,215,150231,1,0,0:0:0:0:
165,226,150394,2,0,L|59:246,2,90,2|0|0,0:0|0:0|1:0,0:0:0:0:
356,215,150883,5,0,0:0:0:0:
165,158,151046,2,0,L|59:138,2,90,2|0|0,0:0|0:0|1:0,0:0:0:0:
356,215,151536,1,0,0:0:0:0:
181,134,151699,2,0,L|199:46,2,90,2|0|0,0:0|0:0|1:0,0:0:0:0:
181,134,152188,1,0,1:0:0:0:
390,107,152351,5,0,1:0:0:0:
175,159,152514,1,0,3:0:0:0:
426,302,152677,1,0,1:0:0:0:
211,354,152840,1,0,3:0:0:0:
260,66,153003,5,0,1:0:0:0:
122,273,153166,1,0,1:0:0:0:
301,245,153329,1,0,1:0:0:0:
66,82,153492,1,0,3:0:0:0:
41,61,153574,1,0,3:0:0:0:
18,38,153655,1,0,1:0:0:0:
181,157,153818,5,0,1:0:0:0:
199,179,154144,2,0,L|219:0,1,180,4|0,0:0|3:0,0:0:0:0:
122,133,154633,1,0,1:0:0:0:
296,87,154796,1,0,3:0:0:0:
326,77,154878,1,0,3:0:0:0:
355,66,154960,5,0,1:0:0:0:
325,258,155123,1,0,3:0:0:0:
417,126,155286,1,0,1:0:0:0:
392,317,155449,5,0,3:0:0:0:
205,253,155612,1,0,1:0:0:0:
407,206,155775,1,0,1:0:0:0:
225,150,155938,1,0,3:0:0:0:
409,336,156101,1,0,3:0:0:0:
379,347,156182,1,0,3:0:0:0:
348,356,156264,2,0,L|276:350,1,45,0|0,1:0|0:0,0:0:0:0:
205,253,156427,5,0,1:0:0:0:
192,239,156753,2,0,L|186:344,1,90,4|0,0:0|0:0,0:0:0:0:
225,150,157079,5,0,0:0:0:0:
246,41,157242,1,2,0:0:0:0:
305,238,157405,1,0,0:0:0:0:
326,129,157568,6,0,P|342:90|327:41,1,90,4|0,3:2|0:0,0:0:0:0:
155,156,157894,2,0,P|156:199|192:239,1,90,0|0,1:0|0:0,0:0:0:0:
355,348,158220,2,0,L|395:257,2,90,0|0|0,3:0|0:0|1:0,0:0:0:0:
446,160,158710,5,2,0:0:0:0:
446,160,158791,1,2,0:0:0:0:
446,160,158873,2,0,P|447:114|425:69,1,90,2|0,3:2|0:0,0:0:0:0:
184,109,159199,2,0,P|217:131|273:136,1,90,0|0,1:0|0:0,0:0:0:0:
113,323,159525,1,0,3:0:0:0:
66,186,159688,5,8,0:0:0:0:
223,333,159851,1,8,0:0:0:0:
208,218,160014,5,2,0:0:0:0:
208,218,160095,1,2,0:0:0:0:
208,218,160177,2,0,P|257:205|305:224,1,90,2|0,3:2|0:0,0:0:0:0:
113,323,160503,2,0,P|64:336|16:316,1,90,0|0,1:0|0:0,0:0:0:0:
66,186,160829,5,0,3:0:0:0:
66,186,160992,1,0,0:0:0:0:
251,321,161155,1,0,1:0:0:0:
251,321,161318,1,0,0:0:0:0:
436,193,161481,6,0,P|446:147|437:93,2,90,2|0|0,3:2|0:0|1:0,0:0:0:0:
387,316,161970,1,2,0:0:0:0:
371,343,162052,1,2,0:0:0:0:
355,370,162133,1,2,3:2:0:0:
301,180,162296,2,0,L|287:124,2,45,0|0|0,0:0|0:0|3:0,0:0:0:0:
193,324,162623,5,2,0:0:0:0:
166,293,162704,1,2,0:0:0:0:
141,260,162786,2,0,L|43:271,1,90,2|0,3:2|0:0,0:0:0:0:
167,224,163112,2,0,L|256:213,1,90,0|0,1:0|0:0,0:0:0:0:
464,158,163438,2,0,L|283:181,1,180,0|0,3:0|1:0,0:0:0:0:
51,165,163927,5,0,0:0:0:0:
28,131,164008,1,0,0:0:0:0:
10,94,164090,2,0,B|16:45|16:45|45:11,1,90,2|0,3:2|0:0,0:0:0:0:
261,107,164416,2,0,B|221:107|221:107|180:134,1,90,0|0,1:0|0:0,0:0:0:0:
298,238,164742,2,0,B|345:252|345:252|373:286,1,90,0|0,3:0|0:3,0:0:0:0:
82,324,165068,5,0,1:0:0:0:
183,214,165231,1,0,0:0:0:0:
203,178,165313,1,0,0:0:0:0:
219,141,165394,2,0,L|202:31,1,90,2|0,3:2|0:0,0:0:0:0:
298,238,165720,2,0,L|315:348,1,90,0|0,1:0|0:0,0:0:0:0:
439,160,166046,2,0,P|397:145|355:158,1,90,2|0,3:2|0:0,0:0:0:0:
168,246,166373,2,0,P|125:258|83:243,1,90,0|0,1:2|0:0,0:0:0:0:
57,40,166699,6,0,L|113:129,1,90,0|0,3:0|0:0,0:0:0:0:
145,114,166943,1,0,0:0:0:0:
185,116,167025,2,0,L|241:205,1,90,2|2,1:2|0:0,0:0:0:0:
273,194,167269,1,2,0:0:0:0:
313,196,167351,2,0,L|369:285,2,90,2|0|0,3:2|3:0|3:0,0:0:0:0:
439,113,167840,5,0,0:0:0:0:
439,113,167921,1,0,0:0:0:0:
439,113,168003,2,0,P|393:100|336:130,1,90,0|0,3:0|0:0,0:0:0:0:
324,140,168248,1,0,0:0:0:0:
291,164,168329,2,0,P|248:176|206:163,1,90,2|2,1:2|0:0,0:0:0:0:
178,138,168574,1,2,0:0:0:0:
145,114,168655,2,0,P|102:101|60:114,2,90,2|0|0,3:2|0:0|3:0,0:0:0:0:
232,46,169144,1,0,0:0:0:0:
101,205,169307,5,0,3:0:0:0:
102,223,169389,1,0,0:0:0:0:
105,240,169470,2,0,L|111:298,1,45,0|0,0:0|0:0,0:0:0:0:
205,336,169633,1,0,3:0:0:0:
222,341,169715,1,0,0:0:0:0:
238,348,169796,2,0,L|228:381,2,22.5,0|0|0,3:0|0:0|3:0,0:0:0:0:
321,302,169960,6,0,P|294:236|202:216,1,144,2|0,0:0|0:0,0:0:0:0:
101,205,170449,1,4,0:0:0:0:
232,46,170775,1,4,0:0:0:0:
232,46,171264,6,0,P|225:116|297:177,1,144,2|0,0:0|0:0,0:0:0:0:
386,195,171753,1,4,0:0:0:0:
255,354,172079,1,4,0:0:0:0:
255,354,172568,5,2,0:0:0:0:
288,140,172813,1,2,0:0:0:0:
89,224,173057,1,0,0:0:0:0:
89,224,173220,5,2,0:0:0:0:
69,140,173383,1,0,0:0:0:0:
209,267,173546,1,0,0:0:0:0:
146,326,173709,1,0,0:0:0:0:
184,159,173873,5,2,0:0:0:0:
265,188,174036,1,0,0:0:0:0:
139,332,174199,1,0,0:0:0:0:
56,306,174362,1,0,0:0:0:0:
184,159,174525,5,2,0:0:0:0:
184,159,174688,2,0,L|357:123,1,144,2|0,0:0|0:0,0:0:0:0:
150,237,175177,6,0,P|104:184|113:115,1,144,2|0,0:0|0:0,0:0:0:0:
169,38,175666,1,4,0:0:0:0:
234,251,175992,1,4,0:0:0:0:
341,49,176318,5,0,0:0:0:0:
341,49,176481,2,0,P|386:102|378:171,1,144,2|0,0:0|0:0,0:0:0:0:
318,243,176970,1,4,0:0:0:0:
253,30,177296,1,4,0:0:0:0:
253,30,177786,5,2,0:0:0:0:
185,234,178030,1,2,0:0:0:0:
392,172,178275,1,0,0:0:0:0:
99,125,178438,6,0,B|93:169|93:169|111:199|111:199|94:237|116:279|116:279|102:341,1,216,4|0,0:0|0:0,0:0:0:0:
467,269,179090,2,0,B|456:217|456:217|478:175|461:137|461:137|479:107|479:107|473:63,1,216,4|0,0:0|0:0,0:0:0:0:
261,338,179742,5,4,0:0:0:0:
282,150,180068,1,0,1:0:0:0:
333,228,180231,1,0,3:0:0:0:
345,245,180313,1,0,3:0:0:0:
358,262,180394,2,0,L|448:277,1,72,0|0,1:0|0:0,0:0:0:0:
200,261,180720,1,0,1:0:0:0:
413,181,180883,1,0,3:0:0:0:
433,171,180965,1,0,3:0:0:0:
452,161,181046,5,4,0:0:0:0:
194,176,181373,1,0,3:0:0:0:
399,87,181699,1,0,3:0:0:0:
318,91,181862,1,0,3:0:0:0:
236,97,182025,1,0,1:0:0:0:
236,97,182351,5,0,3:0:0:0:
154,266,182514,1,0,3:0:0:0:
236,97,182677,1,0,1:0:0:0:
199,345,182840,5,2,0:0:0:0:
199,345,183166,1,2,0:0:0:0:
247,266,183492,5,2,0:0:0:0:
199,345,183655,1,0,3:0:0:0:
458,335,183981,1,0,1:0:0:0:
294,183,184307,1,0,3:0:0:0:
332,263,184470,1,0,3:0:0:0:
374,340,184633,1,0,1:0:0:0:
199,345,184960,5,0,3:0:0:0:
294,183,185123,1,0,3:0:0:0:
199,345,185286,1,0,1:0:0:0:
418,260,185449,5,2,0:0:0:0:
418,260,185775,1,2,0:0:0:0:
337,303,186101,5,2,0:0:0:0:
418,260,186264,2,0,P|432:216|418:166,1,90,0|0,1:0|0:0,0:0:0:0:
251,307,186590,2,0,P|294:316|336:302,1,90,0|0,1:0|0:0,0:0:0:0:
177,160,186916,2,0,P|167:203|181:245,1,90,0|0,1:0|0:0,0:0:0:0:
347,106,187242,2,0,P|304:92|261:101,1,90,0|0,1:0|0:0,0:0:0:0:
506,297,187568,5,0,1:0:0:0:
301,175,187731,1,0,1:0:0:0:
339,344,187894,1,0,1:0:0:0:
468,128,188057,1,0,1:0:0:0:
190,362,188220,5,0,1:0:0:0:
172,335,188302,1,0,1:0:0:0:
155,308,188383,1,0,1:0:0:0:
199,316,188465,1,0,1:0:0:0:
243,321,188547,1,0,1:0:0:0:
286,329,188628,1,0,3:0:0:0:
330,336,188710,1,0,3:0:0:0:
315,308,188791,1,0,3:0:0:0:
299,280,188873,5,4,0:0:0:0:
474,350,189036,1,4,0:0:0:0:
209,231,189362,1,4,3:2:0:0:
417,32,189688,1,4,3:2:0:0:
330,336,190014,5,0,1:0:0:0:
308,211,190177,1,4,0:0:0:0:
288,86,190340,1,4,0:0:0:0:
152,340,190666,1,4,3:2:0:0:
16,86,190992,1,4,3:2:0:0:
308,211,191318,5,0,1:0:0:0:
191,213,191481,1,4,0:0:0:0:
250,121,191644,1,4,0:0:0:0:
412,350,191970,1,4,3:2:0:0:
501,76,192296,1,4,3:2:0:0:
157,384,192623,1,4,0:0:0:0:
148,375,193112,6,0,P|200:354|64:344,1,540,4|4,0:0|0:1,0:0:0:0:
267,114,198003,6,0,L|475:92,2,202.500007724762,0|0|0,3:0|3:0|3:0,0:0:0:0:
204,262,199307,5,0,0:0:0:0:
345,209,199633,1,0,3:0:0:0:
215,119,199960,1,0,0:0:0:0:
74,172,200286,1,0,3:0:0:0:
304,337,200612,6,0,L|448:345,1,135.000005149842,0|0,0:0|3:0,0:0:0:0:
275,200,201264,2,0,L|140:207,1,135.000005149842,0|0,0:0|3:0,0:0:0:0:
188,64,201916,5,4,0:0:0:0:
197,83,202568,1,4,0:0:0:0:
141,264,202894,5,0,0:0:0:0:
208,193,203057,1,0,3:0:0:0:
230,171,203139,1,0,3:0:0:0:
251,149,203220,5,0,1:0:0:0:
281,313,203383,1,0,0:0:0:0:
373,45,203546,1,0,1:0:0:0:
403,209,203709,1,0,0:0:0:0:
191,247,203873,1,0,1:0:0:0:
251,149,204036,5,0,0:0:0:0:
247,355,204199,1,2,0:0:0:0:
403,209,204362,1,0,0:0:0:0:
155,133,204525,6,0,L|354:115,1,180,4|0,3:2|1:0,0:0:0:0:
415,318,205014,1,0,0:0:0:0:
265,213,205177,1,0,3:0:0:0:
434,325,205340,1,0,0:0:0:0:
264,241,205503,1,0,1:0:0:0:
451,333,205666,6,0,P|459:278|436:236,1,90,0|0,0:0|3:0,0:0:0:0:
103,133,205992,2,0,P|95:188|118:230,1,90,0|0,0:0|1:0,0:0:0:0:
355,59,206318,2,0,L|442:36,1,90,0|0,0:0|3:0,0:0:0:0:
264,241,206644,5,0,0:0:0:0:
241,34,206807,1,0,1:0:0:0:
141,248,206970,1,0,0:0:0:0:
368,40,207133,2,0,L|417:217,1,180,4|0,3:2|1:0,0:0:0:0:
198,100,207623,5,0,0:0:0:0:
49,160,207786,1,0,3:0:0:0:
262,248,207949,1,0,0:0:0:0:
113,308,208112,1,0,1:0:0:0:
282,130,208275,6,0,L|260:33,1,90,0|0,0:0|3:0,0:0:0:0:
181,256,208601,2,0,L|107:322,1,90,0|0,0:0|1:0,0:0:0:0:
363,265,208927,1,0,0:0:0:0:
82,199,209090,1,2,0:0:0:0:
292,209,209253,1,0,3:0:0:0:
292,209,209335,1,0,3:0:0:0:
292,209,209416,1,0,1:0:0:0:
204,342,209579,1,0,3:0:0:0:
204,342,209661,1,0,0:0:0:0:
204,342,209742,6,0,L|108:355,1,90,2|0,0:0|0:0,0:0:0:0:
346,237,210068,2,0,L|442:250,1,90,0|0,1:0|0:0,0:0:0:0:
160,144,210394,2,0,P|144:187|170:247,1,90,0|0,3:0|0:0,0:0:0:0:
403,136,210720,2,0,P|419:93|393:33,1,90,0|0,1:0|0:0,0:0:0:0:
249,220,211046,5,0,3:0:0:0:
268,80,211210,1,0,0:0:0:0:
256,239,211373,1,0,1:0:0:0:
342,127,211537,1,0,0:0:0:0:
262,258,211699,5,0,3:0:0:0:
161,118,211862,1,0,0:0:0:0:
112,289,212025,1,0,1:0:0:0:
84,64,212188,1,0,0:0:0:0:
198,319,212351,6,0,P|252:346|300:335,1,90,0|0,3:2|0:0,0:0:0:0:
109,209,212677,2,0,P|55:182|7:193,1,90,0|0,1:0|0:0,0:0:0:0:
262,258,213003,1,0,1:0:0:0:
160,144,213166,1,0,1:0:0:0:
198,319,213329,1,0,1:0:0:0:
211,75,213492,1,0,3:0:0:0:
211,75,213574,1,0,3:0:0:0:
211,75,213655,5,0,1:0:0:0:
372,164,213818,1,0,1:0:0:0:
109,209,213981,1,0,3:0:0:0:
472,17,214144,1,0,1:0:0:0:
485,6,214470,5,0,0:0:0:0:
372,164,214633,1,2,0:0:0:0:
208,56,214796,1,0,0:0:0:0:
300,231,214960,2,0,L|474:182,1,180,4|0,3:2|1:0,0:0:0:0:
303,344,215449,5,0,0:0:0:0:
498,186,215612,1,0,3:0:0:0:
246,182,215775,1,0,0:0:0:0:
441,348,215938,1,0,1:0:0:0:
246,182,216101,2,0,L|236:78,1,90,0|0,0:0|3:0,0:0:0:0:
498,186,216427,2,0,L|508:82,1,90,0|0,0:0|1:0,0:0:0:0:
367,267,216753,2,0,L|375:356,1,90,0|0,0:0|3:0,0:0:0:0:
246,182,217079,5,0,0:0:0:0:
71,238,217242,1,0,1:2:0:0:
233,82,217405,1,0,0:0:0:0:
87,332,217568,2,0,L|274:342,1,180,4|0,3:2|1:0,0:0:0:0:
101,155,218057,5,0,0:0:0:0:
266,341,218220,1,0,1:0:0:0:
330,186,218383,1,0,0:0:0:0:
414,303,218546,1,0,1:0:0:0:
475,112,218710,6,0,P|432:98|377:120,1,90,0|0,0:0|3:0,0:0:0:0:
209,253,219036,2,0,P|252:267|307:245,1,90,0|0,0:0|1:0,0:0:0:0:
117,106,219362,1,0,0:0:0:0:
69,278,219525,1,2,0:0:0:0:
257,78,219688,1,0,0:0:0:0:
209,253,219851,1,0,1:0:0:0:
257,78,220014,5,0,0:0:0:0:
308,251,220177,2,0,P|346:282|392:288,2,90,2|0|0,0:0|0:0|1:0,0:0:0:0:
257,64,220666,1,0,0:0:0:0:
209,253,220829,2,0,P|171:284|125:290,2,90,2|0|0,0:0|0:0|1:0,0:0:0:0:
257,46,221318,5,0,0:0:0:0:
281,275,221481,2,0,L|294:373,2,90,2|0|0,0:0|0:0|1:0,0:0:0:0:
258,30,221970,1,0,0:0:0:0:
231,275,222133,2,0,L|218:373,2,90,2|0|0,0:0|0:0|1:0,0:0:0:0:
258,30,222623,1,0,1:0:0:0:
112,211,222786,5,0,1:0:0:0:
337,328,222949,1,0,3:0:0:0:
194,328,223112,1,0,1:0:0:0:
419,211,223275,1,0,3:0:0:0:
194,328,223438,5,0,1:0:0:0:
297,126,223601,1,0,1:0:0:0:
337,328,223764,1,0,1:0:0:0:
213,126,223927,1,0,3:0:0:0:
178,121,224008,1,0,3:0:0:0:
142,117,224090,1,0,1:0:0:0:
363,52,224253,1,0,1:0:0:0:
376,38,224579,6,0,L|403:221,1,180,4|0,0:0|3:0,0:0:0:0:
496,316,225068,1,0,1:0:0:0:
290,346,225231,1,0,3:0:0:0:
271,315,225312,1,0,3:0:0:0:
252,283,225394,5,0,1:0:0:0:
298,113,225557,1,0,3:0:0:0:
157,306,225720,1,0,1:0:0:0:
393,90,225883,1,0,3:0:0:0:
129,218,226046,5,0,1:0:0:0:
326,197,226210,1,0,1:0:0:0:
97,133,226373,1,0,3:0:0:0:
360,280,226536,1,0,3:0:0:0:
390,299,226617,1,0,3:0:0:0:
421,316,226699,1,0,1:0:0:0:
252,283,226862,1,0,1:0:0:0:
236,272,227188,6,0,P|330:262|219:99,1,405,4|0,0:0|0:0,0:0:0:0:
220,121,228003,5,0,1:0:0:0:
198,202,228166,1,0,0:0:0:0:
284,182,228329,1,0,1:0:0:0:
132,135,228492,1,0,0:0:0:0:
267,266,228655,5,0,1:0:0:0:
267,266,228818,1,0,1:0:0:0:
284,182,228981,5,2,0:0:0:0:
290,160,229063,1,2,0:0:0:0:
296,138,229144,1,2,0:0:0:0:
303,116,229226,1,0,0:0:0:0:
310,94,229307,5,0,1:0:0:0:
220,121,229470,1,0,0:0:0:0:
385,158,229633,1,0,1:0:0:0:
475,131,229796,1,0,0:0:0:0:
358,5,229960,5,0,1:0:0:0:
358,5,230123,1,0,1:0:0:0:
429,90,230286,5,2,0:0:0:0:
436,112,230367,1,2,0:0:0:0:
443,134,230449,1,2,0:0:0:0:
449,156,230530,1,0,0:0:0:0:
455,178,230612,6,0,L|447:291,1,90,0|0,1:0|0:0,0:0:0:0:
314,255,230938,2,0,L|322:368,1,90,0|0,1:0|0:0,0:0:0:0:
359,151,231264,1,0,1:0:0:0:
225,221,231427,1,0,1:0:0:0:
404,233,231590,1,0,1:0:0:0:
174,151,231753,1,0,3:0:0:0:
174,151,231834,1,0,3:0:0:0:
174,151,231916,1,0,1:0:0:0:
317,64,232079,1,0,1:0:0:0:
332,49,232405,6,0,L|150:72,1,180,4|0,0:0|0:0,0:0:0:0:
246,170,232894,1,2,0:0:0:0:
137,250,233057,1,0,0:0:0:0:
244,332,233220,6,0,P|297:341|338:325,1,90,4|0,3:2|0:0,0:0:0:0:
137,250,233546,2,0,P|84:241|43:257,1,90,2|0,0:0|0:0,0:0:0:0:
288,253,233873,2,0,B|318:203|295:156|295:156|308:120|308:120|302:74,1,180,2|0,0:0|0:0,0:0:0:0:
217,200,234362,1,2,0:0:0:0:
302,80,234525,6,0,L|412:58,1,90,0|0,0:0|0:0,0:0:0:0:
386,178,234851,2,0,L|461:252,1,90,2|0,0:0|0:0,0:0:0:0:
334,295,235177,2,0,L|315:385,1,90,0|0,0:0|0:0,0:0:0:0:
204,329,235503,2,0,L|98:342,1,90,2|0,0:0|0:0,0:0:0:0:
217,200,235829,5,4,0:0:0:0:
237,60,235992,1,0,0:0:0:0:
221,224,236155,1,2,0:0:0:0:
61,205,236318,1,0,0:0:0:0:
225,253,236481,2,0,B|254:247|283:257|283:257|308:241|343:240|343:240|358:264|395:271,1,180,2|0,0:0|0:0,0:0:0:0:
241,334,236970,1,2,0:0:0:0:
412,194,237133,5,0,0:0:0:0:
391,97,237296,1,0,0:0:0:0:
326,273,237460,1,2,0:0:0:0:
378,363,237623,1,0,0:0:0:0:
412,194,237786,5,0,0:0:0:0:
315,161,237949,1,0,0:0:0:0:
378,363,238112,1,2,0:0:0:0:
475,317,238275,1,0,0:0:0:0:
275,339,238438,5,4,0:0:0:0:
422,193,239090,1,4,0:0:0:0:
266,50,239742,5,4,0:0:0:0:
117,190,240394,1,4,0:0:0:0:
313,24,241046,5,0,1:0:0:0:
313,24,241210,1,0,3:0:0:0:
172,44,241373,1,0,1:0:0:0:
172,44,241537,1,0,0:0:0:0:
310,146,241699,5,0,1:0:0:0:
109,161,241862,1,0,0:0:0:0:
81,173,241943,1,0,0:0:0:0:
52,185,242025,1,0,3:0:0:0:
97,191,242106,1,0,3:0:0:0:
142,197,242188,1,2,3:2:0:0:
187,204,242269,1,2,0:0:0:0:
232,210,242351,5,4,3:2:0:0:
28,293,242840,1,4,0:0:0:0:
