osu file format v14

[General]
AudioFilename: GAeR9QtiLgLJ.128.mp3
AudioLeadIn: 0
PreviewTime: 123166
Countdown: 0
SampleSet: Soft
StackLeniency: 0.7
Mode: 0
LetterboxInBreaks: 0
WidescreenStoryboard: 1

[Editor]
Bookmarks: -12,110612,194090,198003,199307
DistanceSpacing: 1.3
BeatDivisor: 4
GridSize: 32
TimelineZoom: 1.9

[Metadata]
Title:Honey Come!!
TitleUnicode:Honey♥Come!!
Artist:Ogura Yui
ArtistUnicode:小倉唯
Creator:MrSergio
Version:Hard!!
Source:城下町のダンデライオン
Tags:Castle Town Joukamachi no Dandelion
BeatmapID:771483
BeatmapSetID:347596

[Difficulty]
HPDrainRate:6
CircleSize:4
OverallDifficulty:6.5
ApproachRate:7.5
SliderMultiplier:1.5
SliderTickRate:1

[Events]
//Background and Video events
0,0,"0Pzm8wN.jpg",0,0
//Break Periods
2,194290,197178
//Storyboard Layer 0 (Background)
//Storyboard Layer 1 (Fail)
//Storyboard Layer 2 (Pass)
//Storyboard Layer 3 (Foreground)
//Storyboard Sound Samples

[TimingPoints]
1047,326.086956521739,4,2,1,70,1,0
17025,-125,4,2,1,70,0,0
20612,-100,4,2,1,70,0,0
32351,-133.333333333333,4,2,1,60,0,0
37568,-100,4,2,1,70,0,0
40177,-100,4,2,1,75,0,0
42786,-100,4,2,1,80,0,0
45394,-100,4,2,1,80,0,1
54525,-100,4,2,1,90,0,0
55829,-100,4,2,1,80,0,1
64960,-100,4,2,1,90,0,0
66264,-100,4,2,1,80,0,1
79307,-100,4,2,1,70,0,0
84525,-100,4,2,1,70,0,0
89742,-166.666666666667,4,2,1,60,0,0
94960,-125,4,2,1,70,0,0
98873,-100,4,2,1,70,0,0
110612,-125,4,2,1,60,0,0
115829,-100,4,2,1,60,0,0
118438,-100,4,2,1,70,0,0
121046,-100,4,2,1,75,0,0
123655,-100,4,2,1,80,0,1
132786,-100,4,2,1,90,0,0
134090,-100,4,2,1,80,0,1
143220,-100,4,2,1,90,0,0
144525,-100,4,2,1,80,0,1
157568,-100,4,2,1,80,0,0
169960,-125,4,2,1,70,0,0
186264,-100,4,2,1,70,0,0
188873,-100,4,2,1,80,0,0
198003,-133.333333333333,4,2,1,60,0,0
202894,-100,4,2,1,70,0,0
203220,-100,4,2,1,70,0,0
204525,-100,4,2,1,80,0,1
213655,-100,4,2,1,90,0,0
214960,-100,4,2,1,80,0,1
233220,-100,4,2,1,70,0,0
238438,-100,4,2,1,80,0,0
242840,-100,4,2,1,80,0,0

[Colours]
Combo1 : 255,40,40
Combo2 : 255,128,64
Combo3 : 255,255,66
Combo4 : 255,47,151

[HitObjects]
53,122,1047,6,0,L|133:113,1,75,4|0,0:0|0:0,0:0:0:0:
194,161,1373,2,0,L|274:152,1,75,2|0,0:0|0:0,0:0:0:0:
336,198,1699,2,0,P|363:230|324:324,1,150,2|0,0:0|0:0,0:0:0:0:
336,198,2188,6,0,L|384:47,1,150,2|0,0:0|0:0,0:0:0:0:
281,113,2677,2,0,P|248:126|199:112,1,75,2|0,0:0|0:0,0:0:0:0:
157,55,3003,2,0,P|120:47|86:61,1,75,0|0,0:0|0:0,0:0:0:0:
45,132,3329,2,0,L|57:222,1,75,2|0,0:0|0:0,0:0:0:0:
157,55,3655,6,0,L|238:71,1,75,4|0,0:0|0:0,0:0:0:0:
310,141,3981,2,0,L|229:157,1,75,2|0,0:0|0:0,0:0:0:0:
143,225,4307,2,0,L|299:258,1,150,2|0,0:0|0:0,0:0:0:0:
377,219,4796,6,0,P|386:157|324:95,1,150,2|0,0:0|0:0,0:0:0:0:
297,181,5286,2,0,L|288:269,1,75,2|0,0:0|0:0,0:0:0:0:
212,175,5612,2,0,L|221:87,1,75,0|0,0:0|0:0,0:0:0:0:
125,137,5938,2,0,L|116:225,1,75,2|0,0:0|0:0,0:0:0:0:
49,97,6264,5,4,0:0:0:0:
122,84,6916,1,4,0:0:0:0:
195,68,7568,1,4,0:0:0:0:
267,50,8220,1,4,0:0:0:0:
346,38,8873,6,0,L|394:106,1,75,0|0,1:0|3:0,0:0:0:0:
302,108,9199,2,0,L|315:190,1,75,0|0,1:0|0:0,0:0:0:0:
234,160,9525,2,0,L|221:245,1,75,0|0,1:0|0:0,0:0:0:0:
149,195,9851,2,0,L|110:265,1,75,0|0,1:0|0:0,0:0:0:0:
222,234,10177,5,4,0:0:0:0:
177,377,10503,1,4,0:0:0:0:
322,340,10829,1,4,0:0:0:0:
374,163,11155,5,0,1:0:0:0:
420,231,11318,1,0,3:0:0:0:
420,231,11400,1,0,0:0:0:0:
420,231,11481,2,0,L|431:321,1,75,0|0,1:0|0:0,0:0:0:0:
336,372,11807,2,0,L|346:298,1,75,0|0,1:0|0:0,0:0:0:0:
263,301,12133,2,0,L|272:226,2,75,0|0|0,1:0|0:0|1:0,0:0:0:0:
186,341,12623,6,0,P|121:364|55:317,1,150,2|2,3:2|0:0,0:0:0:0:
129,281,13112,1,0,1:0:0:0:
62,232,13275,1,0,0:0:0:0:
132,188,13438,2,0,L|230:168,1,75,0|0,1:0|1:0,0:0:0:0:
86,124,13764,2,0,L|-12:144,1,75,0|2,1:0|0:0,0:0:0:0:
128,47,14090,5,0,1:0:0:0:
290,74,14416,1,0,1:0:0:0:
453,97,14742,2,0,L|450:184,2,75,0|0|0,3:0|3:0|1:0,0:0:0:0:
369,175,15231,6,0,P|380:221|472:251,1,150,2|2,0:0|0:0,0:0:0:0:
370,254,15720,2,0,P|326:244|280:259,1,75
221,177,16046,1,0,1:0:0:0:
293,100,16210,1,0,3:0:0:0:
207,39,16373,2,0,L|129:25,1,75,0|0,1:0|3:0,0:0:0:0:
145,117,16699,5,4,0:0:0:0:
145,117,17025,2,0,L|84:105,2,60,8|8|0,0:0|0:0|0:0,0:0:0:0:
191,197,17514,1,0,1:0:0:0:
241,264,17677,2,0,L|313:285,1,60,8|0,0:0|0:0,0:0:0:0:
389,312,18003,5,0,1:0:0:0:
389,312,18329,2,0,L|475:306,2,60,8|8|0,0:0|0:0|0:0,0:0:0:0:
350,237,18818,1,0,1:0:0:0:
416,186,18981,2,0,L|494:183,1,60,8|0,0:0|0:0,0:0:0:0:
426,43,19307,5,0,1:0:0:0:
426,43,19633,2,0,L|407:116,1,60,8|8,0:0|0:0,0:0:0:0:
315,158,19960,2,0,L|330:99,1,60,0|0,0:0|3:0,0:0:0:0:
385,207,20286,1,8,0:0:0:0:
385,207,20612,6,0,P|367:251|338:269,1,75,0|0,1:0|0:0,0:0:0:0:
231,297,20938,2,0,P|202:320|191:356,2,75,0|0|0,1:0|3:0|1:0,0:0:0:0:
324,343,21427,2,0,L|373:340,5,37.5,2|2|2|0|0|0,0:0|0:0|3:2|3:0|3:0|3:0,0:0:0:0:
316,318,21916,6,0,L|301:242,1,75,0|0,1:0|0:0,0:0:0:0:
227,207,22242,2,0,L|212:131,1,75,0|0,1:0|0:0,0:0:0:0:
145,85,22568,2,0,P|105:84|66:107,2,75,0|0|0,3:0|3:0|1:0,0:0:0:0:
215,29,23057,6,0,L|374:16,1,150,2|2,0:0|0:0,0:0:0:0:
415,81,23546,2,0,B|401:117|401:117|355:153,1,75,0|0,1:0|0:0,0:0:0:0:
428,201,23873,2,0,B|432:238|432:238|457:273,1,75,0|0,1:0|1:0,0:0:0:0:
389,321,24199,1,0,1:0:0:0:
389,321,24525,6,0,P|354:346|299:348,1,75,0|0,1:0|0:0,0:0:0:0:
321,269,24851,2,0,P|282:273|236:255,1,75,0|0,1:0|0:0,0:0:0:0:
286,189,25177,2,0,P|246:169|217:133,2,75,0|0|0,1:0|1:0|1:0,0:0:0:0:
265,71,25666,6,0,P|206:62|136:137,1,150,2|2,0:0|0:0,0:0:0:0:
60,99,26155,2,0,L|6:36,2,75,0|0|0,1:0|0:0|1:0,0:0:0:0:
89,182,26644,1,0,3:0:0:0:
89,182,26807,2,0,L|102:260,1,75,0|0,1:0|0:0,0:0:0:0:
178,267,27133,6,0,L|192:341,1,75,0|0,1:0|1:0,0:0:0:0:
260,294,27460,2,0,L|415:310,2,150,8|0|8,0:0|0:0|0:0,0:0:0:0:
245,129,28438,6,0,L|273:45,1,75,0|0,1:0|1:0,0:0:0:0:
181,76,28764,2,0,L|32:64,2,150,8|0|8,0:0|0:0|0:0,0:0:0:0:
181,76,29742,6,0,P|162:124|168:154,1,75,0|0,1:0|0:0,0:0:0:0:
221,206,30068,2,0,P|240:254|234:284,1,75,0|0,1:0|0:0,0:0:0:0:
180,336,30394,2,0,L|87:347,2,75,0|0|0,1:0|1:0|1:0,0:0:0:0:
236,275,30883,1,0,3:0:0:0:
301,326,31046,6,0,P|346:330|378:314,2,75,2|0|0,1:2|3:0|1:0,0:0:0:0:
326,247,31536,1,2,0:0:0:0:
326,247,31699,2,0,L|324:151,1,75,0|2,1:0|0:0,0:0:0:0:
415,137,32025,2,0,L|416:211,1,75,2|0,3:2|3:0,0:0:0:0:
326,247,32351,6,0,P|278:250|216:196,1,112.500004291535,2|0,0:0|0:0,0:0:0:0:
225,131,32840,1,2,0:0:0:0:
187,297,33166,1,0,0:0:0:0:
187,297,33655,6,0,L|110:301,1,56.2500021457673,2|0,0:3|0:0,0:0:0:0:
65,246,33981,1,0,0:0:0:0:
135,177,34144,2,0,L|192:175,2,56.2500021457673,2|0|0,0:3|0:0|0:0,0:0:0:0:
253,232,34633,6,0,L|267:272,2,37.5000014305115,2|0|0,0:0|0:0|0:0,0:0:0:0:
278,198,34960,2,0,L|357:92,1,112.500004291535,2|0,0:0|0:0,0:0:0:0:
345,107,35449,1,0,0:0:0:0:
291,42,35612,6,0,P|258:35|227:46,1,56.2500021457673,2|0,0:0|0:0,0:0:0:0:
177,94,35938,2,0,P|144:101|113:90,1,56.2500021457673,2|0,0:0|0:0,0:0:0:0:
59,45,36264,5,4,0:0:0:0:
59,45,36916,1,4,0:0:0:0:
96,196,37242,1,0,1:0:0:0:
121,106,37405,1,0,3:0:0:0:
121,106,37568,6,0,L|209:126,1,75,4|0,0:0|0:0,0:0:0:0:
265,79,37894,2,0,L|347:73,2,75,0|0|2,1:0|0:0|0:0,0:0:0:0:
194,122,38383,1,0,0:0:0:0:
134,180,38547,2,0,L|52:186,2,75,0|0|2,1:0|0:0|0:0,0:0:0:0:
205,219,39036,1,0,0:0:0:0:
278,256,39199,2,0,L|360:250,2,75,0|0|2,1:0|0:0|0:0,0:0:0:0:
205,219,39688,1,0,0:0:0:0:
134,180,39851,2,0,L|50:188,1,75,0|0,1:0|0:0,0:0:0:0:
138,269,40177,6,0,P|167:293|232:291,1,75,0|0,1:0|0:0,0:0:0:0:
280,248,40503,2,0,P|286:210|253:154,1,75,0|0,1:0|0:0,0:0:0:0:
193,139,40829,2,0,P|157:152|126:209,1,75,0|0,1:0|0:0,0:0:0:0:
138,269,41155,2,0,P|167:293|232:291,1,75,0|0,1:0|0:0,0:0:0:0:
295,244,41481,5,0,1:0:0:0:
310,147,41644,1,0,1:0:0:0:
406,161,41807,1,0,1:0:0:0:
391,258,41970,1,0,1:0:0:0:
295,244,42133,6,0,L|252:259,3,37.5,0|0|0|0,1:0|1:0|1:0|1:0,0:0:0:0:
223,222,42460,2,0,L|180:207,3,37.5,0|0|0|0,1:0|3:0|3:0|3:0,0:0:0:0:
144,232,42786,5,4,0:0:0:0:
205,344,42949,1,4,0:0:0:0:
392,299,43275,5,4,3:2:0:0:
260,160,43601,1,4,3:2:0:0:
205,344,43927,1,4,3:2:0:0:
205,344,44416,6,0,L|206:194,1,150,4|0,0:3|0:0,0:0:0:0:
282,241,44905,2,0,P|319:248|373:224,2,75,0|2|0,0:0|0:0|0:0,0:0:0:0:
205,194,45394,6,0,B|164:194|164:194|130:174|130:174|101:193|101:193|59:196,1,150,4|0,3:2|1:0,0:0:0:0:
57,105,45883,1,0,0:0:0:0:
57,105,46046,2,0,B|93:83|93:83|138:83,2,75,0|0|0,3:0|0:0|1:0,0:0:0:0:
66,195,46536,6,0,P|72:241|89:283,1,75,0|0,0:0|3:0,0:0:0:0:
167,240,46862,2,0,P|192:281|220:303,1,75,0|0,0:0|1:0,0:0:0:0:
276,234,47188,2,0,P|320:248|356:247,1,75,0|0,0:0|3:0,0:0:0:0:
416,188,47514,5,0,0:0:0:0:
470,326,47677,2,0,L|478:252,1,75,0|0,1:0|0:0,0:0:0:0:
416,188,48003,2,0,B|385:148|385:148|378:103|378:103|344:60,1,150,4|0,3:2|1:0,0:0:0:0:
290,132,48492,6,0,L|208:154,2,75,0|0|0,0:0|3:0|0:0,0:0:0:0:
290,132,48981,1,0,1:0:0:0:
290,223,49144,2,0,L|371:199,1,75,0|0,0:0|3:0,0:0:0:0:
250,300,49470,2,0,L|169:276,2,75,0|0|0,0:0|1:0|0:0,0:0:0:0:
290,223,49960,1,2,0:0:0:0:
250,135,50123,1,0,3:0:0:0:
250,135,50286,2,0,L|228:52,1,75,0|0,1:0|3:0,0:0:0:0:
148,93,50612,6,0,P|138:128|108:172,1,75,2|0,0:0|0:0,0:0:0:0:
133,249,50938,2,0,P|168:259|212:289,1,75,0|0,1:0|0:0,0:0:0:0:
287,253,51264,2,0,P|297:218|327:174,1,75,0|0,3:0|0:0,0:0:0:0:
300,96,51590,2,0,P|265:86|221:56,1,75,0|0,1:0|0:0,0:0:0:0:
153,90,51916,6,0,B|122:111|122:111|99:153,1,75,0|0,3:0|0:0,0:0:0:0:
191,162,52242,2,0,B|222:183|222:183|245:225,1,75,0|0,1:0|0:0,0:0:0:0:
154,245,52568,2,0,L|144:329,2,75,0|0|0,3:0|0:0|1:0,0:0:0:0:
191,162,53057,5,0,0:0:0:0:
253,89,53220,2,0,P|297:72|340:79,1,75,0|0,3:2|0:0,0:0:0:0:
357,157,53546,2,0,P|400:169|438:201,1,75,0|0,1:0|0:0,0:0:0:0:
282,271,53873,1,0,1:0:0:0:
358,239,54036,1,0,1:0:0:0:
348,320,54199,1,0,1:0:0:0:
282,271,54362,5,0,3:0:0:0:
282,271,54525,2,0,L|282:195,2,75,0|0|0,1:0|1:0|3:0,0:0:0:0:
194,250,55014,1,0,1:0:0:0:
194,250,55340,6,0,L|195:333,2,75,0|2|0,0:0|0:0|0:0,0:0:0:0:
241,173,55829,2,0,P|287:141|384:183,1,150,4|0,3:2|1:0,0:0:0:0:
310,231,56318,1,0,0:0:0:0:
310,231,56481,2,0,L|326:321,2,75,0|0|0,3:0|0:0|1:0,0:0:0:0:
371,165,56970,6,0,L|409:94,1,75,0|0,0:0|3:0,0:0:0:0:
318,79,57296,2,0,L|237:81,1,75,0|0,0:0|1:0,0:0:0:0:
270,167,57623,2,0,L|312:235,1,75,0|0,0:0|3:0,0:0:0:0:
371,165,57949,6,0,B|416:171|416:171|461:158,2,75,0|0|0,0:0|1:0|0:0,0:0:0:0:
270,167,58438,2,0,B|226:173|226:173|179:204|179:204|126:207,1,150,4|0,3:2|1:0,0:0:0:0:
40,218,58927,1,0,0:0:0:0:
96,290,59090,2,0,P|133:305|178:288,1,75,0|0,3:0|0:0,0:0:0:0:
247,259,59416,1,0,1:0:0:0:
325,303,59579,6,0,P|362:313|409:299,1,75,0|0,0:0|3:0,0:0:0:0:
362,222,59905,2,0,P|352:184|316:151,1,75,0|0,0:0|1:0,0:0:0:0:
273,229,60231,2,0,P|245:256|234:303,2,75,0|2|0,0:0|0:0|3:0,0:0:0:0:
273,229,60720,1,0,1:0:0:0:
210,136,60883,1,0,3:0:0:0:
309,149,61046,6,0,L|385:125,1,75,2|0,0:0|0:0,0:0:0:0:
291,65,61373,2,0,L|215:41,1,75,0|0,1:0|0:0,0:0:0:0:
139,160,61699,2,0,L|210:137,1,75,0|0,3:0|0:0,0:0:0:0:
123,72,62025,2,0,L|51:49,1,75,0|0,1:0|0:0,0:0:0:0:
26,135,62351,6,0,P|23:172|33:214,1,75,0|0,3:0|0:0,0:0:0:0:
126,168,62677,2,0,P|139:205|168:236,1,75,0|0,1:0|0:0,0:0:0:0:
237,176,63003,2,0,P|274:193|313:196,2,75,0|0|0,3:0|0:0|1:0,0:0:0:0:
123,72,63492,5,0,0:0:0:0:
211,94,63655,2,0,L|284:55,1,75,0|0,3:2|0:0,0:0:0:0:
274,201,63981,2,0,L|306:131,1,75,0|0,1:0|0:0,0:0:0:0:
390,263,64307,2,0,L|379:179,2,75,0|0|0,1:0|3:0|1:0,0:0:0:0:
331,330,64796,6,0,L|331:369,2,37.5,0|0|0,3:0|3:0|1:0,0:0:0:0:
287,266,65123,1,0,1:0:0:0:
253,338,65286,1,0,3:0:0:0:
331,330,65449,1,0,1:0:0:0:
331,330,65775,6,0,L|422:330,2,75,0|2|0,0:0|0:0|0:0,0:0:0:0:
251,287,66264,2,0,P|200:274|126:341,1,150,4|0,3:2|1:0,0:0:0:0:
128,330,66753,1,0,0:0:0:0:
51,284,66916,2,0,L|29:181,2,75,0|0|0,3:0|0:0|1:0,0:0:0:0:
120,201,67405,6,0,L|102:117,1,75,0|0,0:0|3:0,0:0:0:0:
192,144,67731,2,0,L|273:170,1,75,0|0,0:0|1:0,0:0:0:0:
207,237,68057,2,0,L|143:294,1,75,0|0,0:0|3:0,0:0:0:0:
263,167,68383,5,0,0:0:0:0:
343,190,68546,1,0,0:0:0:0:
282,245,68710,1,0,0:0:0:0:
263,167,68873,2,0,L|304:20,1,150,4|0,3:2|1:0,0:0:0:0:
220,58,69362,1,0,0:0:0:0:
220,58,69525,2,0,P|172:65|134:50,2,75,0|0|0,3:0|0:0|1:0,0:0:0:0:
303,22,70014,6,0,L|395:43,1,75,0|0,0:0|3:0,0:0:0:0:
436,106,70340,2,0,L|344:126,1,75,0|0,0:0|1:0,0:0:0:0:
301,188,70666,2,0,L|392:208,2,75,0|2|0,0:0|0:0|0:0,0:0:0:0:
301,188,71155,1,0,1:0:0:0:
233,128,71318,5,0,0:0:0:0:
164,186,71481,2,0,P|153:223|165:275,2,75,2|0|0,0:0|0:0|1:0,0:0:0:0:
233,128,71970,1,0,0:0:0:0:
301,188,72133,2,0,P|338:198|390:186,2,75,2|0|0,0:0|0:0|1:0,0:0:0:0:
233,128,72623,1,0,0:0:0:0:
174,59,72786,6,0,P|137:48|85:60,2,75,2|0|0,0:0|0:0|1:0,0:0:0:0:
233,128,73275,1,0,0:0:0:0:
303,71,73438,2,0,P|314:34|302:-18,2,75,2|0|0,0:0|0:0|1:0,0:0:0:0:
303,71,73927,1,0,1:0:0:0:
217,99,74090,6,0,L|240:176,1,75,0|0,1:0|3:0,0:0:0:0:
152,197,74416,2,0,L|175:274,1,75,0|0,1:0|3:0,0:0:0:0:
83,282,74742,2,0,L|106:359,2,75,0|0|0,1:0|1:0|1:0,0:0:0:0:
29,199,75231,6,0,L|20:160,2,37.5,0|0|0,3:0|3:0|1:0,0:0:0:0:
114,105,75557,1,0,1:0:0:0:
114,105,75883,2,0,B|149:99|171:112|171:112|202:101|202:101|231:112|269:105,1,150,4|0,0:0|3:0,0:0:0:0:
240,17,76373,1,0,1:0:0:0:
260,106,76536,1,0,3:0:0:0:
260,106,76699,6,0,L|292:207,1,75,0|0,1:0|3:0,0:0:0:0:
372,150,77025,2,0,L|361:237,1,75,0|0,1:0|3:0,0:0:0:0:
186,190,77351,2,0,L|237:269,1,75,0|0,1:0|1:0,0:0:0:0:
307,292,77677,1,0,3:0:0:0:
384,352,77840,6,0,L|418:375,2,37.5,0|0|0,3:0|3:0|1:0,0:0:0:0:
493,300,78166,1,0,1:0:0:0:
383,176,78492,1,4,0:0:0:0:
493,300,78818,5,0,0:0:0:0:
416,271,78981,1,2,0:0:0:0:
479,218,79144,1,0,0:0:0:0:
425,356,79307,6,0,L|333:349,1,75,4|0,3:2|0:0,0:0:0:0:
278,295,79633,2,0,L|186:288,1,75,2|0,0:0|0:0,0:0:0:0:
128,237,79960,2,0,P|92:181|138:98,1,150,2|0,0:0|0:0,0:0:0:0:
120,108,80449,6,0,L|272:125,1,150,2|0,0:0|0:0,0:0:0:0:
327,194,80938,2,0,L|253:222,1,75,2|0,0:0|0:0,0:0:0:0:
203,289,81264,2,0,L|273:315,1,75,0|0,0:0|0:0,0:0:0:0:
354,303,81590,2,0,L|424:330,1,75,2|0,0:0|0:0,0:0:0:0:
454,252,81916,6,0,P|464:214|446:162,1,75,4|0,0:0|0:0,0:0:0:0:
372,136,82242,2,0,P|362:174|380:226,1,75,2|0,0:0|0:0,0:0:0:0:
453,96,82568,2,0,P|415:55|322:62,1,150,2|0,0:0|0:0,0:0:0:0:
326,58,83057,6,0,L|243:8,2,75,2|0|0,0:0|0:0|0:0,0:0:0:0:
200,85,83546,2,0,L|117:35,1,75,2|0,0:0|0:0,0:0:0:0:
105,131,83873,2,0,L|56:222,1,75,0|0,0:0|0:0,0:0:0:0:
112,305,84199,2,0,L|148:239,1,75,2|0,0:0|0:0,0:0:0:0:
206,339,84525,5,4,0:0:0:0:
281,333,85177,1,4,0:0:0:0:
355,327,85829,1,4,0:0:0:0:
429,322,86481,1,4,0:0:0:0:
503,316,87133,6,0,L|494:212,1,75,0|0,1:0|3:0,0:0:0:0:
413,234,87460,2,0,L|353:148,1,75,0|0,1:0|0:0,0:0:0:0:
287,184,87786,2,0,L|192:139,1,75,0|0,1:0|0:0,0:0:0:0:
165,213,88112,2,0,L|61:222,1,75,0|0,1:0|0:0,0:0:0:0:
30,162,88438,6,0,L|66:16,2,150,4|4|4,0:0|0:0|0:0,0:0:0:0:
30,162,89416,1,0,1:0:0:0:
47,242,89579,1,0,3:0:0:0:
47,242,89661,1,0,0:0:0:0:
47,242,89742,6,0,L|134:297,2,89.9999972534181,2|2|2,0:0|0:0|0:0,0:0:0:0:
47,242,90883,2,0,P|69:191|108:164,1,89.9999972534181,2|0,0:0|0:0,0:0:0:0:
135,245,91373,2,0,L|201:244,1,44.999998626709,2|0,0:0|0:0,0:0:0:0:
269,243,91699,2,0,P|247:192|208:165,1,89.9999972534181,2|0,0:0|0:0,0:0:0:0:
131,69,92351,6,0,L|42:41,2,89.9999972534181,2|2|2,0:0|0:0|0:0,0:0:0:0:
131,69,93492,2,0,B|160:81|160:81|177:99|177:99|214:108,1,89.9999972534181,2|0,0:0|0:0,0:0:0:0:
242,30,93981,2,0,L|287:36,1,44.999998626709,2|0,0:0|0:0,0:0:0:0:
297,121,94307,2,0,B|328:125|328:125|351:118|351:118|388:126,1,89.9999972534181,2|0,0:0|1:0,0:0:0:0:
457,48,94960,5,0,1:0:0:0:
480,214,95286,1,8,0:0:0:0:
480,214,95449,2,0,L|457:281,1,60,8|0,0:0|0:0,0:0:0:0:
433,350,95775,1,0,1:0:0:0:
367,285,95938,2,0,L|386:228,1,60,8|0,0:0|0:0,0:0:0:0:
377,144,96264,5,0,1:0:0:0:
230,61,96590,1,8,0:0:0:0:
230,61,96753,2,0,L|166:55,1,60,8|0,0:0|0:0,0:0:0:0:
90,32,97079,1,0,1:0:0:0:
30,90,97242,2,0,L|45:156,1,60,8|0,0:0|0:0,0:0:0:0:
16,228,97568,5,0,1:0:0:0:
152,326,97894,1,8,0:0:0:0:
152,326,98057,2,0,P|121:336|90:326,2,60,8|0|0,0:0|0:0|1:0,0:0:0:0:
219,276,98546,2,0,L|289:275,1,60,8|0,0:0|0:0,0:0:0:0:
360,342,98873,6,0,L|453:324,1,75,0|0,1:0|0:0,0:0:0:0:
388,249,99199,2,0,L|449:204,2,75,0|0|0,1:0|3:0|1:0,0:0:0:0:
300,270,99688,2,0,L|258:261,5,37.5,2|2|2|0|0|0,0:0|0:0|3:2|3:0|3:0|3:0,0:0:0:0:
222,282,100177,6,0,P|185:291|142:282,1,75,0|0,1:0|0:0,0:0:0:0:
188,204,100503,2,0,P|198:167|228:134,1,75,0|0,1:0|0:0,0:0:0:0:
276,211,100829,2,0,P|302:238|316:280,2,75,0|0|0,1:0|1:0|3:0,0:0:0:0:
222,282,101318,6,0,P|155:305|86:258,1,150,0|2,1:0|0:0,0:0:0:0:
164,216,101807,1,0,1:0:0:0:
222,282,101970,1,0,0:0:0:0:
284,346,102133,2,0,L|363:358,1,75,0|0,1:0|1:0,0:0:0:0:
364,266,102460,2,0,L|443:278,1,75,0|0,1:0|0:0,0:0:0:0:
436,187,102786,5,0,1:0:0:0:
312,101,103112,1,0,1:0:0:0:
240,232,103438,2,0,L|271:317,2,75,0|0|0,1:0|1:0|1:0,0:0:0:0:
158,222,103927,6,0,B|111:242|69:211|69:211|46:238|0:239,1,150,2|2,0:0|0:0,0:0:0:0:
126,148,104416,2,0,P|172:143|215:167,2,75,0|0|0,1:0|0:0|1:0,0:0:0:0:
175,261,104905,1,0,3:0:0:0:
175,261,105068,2,0,P|210:273|247:267,1,75,0|0,1:0|0:0,0:0:0:0:
314,207,105394,6,0,L|330:127,1,75,0|0,1:0|1:0,0:0:0:0:
242,158,105720,2,0,B|191:160|191:160|146:181|146:181|64:185,2,150,8|0|8,0:0|0:0|0:0,0:0:0:0:
79,80,106699,6,0,L|93:6,1,75,0|0,1:0|1:0,0:0:0:0:
166,56,107025,2,0,B|217:54|217:54|262:33|262:33|344:29,2,150,8|0|8,0:0|0:0|0:0,0:0:0:0:
119,229,108003,6,0,P|155:239|191:229,1,75,0|0,1:0|0:0,0:0:0:0:
242,160,108329,2,0,P|278:151|314:161,1,75,0|0,1:0|0:0,0:0:0:0:
365,232,108655,2,0,P|400:241|436:231,2,75,0|0|0,1:0|1:0|1:0,0:0:0:0:
365,232,109144,1,0,3:0:0:0:
280,262,109307,6,0,L|297:340,2,75,2|0|0,1:2|3:0|1:0,0:0:0:0:
209,206,109796,1,2,0:0:0:0:
209,206,109960,2,0,L|192:128,1,75,0|2,1:0|0:0,0:0:0:0:
103,145,110286,2,0,L|52:80,1,75,2|0,3:2|3:0,0:0:0:0:
27,188,110612,6,0,L|35:314,1,120,2|0,0:0|0:0,0:0:0:0:
102,357,111101,1,2,0:0:0:0:
102,357,111427,1,0,0:0:0:0:
249,152,111916,6,0,L|240:92,2,60,2|0|0,0:3|0:0|0:0,0:0:0:0:
308,210,112405,2,0,L|317:274,1,60,2|0,0:3|0:0,0:0:0:0:
373,330,112731,1,0,0:0:0:0:
445,287,112894,6,0,L|489:276,2,40,2|0|0,0:0|0:0|0:0,0:0:0:0:
413,266,113220,2,0,P|398:206|436:152,1,120,2|0,0:0|0:0,0:0:0:0:
426,158,113710,5,0,0:0:0:0:
443,76,113873,2,0,P|407:47|375:40,1,60,2|0,0:0|0:0,0:0:0:0:
359,118,114199,2,0,P|322:112|287:124,1,60,2|0,0:0|0:0,0:0:0:0:
329,195,114525,5,4,0:0:0:0:
329,195,115177,1,4,0:0:0:0:
190,289,115503,1,0,1:0:0:0:
259,336,115666,1,0,3:0:0:0:
259,336,115829,6,0,L|337:335,1,75,4|0,0:0|0:0,0:0:0:0:
377,265,116155,2,0,L|411:192,2,75,0|0|2,1:0|0:0|0:0,0:0:0:0:
333,335,116644,1,0,0:0:0:0:
296,261,116807,2,0,L|264:193,2,75,0|0|2,1:0|0:0|0:0,0:0:0:0:
333,335,117296,1,0,0:0:0:0:
415,335,117460,2,0,L|502:312,2,75,0|0|2,1:0|0:0|0:0,0:0:0:0:
333,335,117948,1,0,0:0:0:0:
250,330,118112,2,0,L|163:307,1,75,0|0,1:0|0:0,0:0:0:0:
111,261,118438,6,0,P|94:296|96:334,1,75,0|0,1:0|0:0,0:0:0:0:
177,310,118764,2,0,P|194:275|191:236,1,75,0|0,1:0|0:0,0:0:0:0:
181,157,119090,2,0,L|191:77,1,75,0|0,1:0|0:0,0:0:0:0:
266,112,119416,2,0,L|256:191,1,75,0|0,1:0|0:0,0:0:0:0:
342,199,119742,5,0,1:0:0:0:
407,130,119905,1,0,1:0:0:0:
476,193,120068,1,0,1:0:0:0:
411,261,120231,1,0,1:0:0:0:
342,199,120394,6,0,L|300:188,3,37.5,0|0|0|0,1:0|1:0|1:0|1:0,0:0:0:0:
269,217,120720,2,0,L|226:233,3,37.5,0|0|0|0,1:0|3:0|3:0|3:0,0:0:0:0:
194,206,121046,5,4,0:0:0:0:
252,317,121210,1,4,0:0:0:0:
99,220,121536,5,4,3:2:0:0:
202,68,121862,1,4,3:2:0:0:
285,229,122188,1,4,3:2:0:0:
285,229,122677,6,0,L|312:73,1,150,4|0,0:3|0:0,0:0:0:0:
384,117,123166,2,0,B|412:145|412:145|457:153,2,75,0|2|0,0:0|0:0|0:0,0:0:0:0:
310,81,123655,6,0,B|256:67|217:107|217:107|180:57,1,150,4|0,3:2|1:0,0:0:0:0:
114,32,124144,1,0,0:0:0:0:
114,32,124307,2,0,P|71:27|32:42,2,75,0|0|0,3:0|0:0|1:0,0:0:0:0:
82,108,124796,6,0,L|54:183,1,75,0|0,0:0|3:0,0:0:0:0:
36,258,125123,2,0,L|114:244,1,75,0|0,0:0|1:0,0:0:0:0:
189,222,125449,2,0,L|138:160,1,75,0|0,0:0|3:0,0:0:0:0:
161,84,125775,5,0,0:0:0:0:
82,108,125938,2,0,B|39:108|39:108|-1:85,1,75,0|0,1:0|0:0,0:0:0:0:
141,164,126264,2,0,B|185:175|185:175|216:163|216:163|247:151|247:151|290:157,1,150,4|0,3:2|1:0,0:0:0:0:
252,232,126753,5,0,0:0:0:0:
306,294,126916,2,0,P|349:302|383:290,2,75,0|0|0,3:0|0:0|1:0,0:0:0:0:
227,320,127405,2,0,L|152:344,1,75,0|0,0:0|3:0,0:0:0:0:
132,263,127731,2,0,L|52:254,2,75,0|0|0,0:0|1:0|0:0,0:0:0:0:
93,173,128220,1,2,0:0:0:0:
175,192,128383,1,0,3:0:0:0:
175,192,128546,2,0,L|246:158,1,75,0|0,1:0|3:0,0:0:0:0:
289,227,128873,6,0,P|281:266|293:310,1,75,0|0,3:0|0:0,0:0:0:0:
363,267,129199,2,0,P|371:228|359:184,1,75,0|0,1:0|0:0,0:0:0:0:
288,227,129525,2,0,L|208:256,1,75,0|0,3:0|0:0,0:0:0:0:
120,197,129851,2,0,L|190:171,1,75,0|0,1:0|0:0,0:0:0:0:
239,104,130177,6,0,P|241:63|219:28,1,75,0|0,3:0|0:0,0:0:0:0:
158,82,130503,2,0,P|112:67|62:87,1,75,0|0,1:0|0:0,0:0:0:0:
108,150,130829,2,0,P|72:161|50:190,2,75,0|0|0,3:0|0:0|1:0,0:0:0:0:
123,228,131318,5,0,0:0:0:0:
54,274,131481,2,0,L|105:340,1,75,0|0,3:2|0:0,0:0:0:0:
178,307,131807,2,0,L|229:241,1,75,0|0,1:0|0:0,0:0:0:0:
301,274,132133,2,0,L|352:340,2,75,0|0|0,1:0|1:0|1:0,0:0:0:0:
284,192,132623,6,0,L|284:151,2,37.5,0|0|0,3:0|3:0|1:0,0:0:0:0:
301,274,132949,1,0,1:0:0:0:
363,219,133112,1,0,3:0:0:0:
284,192,133275,1,0,1:0:0:0:
284,192,133601,6,0,L|126:209,1,150,4|0,0:0|0:0,0:0:0:0:
56,183,134090,2,0,L|82:343,1,150,4|0,3:2|1:0,0:0:0:0:
80,331,134579,1,0,0:0:0:0:
151,290,134742,2,0,L|228:281,2,75,0|0|0,3:0|0:0|1:0,0:0:0:0:
170,209,135231,6,0,L|219:144,1,75,0|0,0:0|3:0,0:0:0:0:
277,203,135557,2,0,L|368:246,1,75,0|0,0:0|1:0,0:0:0:0:
380,160,135883,2,0,L|425:100,1,75,0|0,0:0|3:0,0:0:0:0:
380,29,136210,5,0,0:0:0:0:
425,100,136373,2,0,P|465:106|514:92,1,75,0|0,1:0|0:0,0:0:0:0:
380,29,136699,2,0,P|342:81|366:161,1,150,4|0,3:2|1:0,0:0:0:0:
363,158,137188,1,0,0:0:0:0:
306,217,137351,2,0,P|263:236|222:231,2,75,0|0|0,3:0|0:0|1:0,0:0:0:0:
253,153,137840,6,0,L|164:122,1,75,0|0,0:0|3:0,0:0:0:0:
152,51,138166,2,0,L|81:26,2,75,0|0|0,0:0|1:0|0:0,0:0:0:0:
182,128,138655,1,2,0:0:0:0:
129,191,138818,2,0,L|106:227,2,37.5,0|0|0,3:0|3:0|1:0,0:0:0:0:
182,128,139144,1,0,3:0:0:0:
203,207,139307,6,0,P|210:247|246:276,1,75,2|0,0:0|0:0,0:0:0:0:
283,205,139633,2,0,P|319:197|371:209,1,75,0|0,1:0|0:0,0:0:0:0:
398,274,139960,2,0,P|362:282|310:270,1,75,0|0,3:0|0:0,0:0:0:0:
442,209,140286,2,0,P|467:236|472:272,1,75,0|0,1:0|0:0,0:0:0:0:
356,202,140612,6,0,L|336:122,1,75,0|0,3:0|0:0,0:0:0:0:
271,68,140938,2,0,L|191:88,1,75,0|0,1:0|0:0,0:0:0:0:
175,169,141264,2,0,L|195:249,2,75,0|0|0,3:0|0:0|1:0,0:0:0:0:
175,169,141753,1,0,0:0:0:0:
103,127,141916,6,0,P|93:81|110:42,1,75,0|0,3:2|0:0,0:0:0:0:
176,89,142242,2,0,P|217:95|269:82,1,75,0|0,1:0|0:0,0:0:0:0:
313,37,142568,2,0,P|331:83|322:123,2,75,0|0|0,1:0|3:0|1:0,0:0:0:0:
213,15,143057,2,0,L|164:13,2,37.5,0|0|0,3:0|3:0|1:0,0:0:0:0:
249,89,143383,5,0,1:0:0:0:
266,169,143546,1,0,3:0:0:0:
284,249,143710,1,0,1:0:0:0:
284,249,144036,2,0,B|207:251|207:251|138:290,1,150,4|0,0:0|0:0,0:0:0:0:
231,332,144525,6,0,L|389:330,1,150,4|0,3:2|1:0,0:0:0:0:
428,262,145014,1,0,0:0:0:0:
393,186,145177,2,0,L|306:189,2,75,0|0|0,3:0|0:0|1:0,0:0:0:0:
433,114,145666,6,0,P|420:73|380:38,1,75,0|0,0:0|3:0,0:0:0:0:
316,50,145992,2,0,P|292:78|282:114,1,75,0|0,0:0|1:0,0:0:0:0:
318,188,146318,2,0,L|393:186,1,75,0|0,0:0|3:0,0:0:0:0:
455,328,146644,5,0,0:0:0:0:
395,271,146807,1,0,1:0:0:0:
474,249,146970,1,0,0:0:0:0:
317,348,147133,6,0,L|304:187,1,150,4|0,3:2|1:0,0:0:0:0:
251,134,147623,1,0,0:0:0:0:
196,195,147786,2,0,P|148:205|104:188,2,75,0|0|0,3:0|0:0|1:0,0:0:0:0:
123,199,148275,6,0,L|88:280,1,75,0|0,0:0|3:0,0:0:0:0:
152,358,148601,2,0,L|181:289,1,75,0|0,0:0|1:0,0:0:0:0:
264,236,148927,2,0,P|316:257|393:183,1,150,0|0,0:0|0:0,0:0:0:0:
314,172,149416,1,0,1:0:0:0:
264,236,149579,5,0,0:0:0:0:
232,159,149742,2,0,P|220:122|225:73,2,75,2|0|0,0:0|0:0|1:0,0:0:0:0:
264,236,150231,1,0,0:0:0:0:
182,224,150394,2,0,P|143:199|123:159,2,75,2|0|0,0:0|0:0|1:0,0:0:0:0:
264,236,150883,5,0,0:0:0:0:
311,168,151046,2,0,P|339:141|384:121,2,75,2|0|0,0:0|0:0|1:0,0:0:0:0:
264,236,151536,1,0,0:0:0:0:
346,236,151699,2,0,P|398:227|433:235,2,75,2|0|0,0:0|0:0|1:0,0:0:0:0:
346,236,152188,1,0,1:0:0:0:
298,314,152351,6,0,L|211:331,1,75,0|0,1:0|3:0,0:0:0:0:
219,235,152677,2,0,L|145:287,1,75,0|0,1:0|3:0,0:0:0:0:
120,194,153003,2,0,L|66:268,2,75,0|0|0,1:0|1:0|1:0,0:0:0:0:
108,112,153492,6,0,L|81:72,2,37.5,0|0|0,3:0|3:0|1:0,0:0:0:0:
184,142,153818,1,0,1:0:0:0:
184,142,154144,2,0,B|238:137|238:137|279:145|279:145|348:141,1,150,4|0,0:0|3:0,0:0:0:0:
386,78,154633,1,0,1:0:0:0:
460,41,154796,1,0,3:0:0:0:
302,55,154960,6,0,L|211:62,1,75,0|0,1:0|3:0,0:0:0:0:
305,143,155286,2,0,L|396:150,1,75,0|0,1:0|3:0,0:0:0:0:
298,229,155612,1,0,1:0:0:0:
215,234,155775,1,0,1:0:0:0:
259,303,155938,1,0,3:0:0:0:
298,229,156101,6,0,L|339:231,2,37.5,0|0|0,3:0|3:0|1:0,0:0:0:0:
215,234,156427,1,0,1:0:0:0:
215,234,156753,1,4,0:0:0:0:
215,234,157079,6,0,P|169:242|134:234,2,75,0|2|0,0:0|0:0|0:0,0:0:0:0:
298,229,157568,2,0,P|327:264|338:299,1,75,4|0,3:2|0:0,0:0:0:0:
257,159,157894,2,0,P|273:115|297:88,1,75,0|0,1:0|0:0,0:0:0:0:
215,234,158220,2,0,L|64:230,1,150,0|0,3:0|1:0,0:0:0:0:
23,158,158710,5,2,0:0:0:0:
23,158,158873,2,0,P|68:130|91:107,1,75,2|0,3:2|0:0,0:0:0:0:
163,154,159199,2,0,P|182:108|182:65,1,75,0|0,1:0|0:0,0:0:0:0:
278,114,159525,1,0,3:0:0:0:
370,33,159688,5,8,0:0:0:0:
370,33,159851,1,8,0:0:0:0:
380,152,160014,5,2,0:0:0:0:
380,152,160177,2,0,P|424:154|457:143,1,75,2|0,3:2|0:0,0:0:0:0:
471,287,160503,2,0,P|480:251|502:221,1,75,0|0,1:0|0:0,0:0:0:0:
343,228,160829,2,0,P|369:254|386:288,1,75,0|0,3:0|0:0,0:0:0:0:
480,141,161155,6,0,P|459:110|367:130,1,112.5,0|0,1:0|0:0,0:0:0:0:
354,128,161481,2,0,L|200:81,1,150,2|0,3:2|1:0,0:0:0:0:
93,81,161970,2,0,L|86:125,1,37.5,2|2,0:0|0:0,0:0:0:0:
115,148,162133,2,0,L|258:191,1,150,2|0,3:2|3:0,0:0:0:0:
309,288,162623,6,0,L|308:327,2,37.5,2|2|2,0:0|0:0|3:2,0:0:0:0:
345,214,162949,1,0,0:0:0:0:
262,221,163112,2,0,P|220:237|191:270,1,75,0|0,1:0|0:0,0:0:0:0:
129,199,163438,2,0,P|110:239|155:336,1,150,0|0,3:0|1:0,0:0:0:0:
241,354,163927,6,0,L|253:312,1,37.5,0|0,0:0|0:0,0:0:0:0:
285,294,164090,2,0,L|376:305,1,75,2|0,3:2|0:0,0:0:0:0:
475,307,164416,2,0,L|419:380,1,75,0|0,1:0|0:0,0:0:0:0:
423,242,164742,2,0,L|468:182,1,75,0|0,3:0|0:3,0:0:0:0:
424,112,165068,1,0,1:0:0:0:
357,62,165231,6,0,L|320:105,1,37.5,0|0,0:0|0:0,0:0:0:0:
291,98,165394,2,0,P|251:92|214:103,1,75,2|0,3:2|0:0,0:0:0:0:
257,174,165720,2,0,P|293:183|329:176,1,75,0|0,3:0|0:0,0:0:0:0:
171,175,166046,2,0,P|164:211|173:247,1,75,2|0,3:2|0:0,0:0:0:0:
218,100,166373,2,0,P|224:63|215:27,1,75,0|0,3:2|0:0,0:0:0:0:
132,61,166699,6,0,B|105:25|105:25|88:93,1,112.5,0|0,3:0|0:0,0:0:0:0:
56,117,167025,2,0,L|113:232,1,112.5,2|2,0:0|0:0,0:0:0:0:
90,256,167351,2,0,P|78:307|151:377,1,150,2|0,3:2|3:0,0:0:0:0:
176,292,167840,6,0,L|221:288,1,37.5,0|0,0:0|0:0,0:0:0:0:
247,311,168003,2,0,B|320:321|320:321|298:287,1,112.5,0|0,3:0|0:0,0:0:0:0:
333,265,168329,2,0,L|471:266,1,112.5,2|2,0:0|0:0,0:0:0:0:
466,229,168655,2,0,P|486:192|449:92,1,150,2|0,3:2|3:0,0:0:0:0:
453,95,169144,5,0,0:0:0:0:
346,109,169307,2,0,L|331:74,3,37.5,0|0|0|0,3:0|0:0|0:0|0:0,0:0:0:0:
326,141,169633,2,0,L|225:143,1,75,0|0,3:0|3:0,0:0:0:0:
191,208,169960,6,0,B|173:252|189:265|204:279|189:332,1,120,2|0,0:0|0:0,0:0:0:0:
111,294,170449,1,4,0:0:0:0:
262,234,170775,1,4,0:0:0:0:
262,234,171264,6,0,P|301:251|380:215,1,120,2|0,0:0|0:0,0:0:0:0:
416,153,171753,1,4,0:0:0:0:
224,159,172079,1,4,0:0:0:0:
224,159,172568,6,0,B|193:97|193:97|203:56,2,90,2|2|0,0:0|0:0|0:0,0:0:0:0:
148,207,173220,6,0,L|135:276,1,60,2|0,0:0|0:0,0:0:0:0:
218,305,173546,2,0,L|230:247,1,60,0|0,0:0|0:0,0:0:0:0:
315,285,173873,2,0,L|302:354,1,60,2|0,0:0|0:0,0:0:0:0:
385,383,174199,2,0,L|397:325,1,60,0|0,0:0|0:0,0:0:0:0:
463,269,174525,5,2,0:0:0:0:
463,269,174688,1,2,0:0:0:0:
463,269,175177,6,0,L|421:148,1,120,2|0,0:0|0:0,0:0:0:0:
440,74,175666,1,4,0:0:0:0:
366,257,175992,1,4,0:0:0:0:
366,257,176318,5,0,0:0:0:0:
296,206,176481,2,0,P|238:186|166:219,1,120,2|0,0:0|0:0,0:0:0:0:
146,279,176970,1,4,0:0:0:0:
326,282,177296,1,4,0:0:0:0:
326,282,177786,6,0,B|358:281|358:281|386:288|386:288|426:288,2,90,2|2|0,0:0|0:0|0:0,0:0:0:0:
238,313,178438,5,4,0:0:0:0:
222,304,179090,1,4,0:0:0:0:
207,294,179742,1,4,0:0:0:0:
169,217,180068,5,0,1:0:0:0:
100,259,180231,2,0,L|67:263,2,30,0|0|0,3:0|3:0|1:0,0:0:0:0:
169,217,180557,1,0,0:0:0:0:
240,177,180720,1,0,1:0:0:0:
311,134,180883,2,0,L|344:130,1,30,0|0,3:0|3:0,0:0:0:0:
371,110,181046,5,4,0:0:0:0:
486,217,181373,1,0,3:0:0:0:
339,262,181699,1,0,3:0:0:0:
311,182,181862,1,0,3:0:0:0:
283,103,182025,1,0,1:0:0:0:
283,103,182351,6,0,P|251:107|218:103,2,60,0|0|0,3:0|3:0|1:0,0:0:0:0:
344,42,182840,1,2,0:0:0:0:
344,42,183166,1,2,0:0:0:0:
212,33,183492,5,2,0:0:0:0:
153,93,183655,2,0,L|75:75,1,60,0|0,3:0|0:0,0:0:0:0:
23,123,183981,1,0,1:0:0:0:
147,245,184307,1,0,3:0:0:0:
190,176,184470,1,0,3:0:0:0:
234,111,184633,1,0,1:0:0:0:
309,262,184960,5,0,3:0:0:0:
309,262,185123,2,0,L|378:269,1,60,0|0,3:0|1:0,0:0:0:0:
434,210,185449,1,2,0:0:0:0:
434,210,185775,1,2,0:0:0:0:
371,74,186101,5,2,0:0:0:0:
355,155,186264,2,0,P|318:141|288:104,1,75,0|0,1:0|0:0,0:0:0:0:
251,195,186590,2,0,P|216:152|209:116,1,75,0|0,1:0|0:0,0:0:0:0:
139,187,186916,2,0,P|125:145|132:99,1,75,0|0,1:0|0:0,0:0:0:0:
46,123,187242,2,0,P|56:79|84:47,1,75,0|0,1:0|0:0,0:0:0:0:
166,36,187568,5,0,1:0:0:0:
166,36,187731,1,0,1:0:0:0:
272,62,187894,1,0,1:0:0:0:
272,62,188057,1,0,1:0:0:0:
187,68,188220,6,0,L|151:90,3,37.5,0|0|0|0,1:0|1:0|1:0|1:0,0:0:0:0:
149,131,188546,2,0,L|113:153,3,37.5,0|0|0|0,1:0|3:0|3:0|3:0,0:0:0:0:
92,185,188873,5,4,0:0:0:0:
92,185,189036,1,4,0:0:0:0:
138,343,189362,1,4,3:2:0:0:
258,230,189688,1,4,3:2:0:0:
358,350,190014,5,0,1:0:0:0:
405,282,190177,1,4,0:0:0:0:
452,214,190340,1,4,0:0:0:0:
287,204,190666,1,4,3:2:0:0:
367,59,190992,1,4,3:2:0:0:
202,60,191318,5,0,1:0:0:0:
234,135,191481,1,4,0:0:0:0:
268,209,191644,1,4,0:0:0:0:
173,344,191970,1,4,3:2:0:0:
75,211,192296,1,4,3:2:0:0:
151,64,192623,1,0,1:0:0:0:
160,54,193112,6,0,P|210:73|68:112,1,450,4|4,0:0|0:1,0:0:0:0:
304,98,198003,6,0,L|480:74,2,168.750006437302,0|0|0,3:0|3:0|3:0,0:0:0:0:
191,46,199307,6,0,L|71:44,1,112.500004291535,0|0,0:0|3:0,0:0:0:0:
151,144,199960,2,0,L|263:145,1,112.500004291535,0|0,0:0|3:0,0:0:0:0:
191,246,200612,6,0,L|71:244,1,112.500004291535,0|0,0:0|3:0,0:0:0:0:
151,344,201265,2,0,L|263:345,1,112.500004291535,0|0,0:0|3:0,0:0:0:0:
364,274,201916,5,4,0:0:0:0:
377,261,202568,1,4,0:0:0:0:
416,179,202894,5,0,0:0:0:0:
416,179,203057,2,0,L|430:142,2,37.5,0|0|0,3:0|3:0|1:0,0:0:0:0:
336,222,203383,1,0,0:0:0:0:
269,165,203546,1,0,1:0:0:0:
190,203,203710,2,0,P|179:239|181:281,1,75,0|0,0:0|1:0,0:0:0:0:
197,113,204036,6,0,P|170:108|117:116,2,75,0|2|0,0:0|1:2|0:0,0:0:0:0:
269,165,204525,2,0,P|318:158|378:70,1,150,4|0,3:2|1:0,0:0:0:0:
307,37,205014,1,0,0:0:0:0:
307,37,205177,2,0,L|209:12,2,75,0|0|0,3:0|0:0|1:0,0:0:0:0:
376,82,205666,6,0,B|416:96|416:96|473:98,1,75,0|0,0:0|3:0,0:0:0:0:
463,178,205992,2,0,B|431:205|431:205|401:253,1,75,0|0,0:0|1:0,0:0:0:0:
335,209,206318,2,0,B|327:168|327:168|300:117,1,75,0|0,0:0|3:0,0:0:0:0:
308,37,206644,5,0,0:0:0:0:
235,96,206807,2,0,P|194:100|153:93,1,75,0|0,1:0|0:0,0:0:0:0:
98,34,207133,2,0,P|77:66|131:174,1,150,4|0,3:2|1:0,0:0:0:0:
160,95,207623,1,0,0:0:0:0:
109,163,207786,2,0,L|69:240,2,75,0|0|0,3:0|0:0|1:0,0:0:0:0:
136,305,208275,6,0,L|194:363,1,75,0|0,0:0|3:0,0:0:0:0:
301,346,208601,2,0,L|247:292,1,75,0|0,0:0|1:0,0:0:0:0:
247,292,208927,1,0,0:0:0:0:
362,292,209090,2,0,P|401:297|444:288,2,75,2|0|0,0:0|3:0|1:0,0:0:0:0:
362,292,209579,1,0,3:0:0:0:
404,213,209742,6,0,L|423:127,1,75,2|0,0:0|0:0,0:0:0:0:
362,80,210068,2,0,L|272:60,1,75,0|0,1:0|0:0,0:0:0:0:
221,112,210394,2,0,L|131:88,1,75,0|0,3:0|0:0,0:0:0:0:
71,120,210720,2,0,L|54:193,1,75,0|0,1:0|0:0,0:0:0:0:
95,264,211046,6,0,P|140:274|176:264,1,75,0|0,3:0|0:0,0:0:0:0:
233,216,211373,2,0,P|269:209|305:219,1,75,0|0,1:0|0:0,0:0:0:0:
268,295,211699,2,0,P|262:332|272:368,2,75,0|0|0,3:0|0:0|1:0,0:0:0:0:
345,323,212188,5,0,0:0:0:0:
345,323,212351,2,0,L|431:334,1,75,0|0,3:2|0:0,0:0:0:0:
505,242,212677,2,0,L|419:253,1,75,0|0,1:0|0:0,0:0:0:0:
355,172,213003,1,0,1:0:0:0:
401,104,213166,1,0,1:0:0:0:
442,175,213329,1,0,1:0:0:0:
397,244,213492,6,0,L|400:288,2,37.5,0|0|0,3:0|3:0|1:0,0:0:0:0:
355,172,213818,1,0,1:0:0:0:
287,124,213981,1,0,3:0:0:0:
204,117,214144,1,0,1:0:0:0:
204,117,214470,6,0,P|147:170|58:151,1,150,4|0,0:0|0:0,0:0:0:0:
204,117,214960,2,0,L|387:114,1,150,4|0,3:2|1:0,0:0:0:0:
414,58,215449,1,0,0:0:0:0:
479,108,215612,2,0,L|481:196,2,75,0|0|0,3:0|0:0|1:0,0:0:0:0:
392,175,216101,6,0,P|353:184|313:185,1,75,0|0,0:0|3:0,0:0:0:0:
248,140,216427,2,0,L|249:53,1,75,0|0,0:0|1:0,0:0:0:0:
174,182,216753,2,0,P|136:180|100:171,1,75,0|0,0:0|3:0,0:0:0:0:
244,224,217079,5,0,0:0:0:0:
188,285,217242,1,0,1:0:0:0:
267,305,217405,1,0,0:0:0:0:
244,224,217568,2,0,L|206:72,1,150,4|0,3:2|1:0,0:0:0:0:
207,78,218057,1,0,0:0:0:0:
297,130,218220,2,0,P|335:139|375:130,2,75,0|0|0,3:0|0:0|1:0,0:0:0:0:
207,78,218710,6,0,L|123:65,1,75,0|0,0:0|3:0,0:0:0:0:
157,166,219036,2,0,L|110:224,1,75,0|0,0:0|1:0,0:0:0:0:
214,256,219362,2,0,B|191:350|191:350|234:312,1,150,0|0,0:0|0:0,0:0:0:0:
291,259,219851,1,0,1:0:0:0:
366,292,220014,5,0,0:0:0:0:
366,292,220177,2,0,P|407:296|447:284,2,75,2|0|0,0:0|0:0|1:0,0:0:0:0:
291,259,220666,1,0,0:0:0:0:
291,259,220829,2,0,P|250:255|210:267,2,75,2|0|0,0:0|0:0|1:0,0:0:0:0:
396,212,221318,5,0,0:0:0:0:
396,212,221481,2,0,P|400:171|388:131,2,75,2|0|0,0:0|0:0|1:0,0:0:0:0:
298,165,221970,1,0,0:0:0:0:
298,165,222133,2,0,P|294:124|306:84,2,75,2|0|0,0:0|0:0|1:0,0:0:0:0:
323,243,222623,1,0,1:0:0:0:
241,227,222786,6,0,L|152:242,1,75,0|0,1:0|3:0,0:0:0:0:
100,137,223112,2,0,L|173:149,1,75,0|0,1:0|3:0,0:0:0:0:
79,219,223438,2,0,L|-10:234,2,75,0|0|0,1:0|1:0|1:0,0:0:0:0:
99,139,223927,6,0,L|86:92,2,37.5,0|0|0,3:0|3:0|1:0,0:0:0:0:
164,198,224253,1,0,1:0:0:0:
164,198,224579,2,0,B|198:180|198:180|235:200|273:180|273:180|322:203,1,150,4|0,0:0|3:0,0:0:0:0:
368,143,225068,2,0,L|293:101,1,75,0|0,1:0|3:0,0:0:0:0:
302,194,225394,6,0,P|313:236|341:266,1,75,0|0,1:0|3:0,0:0:0:0:
270,325,225720,2,0,L|169:317,1,75,0|0,1:0|3:0,0:0:0:0:
140,247,226046,2,0,P|162:217|169:180,1,75,0|0,1:0|1:0,0:0:0:0:
240,138,226373,1,0,3:0:0:0:
247,55,226536,6,0,L|250:11,2,37.5,0|0|0,3:0|3:0|1:0,0:0:0:0:
240,138,226862,1,0,1:0:0:0:
240,138,227188,2,0,B|207:205|207:205|249:257|249:257|202:346,1,225,4|0,0:0|0:0,0:0:0:0:
210,330,228003,6,0,L|296:328,1,75,0|0,1:0|0:0,0:0:0:0:
318,240,228329,2,0,L|403:237,1,75,0|0,1:0|0:0,0:0:0:0:
456,171,228655,1,0,1:0:0:0:
456,171,228818,1,0,1:0:0:0:
456,171,229307,6,0,L|421:258,1,75,0|0,1:0|0:0,0:0:0:0:
318,240,229633,2,0,L|283:327,1,75,0|0,1:0|0:0,0:0:0:0:
198,356,229960,1,0,1:0:0:0:
198,356,230123,1,0,1:0:0:0:
198,356,230612,6,0,P|186:312|202:263,1,75,0|0,1:0|0:0,0:0:0:0:
227,203,230938,2,0,P|239:159|223:110,1,75,0|0,1:0|0:0,0:0:0:0:
191,59,231264,1,0,1:0:0:0:
191,59,231427,1,0,1:0:0:0:
233,130,231590,1,0,1:0:0:0:
151,132,231753,1,0,3:0:0:0:
274,57,231916,5,0,1:0:0:0:
274,57,232079,1,0,1:0:0:0:
323,214,232405,1,4,0:0:0:0:
437,95,232731,6,0,P|448:57|438:11,2,75,0|2|0,0:0|0:0|0:0,0:0:0:0:
372,145,233220,6,0,L|290:159,1,75,4|0,3:2|0:0,0:0:0:0:
214,225,233546,2,0,L|296:239,1,75,2|0,0:0|0:0,0:0:0:0:
355,304,233873,2,0,L|201:343,1,150,2|0,0:0|0:0,0:0:0:0:
209,340,234362,1,2,0:0:0:0:
147,286,234525,6,0,L|60:270,1,75,0|0,0:0|0:0,0:0:0:0:
33,178,234851,2,0,L|111:193,1,75,2|0,0:0|0:0,0:0:0:0:
95,98,235177,2,0,L|40:37,1,75
220,8,235503,2,0,L|176:69,1,75,2|0,0:0|0:0,0:0:0:0:
219,153,235829,6,0,L|274:88,1,75,4|0,0:0|0:0,0:0:0:0:
316,180,236155,2,0,L|371:245,1,75,2|0,0:0|0:0,0:0:0:0:
406,147,236481,2,0,B|470:74|470:74|476:137,1,150,2|0,0:0|0:0,0:0:0:0:
475,126,236970,1,2,0:0:0:0:
463,214,237133,6,0,L|468:295,1,75,0|0,0:0|0:0,0:0:0:0:
404,343,237460,2,0,P|354:352|307:335,1,75,2|0,0:0|0:0,0:0:0:0:
278,276,237786,2,0,P|228:267|181:284,1,75,0|0,0:0|0:0,0:0:0:0:
153,342,238112,2,0,P|103:351|56:334,1,75,2|0,0:0|0:0,0:0:0:0:
25,283,238438,5,4,0:0:0:0:
56,207,239090,1,4,0:0:0:0:
87,130,239742,1,4,0:0:0:0:
120,56,240394,1,4,0:0:0:0:
200,23,241046,6,0,L|268:77,1,75,0|0,1:0|3:0,0:0:0:0:
210,137,241373,2,0,L|278:191,1,75,0|0,1:0|0:0,0:0:0:0:
215,244,241699,1,0,1:0:0:0:
125,195,241862,2,0,L|75:186,5,37.5,0|0|0|0|2|2,0:0|0:0|3:0|3:0|3:2|0:0,0:0:0:0:
151,182,242351,5,4,3:2:0:0:
120,343,242840,1,4,0:0:0:0:
