osu file format v14

[General]
AudioFilename: Yui Ogura-Honey Come!!.mp3
AudioLeadIn: 0
PreviewTime: 44904
Countdown: 0
SampleSet: Soft
StackLeniency: 0.7
Mode: 0
LetterboxInBreaks: 0
WidescreenStoryboard: 0

[Editor]
DistanceSpacing: 1
BeatDivisor: 4
GridSize: 4
TimelineZoom: 1.7

[Metadata]
Title:Honey Come!!
TitleUnicode:Honey♥Come!!
Artist:Ogura Yui
ArtistUnicode:小倉唯
Creator:Doormat
Version:Normal
Source:城下町のダンデライオン
Tags:joukamachi no dandelion castle town ed ending full size hikari sakurada 櫻田光 oomori shouko 大森祥子 ookubo kaoru 大久保薫 shunryu 俊龍
BeatmapID:776334
BeatmapSetID:350963

[Difficulty]
HPDrainRate:4
CircleSize:3.2
OverallDifficulty:4
ApproachRate:5
SliderMultiplier:1.2
SliderTickRate:1

[Events]
//Background and Video events
0,0,"dande_background.jpg",0,0
//Break Periods
2,89941,93759
2,194289,198106
//Storyboard Layer 0 (Background)
//Storyboard Layer 1 (Fail)
//Storyboard Layer 2 (Pass)
//Storyboard Layer 3 (Foreground)
//Storyboard Sound Samples

[TimingPoints]
1046,326.086956521739,4,2,1,80,1,0
10176,-100,4,2,1,95,0,0
11480,-100,4,2,1,60,0,0
16698,-100,4,2,2,60,0,0
20611,-100,4,2,1,60,0,0
21915,-100,4,2,1,70,0,0
27132,-100,4,2,2,70,0,0
29741,-100,4,2,1,70,0,0
29986,-100,4,2,3,50,0,0
30149,-100,4,2,1,70,0,0
30638,-100,4,2,3,50,0,0
30801,-100,4,2,1,70,0,0
32350,-100,4,2,1,50,0,0
37567,-100,4,2,1,70,0,0
45393,-100,4,2,1,90,0,1
50611,-100,4,2,2,90,0,1
54524,-100,4,2,1,90,0,1
54768,-100,4,2,3,70,0,1
54931,-100,4,2,1,90,0,1
55339,-100,4,2,1,90,0,0
55828,-100,4,2,1,90,0,1
61045,-100,4,2,2,90,0,1
64959,-100,4,2,1,90,0,1
65203,-100,4,2,3,70,0,1
65366,-100,4,2,1,90,0,1
65774,-100,4,2,1,90,0,0
66263,-100,4,2,1,90,0,1
79306,-100,4,2,1,80,0,0
88437,-100,4,2,1,95,0,0
89741,-100,4,2,1,60,0,0
94959,-100,4,2,2,60,0,0
98872,-100,4,2,1,60,0,0
100176,-100,4,2,1,70,0,0
105393,-100,4,2,2,70,0,0
108002,-100,4,2,1,70,0,0
110611,-100,4,2,1,50,0,0
115828,-100,4,2,1,70,0,0
123654,-100,4,2,1,90,0,1
128872,-100,4,2,2,90,0,1
132785,-100,4,2,1,90,0,1
133029,-100,4,2,3,70,0,1
133192,-100,4,2,1,90,0,1
133600,-100,4,2,1,90,0,0
134089,-100,4,2,1,90,0,1
139306,-100,4,2,2,90,0,1
143219,-100,4,2,1,90,0,1
143464,-100,4,2,3,70,0,1
143627,-100,4,2,1,90,0,1
144035,-100,4,2,1,90,0,0
144524,-100,4,2,1,90,0,1
157567,-100,4,2,1,90,0,0
159605,-100,4,2,2,90,0,0
159931,-100,4,2,1,90,0,0
162214,-100,4,2,2,90,0,0
162540,-100,4,2,1,90,0,0
164823,-100,4,2,2,90,0,0
165149,-100,4,2,1,90,0,0
170448,-100,4,2,1,50,0,0
181045,-100,4,2,2,60,0,0
186263,-100,4,2,1,60,0,0
194089,-100,4,2,1,40,0,0
199306,-100,4,2,1,70,0,0
203464,-100,4,2,3,50,0,0
203627,-100,4,2,1,70,0,0
204524,-100,4,2,1,90,0,1
209741,-100,4,2,2,90,0,1
213654,-100,4,2,1,90,0,1
213899,-100,4,2,3,70,0,1
214062,-100,4,2,1,90,0,1
214469,-100,4,2,1,90,0,0
214959,-100,4,2,1,90,0,1
233219,-100,4,2,1,80,0,0

[Colours]
Combo1 : 16,153,205
Combo2 : 105,58,160
Combo3 : 208,136,2
Combo4 : 251,226,87
Combo5 : 255,195,210
Combo6 : 179,149,201
Combo7 : 204,20,46
Combo8 : 75,183,131

[HitObjects]
412,84,1046,6,0,L|420:172,1,60,4|2,0:0|0:0,0:0:0:0:
360,128,1372,2,0,L|349:187,1,60,2|2,0:0|0:0,0:0:0:0:
297,157,1698,2,0,P|241:173|184:156,1,120,2|0,0:0|0:0,0:0:0:0:
128,132,2187,2,0,P|92:124|4:224,1,180,2|0,0:0|0:0,0:0:0:0:
88,304,3002,1,0,0:0:0:0:
176,220,3328,1,2,0:0:0:0:
283,277,3654,6,0,L|360:320,1,60,4|2,0:0|0:0,0:0:0:0:
343,247,3980,2,0,L|401:260,1,60,2|2,0:0|0:0,0:0:0:0:
395,200,4306,2,0,P|412:144|394:88,1,120,2|0,0:0|0:0,0:0:0:0:
340,60,4795,2,0,P|268:44|172:120,1,180,2|0,0:0|0:0,0:0:0:0:
144,212,5611,1,0,0:0:0:0:
256,168,5937,1,2,0:0:0:0:
217,281,6263,5,4,0:0:0:0:
444,208,6915,1,4,0:0:0:0:
208,160,7567,1,4,0:0:0:0:
388,319,8219,1,4,0:0:0:0:
320,88,8872,6,0,P|256:72|192:84,1,120,4|8,0:0|0:0,0:0:0:0:
254,188,9524,2,0,P|190:206|141:248,1,120,0|8,0:0|0:0,0:0:0:0:
243,308,10176,1,2,0:1:0:0:
352,351,10502,1,2,0:1:0:0:
335,233,10828,1,2,0:1:0:0:
335,233,11480,5,4,0:0:0:0:
308,120,11806,1,8,0:0:0:0:
419,154,12132,2,0,P|432:200|392:288,1,120,0|8,0:0|0:0,0:0:0:0:
372,312,12622,2,0,P|290:336|227:278,1,180,0|8,0:0|0:0,0:0:0:0:
246,158,13437,2,0,P|292:195|308:252,1,120,0|8,0:0|0:0,0:0:0:0:
352,140,14089,5,0,0:0:0:0:
416,244,14415,1,8,0:0:0:0:
468,137,14741,2,0,P|476:76|444:24,1,120,0|8,0:0|0:0,0:0:0:0:
387,40,15230,2,0,P|302:64|217:37,1,180,0|8,0:0|0:0,0:0:0:0:
100,60,16045,1,0,0:0:0:0:
85,179,16371,1,8,0:0:0:0:
195,132,16698,5,4,0:0:0:0:
312,108,17024,2,0,P|372:100|444:120,2,120,8|0|8,0:0|0:0|0:0,0:0:0:0:
336,225,18002,1,4,0:0:0:0:
219,249,18328,2,0,P|159:257|87:237,2,120,8|0|8,0:0|0:0|0:0,0:0:0:0:
243,366,19306,5,4,0:0:0:0:
332,288,19632,2,0,P|304:236|298:177,1,120,8|0,0:0|0:0,0:0:0:0:
328,60,20285,1,8,0:0:0:0:
427,131,20611,2,0,P|455:183|461:242,1,120,0|8,0:0|0:0,0:0:0:0:
376,328,21263,2,0,P|323:356|264:362,1,120,0|0,0:0|1:0,0:0:0:0:
156,312,21915,5,4,0:0:0:0:
125,195,22242,1,8,0:0:0:0:
244,200,22567,2,0,P|301:214|359:200,1,120,0|8,0:0|0:0,0:0:0:0:
411,170,23056,2,0,P|439:114|375:22,1,180,0|8,0:0|0:0,0:0:0:0:
308,120,23872,1,0,0:0:0:0:
268,8,24198,1,8,0:0:0:0:
152,28,24524,5,0,0:0:0:0:
46,88,24850,1,8,0:0:0:0:
150,149,25176,2,0,P|209:164|281:152,1,120,0|8,0:0|0:0,0:0:0:0:
323,138,25665,2,0,P|410:139|472:201,1,180,0|8,0:0|0:0,0:0:0:0:
454,318,26480,2,0,P|400:295|365:248,1,120,0|8,0:0|0:0,0:0:0:0:
323,138,27132,5,4,0:0:0:0:
244,48,27459,2,0,L|105:38,2,120,8|0|8,0:0|0:0|0:0,0:0:0:0:
323,138,28437,1,4,0:0:0:0:
436,184,28763,2,0,L|448:308,2,120,8|0|8,0:0|0:0|0:0,0:0:0:0:
322,222,29741,6,0,P|216:249|128:155,2,240
243,134,31372,1,8,0:0:0:0:
331,54,31698,2,0,L|343:141,1,60,0|0,0:0|0:0,0:0:0:0:
391,86,32024,2,0,L|403:173,1,60,8|0,0:0|0:0,0:0:0:0:
451,118,32350,6,0,B|473:235|473:235|507:290,2,180,4|0|0,0:0|0:0|0:0,0:0:0:0:
343,166,33654,2,0,B|365:283|365:283|399:338,2,180,2|2|0,1:2|1:2|0:0,0:0:0:0:
234,214,34959,6,0,P|120:239|39:150,1,240,4|0,0:0|0:0,0:0:0:0:
156,120,35937,1,0,0:0:0:0:
272,88,36263,2,0,P|331:79|389:90,1,120,4|2,0:0|0:0,0:0:0:0:
390,212,36915,2,0,P|330:221|272:210,1,120,4|0,0:0|1:0,0:0:0:0:
184,128,37567,5,4,0:0:0:0:
124,140,37730,2,0,L|116:212,2,60,2|10|0,0:0|0:0|0:0,0:0:0:0:
220,212,38382,2,0,L|212:284,2,60,2|10|0,0:0|0:0|0:0,0:0:0:0:
340,212,39035,2,0,L|348:284,2,60,2|10|0,0:0|0:0|0:0,0:0:0:0:
436,140,39687,2,0,L|444:212,2,60,2|10|0,0:0|0:0|0:0,0:0:0:0:
395,96,40176,6,0,P|336:103|277:98,1,120,4|8,0:0|0:0,0:0:0:0:
160,76,40828,2,0,L|76:72,1,60,0|0,0:0|0:0,0:0:0:0:
112,132,41154,2,0,L|29:149,1,60,8|0,0:0|0:0,0:0:0:0:
80,198,41480,1,4,0:0:0:0:
176,272,41806,1,8,0:0:0:0:
292,236,42132,2,0,P|351:230|410:238,1,120,0|8,0:0|0:0,0:0:0:0:
452,128,42785,6,0,L|376:116,1,60,8|8,0:0|0:0,0:0:0:0:
276,96,43274,2,0,P|218:98|173:137,2,120,8|8|8,0:0|0:0|0:0,0:0:0:0:
276,96,44415,1,2,0:1:0:0:
276,96,44904,2,0,L|285:173,1,60,2|2,0:0|0:0,0:0:0:0:
342,164,45230,1,0,0:0:0:0:
396,140,45393,6,0,P|454:152|512:139,1,120,4|8,0:0|0:0,0:0:0:0:
480,256,46045,2,0,P|421:242|363:254,1,120,0|8,0:0|0:0,0:0:0:0:
252,296,46698,1,0,0:0:0:0:
272,178,47024,1,8,0:0:0:0:
158,219,47350,2,0,P|100:229|42:216,1,120,0|10,0:0|0:0,0:0:0:0:
99,319,48002,5,4,0:0:0:0:
219,339,48328,1,8,0:0:0:0:
275,231,48654,1,0,0:0:0:0:
189,144,48980,1,8,0:0:0:0:
78,198,49306,2,0,P|31:243|18:301,1,120,0|8,0:0|0:0,0:0:0:0:
135,299,49959,2,0,L|219:287,1,60
172,235,50285,2,0,L|238:182,1,60,8|0,0:0|0:0,0:0:0:0:
163,177,50611,6,0,L|171:51,1,120,0|8,0:0|0:0,0:0:0:0:
288,92,51263,2,0,L|295:211,1,120,0|8,0:0|0:0,0:0:0:0:
403,153,51915,1,0,0:0:0:0:
461,260,52242,1,8,0:0:0:0:
353,318,52568,1,0,0:0:0:0:
295,211,52893,1,8,0:0:0:0:
229,314,53219,6,0,P|171:323|114:304,1,120,0|8,0:0|0:0,0:0:0:0:
180,208,53872,2,0,P|131:173|105:120,1,120,0|8,0:0|0:0,0:0:0:0:
218,96,54524,2,0,P|306:94|370:155,1,180,0|0,1:0|0:0,0:0:0:0:
264,204,55339,2,0,L|248:280,1,60,2|2,0:0|0:0,0:0:0:0:
264,320,55665,1,2,0:0:0:0:
324,308,55828,6,0,P|380:324|437:308,1,120,4|8,0:0|0:0,0:0:0:0:
460,192,56480,1,0,0:0:0:0:
401,85,56806,1,8,0:0:0:0:
284,56,57132,2,0,P|227:70|186:112,1,120,0|8,0:0|0:0,0:0:0:0:
136,224,57785,1,0,0:0:0:0:
206,322,58111,1,10,0:0:0:0:
320,285,58437,6,0,P|392:276|448:300,1,120,4|8,0:0|0:0,0:0:0:0:
388,180,59089,2,0,P|331:197|272:186,1,120,0|8,0:0|0:0,0:0:0:0:
168,128,59741,1,0,0:0:0:0:
109,232,60067,1,8,0:0:0:0:
213,291,60393,2,0,L|276:324,1,60,0|0,0:0|0:0,0:0:0:0:
272,260,60719,2,0,L|343:257,1,60,8|0,0:0|0:0,0:0:0:0:
307,203,61045,6,0,P|328:144|320:84,1,120,0|8,0:0|0:0,0:0:0:0:
428,144,61698,2,0,P|421:203|442:258,1,120,0|8,0:0|0:0,0:0:0:0:
348,332,62350,2,0,P|284:320|224:332,2,120,0|8|0,0:0|0:0|0:0,0:0:0:0:
332,212,63328,1,8,0:0:0:0:
316,92,63654,6,0,P|380:104|440:92,2,120,0|8|0,0:0|0:0|0:0,0:0:0:0:
204,52,64632,1,8,0:0:0:0:
128,146,64959,2,0,P|125:257|200:280,1,180,0|0,1:0|0:0,0:0:0:0:
248,184,65774,2,0,L|312:184,1,60,2|2,0:0|0:0,0:0:0:0:
364,208,66100,1,2,0:0:0:0:
350,265,66263,6,0,P|404:308|472:312,1,120,4|8,0:0|0:0,0:0:0:0:
448,196,66915,2,0,P|458:127|427:66,1,120,0|8,0:0|0:0,0:0:0:0:
338,146,67567,1,0,0:0:0:0:
356,28,67893,1,8,0:0:0:0:
255,91,68219,2,0,P|200:104|124:92,1,120,0|10,0:0|0:0,0:0:0:0:
44,24,68872,6,0,L|32:152,1,120,4|8,0:0|0:0,0:0:0:0:
148,112,69524,2,0,L|169:238,1,120,0|8,0:0|0:0,0:0:0:0:
245,141,70176,1,2,0:0:0:0:
364,168,70502,1,10,0:0:0:0:
268,240,70828,1,2,0:0:0:0:
387,267,71154,1,10,0:0:0:0:
289,339,71480,6,0,P|230:344|177:318,1,120,2|8,0:0|0:0,0:0:0:0:
252,228,72132,2,0,P|217:179|213:120,1,120,2|8,0:0|0:0,0:0:0:0:
329,141,72785,2,0,P|388:135|441:161,1,120,2|8,0:0|0:0,0:0:0:0:
366,252,73437,2,0,P|400:300|404:359,1,120,2|8,0:0|0:0,0:0:0:0:
290,339,74089,5,2,0:0:0:0:
241,227,74415,1,10,0:0:0:0:
168,325,74741,2,0,P|128:356|96:356,1,60,2|2,0:0|0:0,0:0:0:0:
108,300,75067,2,0,P|57:293|35:271,1,60,10|10,0:0|0:0,0:0:0:0:
83,239,75393,2,0,P|52:199|52:166,1,60,10|10,0:0|0:0,0:0:0:0:
48,75,75882,2,0,P|132:69|164:147,1,180,10|0,0:0|0:0,0:0:0:0:
236,244,76698,5,2,0:0:0:0:
283,133,77024,1,10,0:0:0:0:
354,229,77350,2,0,P|393:260|426:260,1,60,2|2,0:0|0:0,0:0:0:0:
413,203,77676,2,0,P|464:195|486:173,1,60,10|10,0:0|0:0,0:0:0:0:
438,142,78002,2,0,P|469:101|469:69,1,60,10|10,0:0|0:0,0:0:0:0:
355,53,78491,2,0,P|279:89|290:173,1,180,10|2,0:0|0:0,0:0:0:0:
184,108,79306,6,0,L|194:49,1,60,4|2,0:0|0:0,0:0:0:0:
144,84,79632,2,0,L|123:27,1,60,2|2,0:0|0:0,0:0:0:0:
97,83,79959,2,0,P|68:108|56:192,1,120,2|0,0:0|0:0,0:0:0:0:
84,236,80448,2,0,P|168:261|254:237,1,180,2|0,0:0|0:0,0:0:0:0:
356,168,81263,1,0,0:0:0:0:
392,52,81589,1,2,0:0:0:0:
474,141,81915,6,0,L|496:212,1,60,4|2,0:0|0:0,0:0:0:0:
432,196,82241,2,0,L|415:268,1,60,2|2,0:0|0:0,0:0:0:0:
368,222,82567,2,0,P|332:220|272:148,1,120,2|0,0:0|0:0,0:0:0:0:
235,115,83056,2,0,P|151:124|116:216,1,180,2|0,0:0|0:0,0:0:0:0:
176,303,83872,2,0,P|206:253|199:195,1,120,0|2,0:0|0:0,0:0:0:0:
280,288,84524,5,4,0:0:0:0:
396,76,85176,1,4,0:0:0:0:
426,315,85828,1,4,0:0:0:0:
261,139,86480,1,4,0:0:0:0:
497,184,87132,6,0,P|485:239|429:283,1,120,4|8,0:0|0:0,0:0:0:0:
379,176,87785,2,0,P|322:161|284:116,1,120,0|8,0:0|0:0,0:0:0:0:
386,58,88437,1,2,0:1:0:0:
485,122,88763,1,2,0:1:0:0:
379,176,89089,1,2,0:1:0:0:
379,176,89741,5,4,0:0:0:0:
379,176,94959,5,4,0:0:0:0:
280,244,95285,2,0,L|295:363,2,120,8|0|8,0:0|0:0|0:0,0:0:0:0:
171,192,96262,1,4,0:0:0:0:
161,72,96589,2,0,L|50:25,2,120,8|0|8,0:0|0:0|0:0,0:0:0:0:
260,3,97567,5,4,0:0:0:0:
369,55,97893,2,0,P|400:120|400:180,1,120
391,284,98545,1,0,0:0:0:0:
288,344,98872,2,0,P|231:358|172:341,1,120,0|8,0:0|0:0,0:0:0:0:
176,224,99524,2,0,P|233:209|290:225,1,120,0|0,0:0|1:0,0:0:0:0:
404,268,100176,5,4,0:0:0:0:
432,152,100502,1,8,0:0:0:0:
340,72,100828,2,0,L|212:64,1,120,0|8,0:0|0:0,0:0:0:0:
160,64,101317,2,0,B|132:192|132:192|144:240,1,180,0|8,0:0|0:0,0:0:0:0:
188,352,102132,1,0,0:0:0:0:
300,307,102458,1,8,0:0:0:0:
255,194,102784,5,0,0:0:0:0:
330,98,103111,1,8,0:0:0:0:
233,23,103437,2,0,L|112:16,1,120,0|8,0:0|0:0,0:0:0:0:
58,44,103926,2,0,P|67:128|149:149,1,180,0|8,0:0|0:0,0:0:0:0:
240,68,104741,2,0,P|298:55|355:72,1,120,0|8,0:0|0:0,0:0:0:0:
444,152,105393,5,4,0:0:0:0:
363,241,105719,2,0,P|414:270|473:271,2,120,8|0|8,0:0|0:0|0:0,0:0:0:0:
274,160,106698,1,4,0:0:0:0:
248,277,107024,2,0,P|196:306|137:307,2,120,8|0|8,0:0|0:0|0:0,0:0:0:0:
300,168,108002,6,0,L|227:52,1,120,0|8,0:0|0:0,0:0:0:0:
210,183,108654,2,0,L|137:67,1,120,0|8,0:0|0:0,0:0:0:0:
40,24,109306,1,0,0:0:0:0:
42,145,109632,1,8,0:0:0:0:
104,248,109959,2,0,L|144:308,1,60,0|0,0:0|0:0,0:0:0:0:
176,252,110285,2,0,L|246:266,1,60,8|0,0:0|0:0,0:0:0:0:
229,203,110611,6,0,B|347:184|347:184|408:200,2,180,4|0|0,0:0|0:0|0:0,0:0:0:0:
240,84,111915,2,0,B|358:65|358:65|419:81,2,180,2|2|0,1:2|1:2|0:0,0:0:0:0:
129,121,113219,6,0,P|89:229|166:320,1,240,4|0,0:0|0:0,0:0:0:0:
203,210,114198,1,0,0:0:0:0:
300,146,114524,1,4,0:0:0:0:
390,219,114850,1,2,0:0:0:0:
348,328,115176,2,0,P|304:352|224:336,1,120,4|0,0:0|1:0,0:0:0:0:
140,272,115828,5,4,0:0:0:0:
92,236,115991,2,0,L|80:164,2,60,2|10|0,0:0|0:0|0:0,0:0:0:0:
204,192,116643,2,0,L|192:120,2,60,2|10|0,0:0|0:0|0:0,0:0:0:0:
316,148,117295,2,0,L|306:207,2,60,2|10|0,0:0|0:0|0:0,0:0:0:0:
428,192,117948,2,0,L|416:264,2,60,2|10|0,0:0|0:0|0:0,0:0:0:0:
436,132,118437,5,4,0:0:0:0:
344,56,118763,1,8,0:0:0:0:
232,97,119089,2,0,P|192:120|168:152,1,60,0|0,0:0|0:0,0:0:0:0:
232,164,119415,2,0,P|208:203|204:243,1,60,8|0,0:0|0:0,0:0:0:0:
265,222,119741,2,0,P|340:236|400:232,1,120,4|8,0:0|0:0,0:0:0:0:
312,328,120393,2,0,P|252:327|193:340,1,120,0|8,0:0|0:0,0:0:0:0:
72,348,121045,6,0,L|13:336,1,60,8|8,0:0|0:0,0:0:0:0:
84,240,121535,2,0,B|144:252|144:252|201:240,2,120,8|8|8,0:0|0:0|0:0,0:0:0:0:
84,240,122676,1,2,0:1:0:0:
84,240,123165,2,0,L|72:316,1,60,2|2,0:0|0:0,0:0:0:0:
128,328,123491,1,0,0:0:0:0:
176,292,123654,6,0,P|233:307|290:292,1,120,4|8,0:0|0:0,0:0:0:0:
400,244,124306,1,0,0:0:0:0:
386,362,124632,1,8,0:0:0:0:
495,314,124958,1,0,0:0:0:0:
508,195,125284,1,8,0:0:0:0:
399,244,125611,2,0,P|340:252|281:242,1,120,0|10,0:0|0:0,0:0:0:0:
288,360,126263,6,0,P|346:350|406:358,2,120,4|8|0,0:0|0:0|0:0,0:0:0:0:
172,384,127241,1,8,0:0:0:0:
113,281,127567,1,0,0:0:0:0:
192,193,127893,1,8,0:0:0:0:
300,240,128219,2,0,P|348:256|380:256,1,60,0|0,0:0|0:0,0:0:0:0:
348,196,128545,2,0,P|397:185|425:169,1,60,8|0,0:0|0:0,0:0:0:0:
367,133,128872,6,0,P|408:96|416:32,2,120,0|8|0,0:0|0:0|0:0,0:0:0:0:
250,104,129850,1,8,0:0:0:0:
158,178,130176,2,0,L|172:316,1,120,0|8,0:0|0:0,0:0:0:0:
284,268,130828,2,0,L|296:148,1,120,0|8,0:0|0:0,0:0:0:0:
409,118,131480,5,0,0:0:0:0:
377,231,131806,1,8,0:0:0:0:
490,201,132132,1,0,0:0:0:0:
458,314,132458,1,8,0:0:0:0:
343,343,132785,2,0,P|241:303|252:224,1,180,0|0,1:0|0:0,0:0:0:0:
360,232,133600,2,0,L|424:212,1,60,2|2,0:0|0:0,0:0:0:0:
452,164,133926,1,2,0:0:0:0:
419,115,134089,5,4,0:0:0:0:
302,80,134415,1,8,0:0:0:0:
184,115,134741,2,0,P|116:132|52:116,1,120,0|8,0:0|0:0,0:0:0:0:
80,244,135393,2,0,P|137:227|196:235,2,120,0|8|0,0:0|0:0|0:0,0:0:0:0:
144,344,136372,1,10,0:0:0:0:
264,339,136698,6,0,P|318:317|358:272,1,120,4|8,0:0|0:0,0:0:0:0:
253,222,137350,2,0,P|277:167|273:108,1,120,0|8,0:0|0:0,0:0:0:0:
162,147,138002,2,0,P|140:90|96:51,1,120,0|8,0:0|0:0,0:0:0:0:
45,158,138654,2,0,P|36:212|44:244,1,60,0|0,0:0|0:0,0:0:0:0:
96,220,138980,2,0,P|115:271|138:294,1,60,8|0,0:0|0:0,0:0:0:0:
171,248,139306,6,0,P|229:259|288:249,2,120,0|8|0,0:0|0:0|0:0,0:0:0:0:
236,348,140285,1,8,0:0:0:0:
351,317,140611,1,0,0:0:0:0:
357,198,140937,1,8,0:0:0:0:
244,154,141263,2,0,P|185:142|126:152,1,120,0|8,0:0|0:0,0:0:0:0:
192,52,141915,6,0,P|250:63|309:53,2,120,0|8|0,0:0|0:0|0:0,0:0:0:0:
76,24,142893,1,8,0:0:0:0:
48,140,143219,2,0,P|51:212|156:248,1,180,0|0,1:0|0:0,0:0:0:0:
156,136,144035,2,0,L|205:101,1,60,2|2,0:0|0:0,0:0:0:0:
264,112,144361,1,2,0:0:0:0:
283,170,144524,6,0,P|352:188|416:184,1,120,4|8,0:0|0:0,0:0:0:0:
324,280,145176,2,0,P|264:280|206:296,1,120,0|8,0:0|0:0,0:0:0:0:
96,340,145828,1,0,0:0:0:0:
20,248,146154,1,8,0:0:0:0:
137,228,146480,1,0,0:0:0:0:
61,136,146806,1,10,0:0:0:0:
178,115,147132,6,0,L|304:104,1,120,4|8,0:0|0:0,0:0:0:0:
248,216,147785,2,0,L|128:205,1,120,0|8,0:0|0:0,0:0:0:0:
178,317,148437,1,2,0:0:0:0:
299,329,148763,1,10,0:0:0:0:
370,229,149089,1,2,0:0:0:0:
248,216,149415,1,10,0:0:0:0:
319,116,149741,6,0,P|384:104|444:132,1,120,2|8,0:0|0:0,0:0:0:0:
370,229,150393,2,0,P|382:294|354:354,1,120,2|8,0:0|0:0,0:0:0:0:
257,280,151045,2,0,P|191:292|131:264,1,120,2|8,0:0|0:0,0:0:0:0:
206,167,151698,2,0,P|225:111|212:53,1,120,2|8,0:0|0:0,0:0:0:0:
99,104,152350,5,2,0:0:0:0:
97,228,152676,1,10,0:0:0:0:
204,291,153002,2,0,L|264:316,1,60,2|2,0:0|0:0,0:0:0:0:
268,256,153328,2,0,L|332:264,1,60,10|10,0:0|0:0,0:0:0:0:
320,205,153654,2,0,L|384:196,1,60,10|10,0:0|0:0,0:0:0:0:
287,119,154143,2,0,P|200:139|112:120,1,180,10|0,0:0|0:0,0:0:0:0:
176,220,154959,5,2,0:0:0:0:
295,217,155285,1,10,0:0:0:0:
237,322,155611,2,0,L|177:347,1,60,2|2,0:0|0:0,0:0:0:0:
173,287,155937,2,0,L|109:295,1,60,10|10,0:0|0:0,0:0:0:0:
121,236,156263,2,0,L|57:227,1,60,10|10,0:0|0:0,0:0:0:0:
154,151,156752,2,0,P|240:170|328:151,1,180,10|2,0:0|0:0,0:0:0:0:
444,116,157567,6,0,P|468:168|472:188,1,60,6|0,0:0|0:0,0:0:0:0:
420,208,157893,2,0,P|400:261|388:278,1,60,10|0,0:0|0:0,0:0:0:0:
336,256,158219,2,0,P|280:273|224:255,1,120,2|10,0:0|0:0,0:0:0:0:
116,196,158872,2,0,P|92:144|88:124,1,60,2|0,0:0|0:0,0:0:0:0:
140,104,159198,2,0,P|160:51|172:34,1,60,10|0,0:0|0:0,0:0:0:0:
222,55,159524,2,0,P|273:31|294:28,2,60,2|10|10,0:0|0:0|0:0,0:0:0:0:
296,148,160176,6,0,L|308:220,1,60,2|0,0:0|0:0,0:0:0:0:
244,204,160502,2,0,L|218:272,1,60,10|0,0:0|0:0,0:0:0:0:
170,226,160828,2,0,P|112:248|48:240,1,120,2|10,0:0|0:0,0:0:0:0:
100,132,161480,1,2,0:0:0:0:
220,123,161806,1,10,0:0:0:0:
322,186,162132,2,0,P|380:208|444:200,1,120,2|10,0:0|0:0,0:0:0:0:
392,92,162785,6,0,L|308:72,1,60,2|0,0:0|0:0,0:0:0:0:
300,28,163111,2,0,L|217:52,1,60,10|0,0:0|0:0,0:0:0:0:
188,18,163437,2,0,L|96:114,1,120,2|10,0:0|0:0,0:0:0:0:
27,203,164089,2,0,L|111:223,1,60,2|0,0:0|0:0,0:0:0:0:
119,267,164415,2,0,L|201:242,1,60,10|0,0:0|0:0,0:0:0:0:
230,276,164741,2,0,L|289:213,2,60,2|10|10,0:0|0:0|0:0,0:0:0:0:
340,320,165393,6,0,P|384:332|416:328,1,60,2|0,0:0|0:0,0:0:0:0:
412,272,165719,2,0,P|456:260|481:240,1,60,10|0,0:0|0:0,0:0:0:0:
450,193,166045,2,0,P|468:137|449:82,1,120,2|10,0:0|0:0,0:0:0:0:
328,64,166698,5,0,0:0:0:0:
252,159,167024,1,10,0:0:0:0:
372,176,167350,1,2,0:0:0:0:
176,312,168002,5,0,0:0:0:0:
132,200,168328,1,10,0:0:0:0:
252,217,168654,1,2,0:0:0:0:
252,217,169959,6,0,L|260:344,1,120,2|8,0:0|0:0,0:0:0:0:
311,306,170448,2,0,P|368:292|422:314,1,120,4|0,1:2|1:0,0:0:0:0:
472,144,171263,6,0,L|464:17,1,120,0|0,0:0|0:0,0:0:0:0:
413,54,171752,2,0,P|355:68|301:46,1,120,4|0,1:2|1:0,0:0:0:0:
164,164,172567,2,0,L|152:68,2,90
160,224,173219,6,0,B|170:255|150:291|150:291|214:259|334:287,1,240,4|0,1:2|0:0,0:0:0:0:
452,84,174524,2,0,B|442:53|462:17|462:17|398:49|277:20,1,240,0|0,1:0|1:0,0:0:0:0:
184,76,175502,5,0,0:0:0:0:
135,115,175665,2,0,L|96:231,1,120,4|0,1:2|1:0,0:0:0:0:
244,332,176480,6,0,P|302:320|361:331,1,120,0|0,0:0|0:0,0:0:0:0:
409,291,176969,2,0,L|447:174,1,120,4|0,1:2|1:0,0:0:0:0:
276,112,177785,2,0,P|212:119|184:111,2,90
316,68,178437,5,4,0:0:0:0:
316,68,179089,1,4,0:0:0:0:
316,68,179741,2,0,L|380:180,1,120,4|0,1:2|1:0,0:0:0:0:
341,287,180393,2,0,L|304:344,1,60,0|0,1:0|0:0,0:0:0:0:
264,296,180719,2,0,L|203:326,1,60,0|0,1:0|1:0,0:0:0:0:
192,265,181045,6,0,L|124:261,2,60,0|0|8,0:0|0:0|0:0,0:0:0:0:
256,164,181698,2,0,L|225:103,2,60,0|0|8,0:0|0:0|0:0,0:0:0:0:
375,168,182350,2,0,L|444:68,1,120,0|8,0:0|0:0,0:0:0:0:
392,36,182839,2,0,P|335:52|278:37,1,120,8|8,0:0|0:0,0:0:0:0:
152,164,183654,6,0,L|103:215,2,60,0|0|8,0:0|0:0|0:0,0:0:0:0:
252,228,184306,2,0,L|272:296,2,60,0|0|8,0:0|0:0|0:0,0:0:0:0:
373,233,184959,2,0,L|490:261,1,120,0|8,0:0|0:0,0:0:0:0:
468,204,185448,2,0,P|453:147|466:89,1,120,8|8,0:0|0:0,0:0:0:0:
304,8,186263,6,0,L|296:136,1,120,0|8,0:0|0:0,0:0:0:0:
408,88,186915,2,0,L|400:207,1,120,0|8,0:0|0:0,0:0:0:0:
340,308,187567,2,0,L|208:320,1,120,0|8,0:0|0:0,0:0:0:0:
168,291,188056,2,0,P|184:224|112:140,1,180,0|8,0:0|0:0,0:0:0:0:
224,84,188872,6,0,L|252:152,1,60,8|8,0:0|0:0,0:0:0:0:
356,88,189361,2,0,P|420:92|476:124,2,120,8|8|8,0:0|0:0|0:0,0:0:0:0:
332,144,190176,2,0,L|304:212,1,60,8|8,0:0|0:0,0:0:0:0:
200,148,190665,2,0,P|136:152|80:184,2,120,8|8|8,0:0|0:0|0:0,0:0:0:0:
224,204,191480,6,0,L|252:272,1,60,8|8,0:0|0:0,0:0:0:0:
356,208,191969,2,0,P|420:212|476:244,2,120,8|8|8,0:0|0:0|0:0,0:0:0:0:
356,208,193111,1,2,0:1:0:0:
356,208,193600,2,0,L|328:276,2,60,2|2|2,0:0|0:0|0:0,0:0:0:0:
404,244,194089,5,4,0:0:0:0:
404,244,199306,6,0,L|412:116,1,120,0|10,0:0|0:0,0:0:0:0:
296,84,199959,2,0,L|303:203,1,120,0|10,0:0|0:0,0:0:0:0:
196,148,200611,1,0,0:0:0:0:
109,232,200937,1,10,0:0:0:0:
225,265,201263,1,0,0:0:0:0:
138,349,201589,1,10,0:0:0:0:
21,315,201915,6,0,P|28:248|12:184,1,120,0|2,0:0|0:0,0:0:0:0:
136,172,202567,2,0,P|124:230|132:290,1,120,0|2,0:0|0:0,0:0:0:0:
240,236,203219,2,0,P|324:220|444:316,1,240,0|0,0:0|0:0,0:0:0:0:
476,192,204198,1,10,0:0:0:0:
375,121,204524,6,0,P|315:102|255:113,1,120,4|8,0:0|0:0,0:0:0:0:
308,224,205176,2,0,P|245:237|198:276,1,120,0|8,0:0|0:0,0:0:0:0:
301,346,205828,1,0,0:0:0:0:
410,291,206154,1,8,0:0:0:0:
416,169,206480,2,0,P|416:108|380:52,1,120,0|10,0:0|0:0,0:0:0:0:
300,140,207132,6,0,P|270:191|270:250,2,120,4|8|0,0:0|0:0|0:0,0:0:0:0:
387,222,208111,1,8,0:0:0:0:
469,135,208437,1,0,0:0:0:0:
382,53,208763,1,8,0:0:0:0:
265,25,209089,2,0,P|220:24|188:32,1,60,0|0,0:0|0:0,0:0:0:0:
212,88,209415,2,0,P|179:119|162:147,1,60,8|0,0:0|0:0,0:0:0:0:
218,170,209741,6,0,P|211:229|220:288,2,120,0|8|0,0:0|0:0|0:0,0:0:0:0:
332,216,210719,1,8,0:0:0:0:
446,262,211045,2,0,P|453:202|444:143,2,120,0|8|0,0:0|0:0|0:0,0:0:0:0:
349,337,212024,1,8,0:0:0:0:
227,321,212350,6,0,P|170:313|92:330,1,120,0|8,0:0|0:0,0:0:0:0:
148,212,213002,2,0,P|206:222|266:214,1,120,0|8,0:0|0:0,0:0:0:0:
384,188,213654,2,0,P|440:128|385:67,1,180,0|0,1:0|0:0,0:0:0:0:
268,36,214469,2,0,L|216:64,1,60,10|10,0:0|0:0,0:0:0:0:
168,100,214795,1,10,0:0:0:0:
126,55,214959,6,0,B|48:36|48:36|11:52,1,120,4|8,0:0|0:0,0:0:0:0:
12,172,215611,2,0,B|90:191|90:191|134:171,1,120,0|8,0:0|0:0,0:0:0:0:
232,120,216263,1,0,0:0:0:0:
226,238,216589,1,8,0:0:0:0:
331,183,216915,2,0,P|392:164|460:172,1,120,0|10,0:0|0:0,0:0:0:0:
360,84,217567,6,0,P|300:87|243:69,1,120,4|8,0:0|0:0,0:0:0:0:
132,24,218219,2,0,L|147:142,1,120,0|8,0:0|0:0,0:0:0:0:
36,97,218872,1,2,0:0:0:0:
52,216,219198,1,10,0:0:0:0:
148,143,219524,1,2,0:0:0:0:
164,262,219850,1,10,0:0:0:0:
275,307,220176,6,0,P|336:320|392:305,1,120,2|8,0:0|0:0,0:0:0:0:
332,204,220828,2,0,P|373:157|388:101,1,120,2|8,0:0|0:0,0:0:0:0:
271,103,221480,2,0,P|210:89|153:104,1,120,2|8,0:0|0:0,0:0:0:0:
214,206,222132,2,0,P|172:252|157:308,1,120,2|8,0:0|0:0,0:0:0:0:
275,307,222785,5,2,0:0:0:0:
389,280,223111,1,10,0:0:0:0:
399,162,223437,2,0,P|404:124|396:92,1,60,2|2,0:0|0:0,0:0:0:0:
340,104,223763,2,0,P|316:73|288:56,1,60,10|10,0:0|0:0,0:0:0:0:
257,104,224089,2,0,P|219:99|186:107,1,60,10|10,0:0|0:0,0:0:0:0:
91,160,224578,2,0,P|73:241|148:288,1,180,10|0,0:0|0:0,0:0:0:0:
264,304,225393,5,2,0:0:0:0:
315,196,225719,1,10,0:0:0:0:
228,113,226045,2,0,P|193:96|160:94,1,60,2|2,0:0|0:0,0:0:0:0:
154,151,226371,2,0,P|117:164|92:185,1,60,10|10,0:0|0:0,0:0:0:0:
128,230,226697,2,0,P|111:264|108:298,1,60,10|10,0:0|0:0,0:0:0:0:
228,292,227187,2,0,P|315:311|403:294,1,180,10|0,0:0|0:0,0:0:0:0:
454,186,228002,5,4,0:0:0:0:
336,195,228328,1,8,0:0:0:0:
386,87,228654,1,8,0:0:0:0:
386,87,228817,1,0,0:0:0:0:
220,160,229306,5,4,0:0:0:0:
102,169,229632,1,8,0:0:0:0:
170,268,229958,1,8,0:0:0:0:
170,268,230122,1,0,0:0:0:0:
336,195,230611,5,4,0:0:0:0:
386,303,230937,1,8,0:0:0:0:
268,294,231263,2,0,P|220:285|193:268,1,60,0|0,0:0|0:0,0:0:0:0:
212,220,231589,2,0,P|184:180|177:148,1,60,10|8,0:0|0:0,0:0:0:0:
224,128,231915,2,0,P|232:80|249:53,1,60,4|0,0:0|0:0,0:0:0:0:
344,128,232404,2,0,B|355:159|355:159|335:203|335:203|355:239|343:299,1,180,10|2,0:0|0:0,0:0:0:0:
232,260,233219,6,0,L|152:289,1,60,4|2,0:0|0:0,0:0:0:0:
172,220,233545,2,0,L|88:228,1,60,2|2,0:0|0:0,0:0:0:0:
124,165,233872,2,0,P|100:132|116:56,1,120,2|0,0:0|0:0,0:0:0:0:
168,36,234361,2,0,B|212:28|212:28|276:64|356:36,1,180,2|0,0:0|0:0,0:0:0:0:
396,148,235176,1,0,0:0:0:0:
276,168,235502,1,2,0:0:0:0:
156,132,235828,6,0,L|76:102,1,60,4|2,0:0|0:0,0:0:0:0:
96,172,236153,2,0,L|12:164,1,60,2|2,0:0|0:0,0:0:0:0:
48,227,236480,2,0,P|24:260|40:336,1,120,2|0,0:0|0:0,0:0:0:0:
92,356,236969,2,0,B|136:364|136:364|200:328|280:356,1,180,2|0,0:0|0:0,0:0:0:0:
388,364,237785,1,0,0:0:0:0:
436,252,238111,1,2,0:0:0:0:
345,171,238437,5,4,0:0:0:0:
180,348,239089,1,4,0:0:0:0:
212,112,239741,1,4,0:0:0:0:
377,289,240393,1,4,0:0:0:0:
141,234,241045,6,0,P|80:208|44:160,1,120,4|8,0:0|0:0,0:0:0:0:
155,112,241698,2,0,L|223:84,1,60,0|0,0:0|0:0,0:0:0:0:
227,148,242024,2,0,L|299:157,1,60,8|0,0:0|0:0,0:0:0:0:
271,215,242350,6,0,B|315:232|315:232|351:212|351:212|399:224|419:296,1,180,2|6,0:1|0:1,0:0:0:0:
