osu file format v14

[General]
AudioFilename: Yui Ogura-Honey Come!!.mp3
AudioLeadIn: 0
PreviewTime: 44904
Countdown: 0
SampleSet: Soft
StackLeniency: 0.7
Mode: 0
LetterboxInBreaks: 0
WidescreenStoryboard: 0

[Editor]
DistanceSpacing: 1.2
BeatDivisor: 4
GridSize: 4
TimelineZoom: 1.7

[Metadata]
Title:Honey Come!!
TitleUnicode:Honey♥Come!!
Artist:Ogura Yui
ArtistUnicode:小倉唯
Creator:Doormat
Version:Hard
Source:城下町のダンデライオン
Tags:joukamachi no dandelion castle town ed ending full size hikari sakurada 櫻田光 oomori shouko 大森祥子 ookubo kaoru 大久保薫 shunryu 俊龍
BeatmapID:780138
BeatmapSetID:350963

[Difficulty]
HPDrainRate:5
CircleSize:4
OverallDifficulty:6
ApproachRate:8
SliderMultiplier:1.4
SliderTickRate:1

[Events]
//Background and Video events
0,0,"dande_background.jpg",0,0
//Break Periods
2,194289,198556
//Storyboard Layer 0 (Background)
//Storyboard Layer 1 (Fail)
//Storyboard Layer 2 (Pass)
//Storyboard Layer 3 (Foreground)
//Storyboard Sound Samples

[TimingPoints]
1046,326.086956521739,4,2,1,80,1,0
10176,-100,4,2,1,95,0,0
11480,-125,4,2,1,60,0,0
16698,-125,4,2,2,60,0,0
20611,-125,4,2,1,60,0,0
21915,-100,4,2,1,70,0,0
27132,-100,4,2,2,70,0,0
29741,-100,4,2,1,70,0,0
32350,-125,4,2,1,50,0,0
37567,-100,4,2,1,70,0,0
45393,-100,4,2,1,90,0,1
50611,-100,4,2,2,90,0,1
54524,-100,4,2,1,90,0,1
55339,-100,4,2,1,90,0,0
55828,-100,4,2,1,90,0,1
61045,-100,4,2,2,90,0,1
64959,-100,4,2,1,90,0,1
65774,-100,4,2,1,90,0,0
66263,-100,4,2,1,90,0,1
79306,-100,4,2,1,80,0,0
88437,-100,4,2,1,95,0,0
89741,-125,4,2,1,60,0,0
94959,-125,4,2,2,60,0,0
98872,-125,4,2,1,60,0,0
100176,-100,4,2,1,70,0,0
105393,-100,4,2,2,70,0,0
108002,-100,4,2,1,70,0,0
110611,-125,4,2,1,50,0,0
115828,-100,4,2,1,70,0,0
123654,-100,4,2,1,90,0,1
128872,-100,4,2,2,90,0,1
132785,-100,4,2,1,90,0,1
133600,-100,4,2,1,90,0,0
134089,-100,4,2,1,90,0,1
139306,-100,4,2,2,90,0,1
143219,-100,4,2,1,90,0,1
144035,-100,4,2,1,90,0,0
144524,-100,4,2,1,90,0,1
157567,-100,4,2,1,90,0,0
159605,-100,4,2,2,90,0,0
159931,-100,4,2,1,90,0,0
162214,-100,4,2,2,90,0,0
162540,-100,4,2,1,90,0,0
164823,-100,4,2,2,90,0,0
165149,-100,4,2,1,90,0,0
167431,-100,4,2,2,90,0,0
167757,-100,4,2,1,90,0,0
168736,-100,4,2,2,90,0,0
169062,-100,4,2,1,90,0,0
170448,-125,4,2,1,50,0,0
181045,-100,4,2,2,60,0,0
186263,-100,4,2,1,60,0,0
194089,-100,4,2,1,40,0,0
199306,-100,4,2,1,70,0,0
204524,-100,4,2,1,90,0,1
209741,-100,4,2,2,90,0,1
213654,-100,4,2,1,90,0,1
214469,-100,4,2,1,90,0,0
214959,-100,4,2,1,90,0,1
233219,-100,4,2,1,80,0,0

[Colours]
Combo1 : 16,153,205
Combo2 : 105,58,160
Combo3 : 208,136,2
Combo4 : 251,226,87
Combo5 : 255,195,210
Combo6 : 179,149,201
Combo7 : 204,20,46
Combo8 : 75,183,131

[HitObjects]
384,276,1046,6,0,L|288:292,1,70,4|2,0:0|0:0,0:0:0:0:
323,182,1372,2,0,L|419:166,1,70,2|2,0:0|0:0,0:0:0:0:
332,82,1698,2,0,P|264:99|226:157,1,140,2|0,0:0|0:0,0:0:0:0:
200,256,2187,6,0,P|168:316|102:331,1,140,2|0,0:0|0:0,0:0:0:0:
20,264,2676,1,0,0:0:0:0:
37,160,2839,1,0,0:0:0:0:
128,189,3002,2,0,P|169:184|205:164,1,70,0|2,0:0|0:0,0:0:0:0:
280,180,3328,2,0,P|311:165|346:162,1,70,2|2,0:0|0:0,0:0:0:0:
332,248,3654,6,0,L|412:260,1,70,4|2,0:0|0:0,0:0:0:0:
360,336,3980,2,0,L|280:348,1,70,2|2,0:0|0:0,0:0:0:0:
200,355,4306,2,0,P|130:364|61:352,1,140,2|0,0:0|0:0,0:0:0:0:
40,268,4795,6,0,P|55:202|112:166,1,140,2|0,0:0|0:0,0:0:0:0:
127,254,5285,1,0,0:0:0:0:
211,274,5448,1,0,0:0:0:0:
289,240,5611,2,0,P|327:226|375:222,1,70,0|2,0:0|0:0,0:0:0:0:
303,150,5937,2,0,P|268:144|235:131,1,70,2|2,0:0|0:0,0:0:0:0:
148,96,6263,6,0,P|88:76|20:124,1,140,4|0,0:0|0:0,0:0:0:0:
25,278,6915,2,0,P|82:315|148:296,1,140,4|0,0:0|0:0,0:0:0:0:
363,295,7567,2,0,P|429:315|486:278,1,140,4|0,0:0|0:0,0:0:0:0:
486,113,8219,2,0,P|429:76|363:96,1,140,4|0,0:0|0:0,0:0:0:0:
416,228,8872,6,0,L|428:304,1,70,4|0,0:0|0:0,0:0:0:0:
324,268,9198,2,0,L|334:198,1,70,8|0,0:0|0:0,0:0:0:0:
244,208,9524,2,0,L|234:278,1,70,0|0,0:0|0:0,0:0:0:0:
152,248,9850,2,0,L|140:172,1,70,8|0,0:0|0:0,0:0:0:0:
220,108,10176,5,2,0:1:0:0:
360,212,10502,1,2,0:1:0:0:
380,38,10828,2,0,P|340:28|244:80,1,140,2|0,0:1|0:0,0:0:0:0:
380,38,11317,1,0,1:0:0:0:
380,38,11399,1,0,1:0:0:0:
380,38,11480,5,4,0:0:0:0:
420,140,11806,1,8,0:0:0:0:
309,121,12132,2,0,P|282:118|254:121,2,56,0|0|8,0:0|0:0|0:0,0:0:0:0:
235,195,12622,6,0,P|191:165|179:109,1,112,0|0,0:0|0:0,0:0:0:0:
228,48,13111,2,0,P|255:51|283:48,1,56,8|8,0:0|0:0,0:0:0:0:
364,32,13437,1,0,0:0:0:0:
368,44,13763,1,8,0:0:0:0:
372,56,14089,5,0,0:0:0:0:
404,164,14415,1,8,0:0:0:0:
291,134,14741,2,0,P|265:126|242:110,2,56,0|0|8,0:0|0:0|0:0,0:0:0:0:
263,31,15230,6,0,P|207:37|170:75,1,112
160,168,15719,2,0,P|186:176|209:192,1,56,8|8,0:0|0:0,0:0:0:0:
262,272,16045,2,0,P|210:288|157:272,1,112,0|8,0:0|0:0,0:0:0:0:
272,288,16698,5,4,0:0:0:0:
272,288,17024,1,8,0:0:0:0:
340,240,17187,1,8,0:0:0:0:
388,308,17350,2,0,P|428:340|496:340,1,112,0|8,0:0|0:0,0:0:0:0:
340,240,18002,5,4,0:0:0:0:
340,240,18328,1,8,0:0:0:0:
272,192,18491,1,8,0:0:0:0:
224,260,18654,2,0,P|184:292|116:292,1,112,0|8,0:0|0:0,0:0:0:0:
272,192,19306,5,4,0:0:0:0:
272,192,19632,1,8,0:0:0:0:
340,144,19795,1,8,0:0:0:0:
388,212,19959,2,0,P|396:246|392:278,1,56,0|0,0:0|0:0,0:0:0:0:
473,304,20285,2,0,P|471:276|480:250,1,56,8|0,0:0|0:0,0:0:0:0:
454,145,20611,6,0,P|480:194|479:250,1,112,0|8,0:0|0:0,0:0:0:0:
320,320,21263,2,0,P|295:271|297:216,1,112,0|0,0:0|1:0,0:0:0:0:
456,216,21915,6,0,L|464:144,1,70,4|0,0:0|0:0,0:0:0:0:
384,176,22241,2,0,L|392:104,1,70,8|0,0:0|0:0,0:0:0:0:
312,136,22567,2,0,L|320:64,2,70,0|0|8,0:0|0:0|0:0,0:0:0:0:
240,176,23056,6,0,P|173:188|118:149,1,140,0|0,0:0|0:0,0:0:0:0:
93,68,23545,1,8,0:0:0:0:
35,129,23709,1,8,0:0:0:0:
58,209,23872,2,0,P|69:252|69:292,1,70,0|0,0:0|0:0,0:0:0:0:
151,276,24198,2,0,P|154:241|164:208,1,70,8|0,0:0|0:0,0:0:0:0:
220,128,24524,6,0,L|292:120,1,70,0|0,0:0|0:0,0:0:0:0:
250,199,24850,2,0,L|320:192,1,70,8|0,0:0|0:0,0:0:0:0:
280,270,25176,1,0,0:0:0:0:
233,331,25339,1,0,0:0:0:0:
203,260,25502,1,8,0:0:0:0:
310,341,25665,6,0,P|384:356|440:292,1,140
472,248,26154,1,8,0:0:0:0:
390,248,26317,1,8,0:0:0:0:
430,177,26480,2,0,P|441:141|439:107,1,70,0|0,0:0|0:0,0:0:0:0:
364,132,26806,2,0,P|337:105|307:90,1,70,8|0,0:0|0:0,0:0:0:0:
291,167,27132,5,4,0:0:0:0:
291,167,27459,1,8,0:0:0:0:
221,225,27622,1,8,0:0:0:0:
144,176,27785,2,0,P|76:160|19:199,1,140,0|8,0:0|0:0,0:0:0:0:
221,225,28437,5,4,0:0:0:0:
221,225,28764,1,8,0:0:0:0:
291,283,28927,1,8,0:0:0:0:
367,234,29090,2,0,P|433:219|490:256,1,140,0|8,0:0|0:0,0:0:0:0:
291,283,29741,6,0,P|225:298|168:261,2,140,0|8|0,0:0|0:0|0:0,0:0:0:0:
239,209,30556,1,0,0:0:0:0:
254,119,30719,1,8,0:0:0:0:
322,176,30882,6,0,P|387:161|402:96,1,140,0|0,0:0|0:0,0:0:0:0:
381,12,31372,1,8,0:0:0:0:
294,5,31535,1,0,0:0:0:0:
260,85,31698,2,0,L|249:168,1,70,0|0,0:0|0:0,0:0:0:0:
173,116,32024,2,0,L|163:46,1,70,8|0,0:0|0:0,0:0:0:0:
76,116,32350,6,0,P|30:145|15:198,1,112,4|0,0:0|0:0,0:0:0:0:
92,191,32839,2,0,P|106:244|151:274,1,112,0|0,0:0|0:0,0:0:0:0:
168,198,33328,2,0,L|232:188,1,56,0|0,0:0|0:0,0:0:0:0:
316,184,33654,6,0,P|362:213|377:266,1,112,2|0,1:2|0:0,0:0:0:0:
300,259,34143,2,0,P|286:312|241:342,1,112,2|0,1:2|0:0,0:0:0:0:
224,266,34632,2,0,L|160:256,1,56,0|0,0:0|0:0,0:0:0:0:
132,188,34959,6,0,B|161:178|161:178|241:192,1,112,4|0,0:0|0:0,0:0:0:0:
328,212,35448,1,2,0:0:0:0:
413,185,35611,2,0,P|448:164|472:136,1,56,0|2,0:0|0:0,0:0:0:0:
500,232,35937,2,0,P|500:272|512:307,1,56,0|2,0:0|0:0,0:0:0:0:
414,282,36263,6,0,P|368:252|304:260,1,112,4|2,0:0|0:0,0:0:0:0:
232,288,36752,1,2,0:0:0:0:
150,254,36915,2,0,P|124:246|96:243,1,56,4|0,0:0|0:0,0:0:0:0:
152,168,37241,2,0,P|178:176|206:179,1,56,0|0,1:0|1:0,0:0:0:0:
296,168,37567,5,4,0:0:0:0:
296,168,37730,2,0,L|396:164,2,70,2|10|0,0:0|0:0|0:0,0:0:0:0:
312,244,38219,1,0,0:0:0:0:
312,244,38382,2,0,L|412:240,2,70,2|10|0,0:0|0:0|0:0,0:0:0:0:
238,219,38872,5,4,0:0:0:0:
238,219,39035,2,0,L|138:215,2,70,2|10|0,0:0|0:0|0:0,0:0:0:0:
222,295,39524,1,0,0:0:0:0:
222,295,39687,2,0,L|122:291,2,70,2|10|0,0:0|0:0|0:0,0:0:0:0:
296,271,40176,6,0,P|336:264|376:268,1,70,4|0,0:0|0:0,0:0:0:0:
448,272,40502,1,8,0:0:0:0:
479,195,40666,1,8,0:0:0:0:
397,189,40828,2,0,P|362:190|327:183,1,70,0|0,0:0|0:0,0:0:0:0:
368,112,41154,2,0,P|338:92|315:67,1,70,8|0,0:0|0:0,0:0:0:0:
232,68,41480,6,0,P|209:93|180:113,1,70,4|0,0:0|0:0,0:0:0:0:
96,149,41806,1,8,0:0:0:0:
169,203,41969,1,8,0:0:0:0:
84,239,42132,2,0,P|64:273|60:321,1,70,0|0,0:0|0:0,0:0:0:0:
144,301,42459,2,0,P|147:340|172:381,1,70,8|0,0:0|0:0,0:0:0:0:
244,384,42785,5,8,0:0:0:0:
244,384,42948,1,8,0:0:0:0:
244,180,43274,2,0,L|252:100,1,70,8|0,0:0|0:0,0:0:0:0:
320,240,43600,2,0,L|328:160,1,70,8|0,0:0|0:0,0:0:0:0:
340,80,43926,6,0,P|380:57|428:173,1,210,8|2,0:0|0:1,0:0:0:0:
312,296,44904,1,2,0:0:0:0:
240,304,45067,1,2,0:0:0:0:
183,258,45230,1,2,0:0:0:0:
173,186,45393,6,0,P|208:127|276:117,1,140,4|8,0:0|0:0,0:0:0:0:
328,173,45882,1,0,0:0:0:0:
403,155,46045,2,0,P|438:147|472:152,2,70,0|0|8,0:0|0:0|0:0,0:0:0:0:
328,173,46535,6,0,B|288:192|288:192|194:170,1,140,2|2,0:0|0:0,0:0:0:0:
316,276,47187,2,0,B|222:254|222:254|182:273,1,140,2|2,0:0|0:0,0:0:0:0:
112,312,47676,1,10,0:0:0:0:
67,244,47839,1,2,0:0:0:0:
83,164,48002,6,0,P|115:105|182:95,1,140,4|8,0:0|0:0,0:0:0:0:
261,99,48491,1,2,0:0:0:0:
331,66,48654,2,0,P|364:78|388:104,2,70,0|2|8,0:0|0:0|0:0,0:0:0:0:
319,143,49143,6,0,P|374:183|439:164,1,140,2|2,0:0|0:0,0:0:0:0:
480,92,49632,1,8,0:0:0:0:
407,51,49795,1,0,0:0:0:0:
331,66,49959,2,0,P|280:70|248:62,1,70,0|0,0:0|0:0,0:0:0:0:
288,148,50285,2,0,P|322:143|357:148,1,70,8|0,0:0|0:0,0:0:0:0:
444,164,50611,6,0,B|460:256|460:256|442:299,1,140,0|8,0:0|0:0,0:0:0:0:
368,348,51100,1,0,0:0:0:0:
288,308,51263,2,0,P|248:304|196:324,1,70,0|0,0:0|0:0,0:0:0:0:
136,344,51589,2,0,P|101:351|67:346,1,70,8|0,0:0|0:0,0:0:0:0:
8,280,51915,6,0,L|0:132,1,140,0|8,0:0|0:0,0:0:0:0:
80,100,52404,1,0,0:0:0:0:
159,140,52567,2,0,L|151:279,1,140,0|8,0:0|0:0,0:0:0:0:
231,319,53057,1,0,0:0:0:0:
310,279,53219,6,0,P|378:262|444:283,1,140,0|8,0:0|0:0,0:0:0:0:
504,352,53709,1,0,0:0:0:0:
414,369,53872,2,0,L|344:376,1,70,0|0,0:0|0:0,0:0:0:0:
372,291,54198,2,0,L|302:298,1,70,8|0,0:0|0:0,0:0:0:0:
216,324,54524,6,0,P|168:332|120:320,1,70,0|0,1:0|1:0,0:0:0:0:
72,280,54850,2,0,P|41:242|27:194,1,70,8|0,1:2|1:0,0:0:0:0:
128,76,55339,1,2,0:0:0:0:
56,136,55502,1,2,0:0:0:0:
143,168,55665,1,2,0:0:0:0:
215,108,55828,6,0,P|281:85|345:108,1,140,4|8,0:0|0:0,0:0:0:0:
392,180,56317,1,0,0:0:0:0:
429,102,56480,2,0,P|449:72|476:51,2,70,0|0|8,0:0|0:0|0:0,0:0:0:0:
392,180,56969,6,0,B|376:224|376:224|392:332,1,140,2|2,0:0|0:0,0:0:0:0:
215,367,57622,2,0,B|231:323|231:323|215:215,1,140,2|2,0:0|0:0,0:0:0:0:
159,165,58111,1,10,0:0:0:0:
132,249,58274,1,2,0:0:0:0:
69,188,58437,6,0,P|5:207|0:272,1,140,4|8,0:0|0:0,0:0:0:0:
67,329,58926,1,2,0:0:0:0:
141,282,59089,2,0,P|175:273|210:276,2,70,0|2|8,0:0|0:0|0:0,0:0:0:0:
183,353,59578,6,0,P|250:352|288:297,1,140,2|2,0:0|0:0,0:0:0:0:
307,209,60067,1,8,0:0:0:0:
379,289,60230,1,0,0:0:0:0:
397,200,60393,2,0,P|407:145|423:117,1,70,0|0,0:0|0:0,0:0:0:0:
331,89,60719,2,0,P|321:144|305:172,1,70,8|0,0:0|0:0,0:0:0:0:
271,241,61045,6,0,P|240:256|120:228,1,140,0|8,0:0|0:0,0:0:0:0:
60,188,61535,1,0,0:0:0:0:
4,266,61698,2,0,L|0:348,1,70,0|0,0:0|0:0,0:0:0:0:
92,308,62024,2,0,L|88:390,1,70,8|0,0:0|0:0,0:0:0:0:
180,350,62350,6,0,P|249:346|319:335,1,140,0|8,0:0|0:0,0:0:0:0:
376,260,62839,1,0,0:0:0:0:
299,203,63002,2,0,P|229:206|159:217,1,140,0|8,0:0|0:0,0:0:0:0:
82,160,63491,1,0,0:0:0:0:
139,83,63654,6,0,B|184:64|184:64|274:71,1,140,0|8,0:0|0:0,0:0:0:0:
336,144,64143,1,0,0:0:0:0:
263,205,64306,2,0,B|218:224|218:224|128:217,1,140,0|8,0:0|0:0,0:0:0:0:
144,28,64959,6,0,P|192:20|240:32,1,70,0|0,1:0|0:0,0:0:0:0:
304,44,65285,2,0,P|334:81|348:129,1,70,8|0,1:2|1:2,0:0:0:0:
416,272,65774,1,2,0:0:0:0:
488,216,65937,1,2,0:0:0:0:
500,306,66100,1,2,0:0:0:0:
425,364,66263,6,0,P|360:344|325:283,1,140,4|8,0:0|0:0,0:0:0:0:
304,200,66752,1,0,0:0:0:0:
242,261,66915,2,0,P|207:268|175:256,2,70,0|0|8,0:0|0:0|0:0,0:0:0:0:
218,175,67404,6,0,B|239:67|239:67|271:43,1,140,2|2,0:0|0:0,0:0:0:0:
420,124,68056,2,0,B|398:231|398:231|366:255,1,140,2|2,0:0|0:0,0:0:0:0:
292,284,68545,1,10,0:0:0:0:
208,249,68708,1,2,0:0:0:0:
220,337,68872,6,0,P|280:372|360:344,1,140,4|8,0:0|0:0,0:0:0:0:
412,304,69361,1,0,0:0:0:0:
382,224,69524,2,0,P|372:188|372:140,1,70,0|0,0:0|0:0,0:0:0:0:
288,192,69850,2,0,P|286:226|276:260,1,70,8|0,0:0|0:0,0:0:0:0:
204,212,70176,5,2,0:0:0:0:
85,81,70502,1,10,0:0:0:0:
104,256,70828,1,2,0:0:0:0:
192,104,71154,1,10,0:0:0:0:
32,176,71480,6,0,P|12:208|8:252,2,70,2|0|8,0:0|0:0|0:0,0:0:0:0:
32,176,71969,1,0,0:0:0:0:
104,256,72132,2,0,P|112:292|140:326,2,70,2|0|8,0:0|0:0|0:0,0:0:0:0:
104,256,72622,1,0,0:0:0:0:
205,248,72785,6,0,P|236:267|281:272,2,70,2|0|8,0:0|0:0|0:0,0:0:0:0:
205,248,73274,1,0,0:0:0:0:
277,176,73437,2,0,P|313:167|347:139,2,70,2|0|8,0:0|0:0|0:0,0:0:0:0:
277,176,73926,1,0,0:0:0:0:
277,74,74089,5,2,0:0:0:0:
176,48,74252,1,2,0:0:0:0:
203,148,74415,2,0,P|209:185|205:229,1,70,10|2,0:0|0:0,0:0:0:0:
312,228,74741,2,0,P|311:193|317:159,2,70,2|2|10,0:0|0:0|0:0,0:0:0:0:
445,241,75230,1,10,0:0:0:0:
445,241,75393,6,0,P|451:278|447:322,1,70,10|10,0:0|0:0,0:0:0:0:
308,348,75882,2,0,P|221:312|266:231,1,210,10|0,0:0|0:0,0:0:0:0:
445,241,76698,5,2,0:0:0:0:
492,156,76861,1,2,0:0:0:0:
395,158,77024,2,0,P|357:154|316:138,1,70,10|2,0:0|0:0,0:0:0:0:
266,211,77350,2,0,P|300:219|332:234,2,70,2|2|10,0:0|0:0|0:0,0:0:0:0:
415,283,77839,1,10,0:0:0:0:
331,331,78002,6,0,P|296:346|253:353,1,70,10|10,0:0|0:0,0:0:0:0:
120,343,78491,2,0,P|55:323|56:256,1,140,10|2,0:0|0:0,0:0:0:0:
100,188,78980,1,2,0:0:0:0:
182,210,79143,1,2,0:0:0:0:
186,294,79306,6,0,P|192:336|212:376,1,70,4|2,0:0|0:0,0:0:0:0:
264,312,79632,2,0,P|291:333|323:347,1,70,2|2,0:0|0:0,0:0:0:0:
330,268,79959,2,0,P|397:288|464:271,1,140,2|0,0:0|0:0,0:0:0:0:
479,188,80448,6,0,P|448:122|386:94,1,140,2|0,0:0|0:0,0:0:0:0:
378,194,80937,1,0,0:0:0:0:
297,224,81100,1,0,0:0:0:0:
216,194,81263,2,0,P|175:186|131:194,1,70,0|2,0:0|0:0,0:0:0:0:
276,128,81589,2,0,P|310:130|344:122,1,70,2|2,0:0|0:0,0:0:0:0:
420,84,81915,6,0,L|432:172,1,70,4|2,0:0|0:0,0:0:0:0:
500,208,82241,2,0,L|509:138,1,70,2|2,0:0|0:0,0:0:0:0:
487,55,82567,2,0,P|431:11|368:31,1,140,2|0,0:0|0:0,0:0:0:0:
296,75,83056,6,0,P|277:136|336:160,1,140,2|0,0:0|0:0,0:0:0:0:
416,181,83545,1,0,0:0:0:0:
480,128,83709,1,0,0:0:0:0:
495,210,83872,2,0,P|504:256|496:292,1,70,0|2,0:0|0:0,0:0:0:0:
420,252,84198,2,0,P|384:282|349:293,1,70,2|2,0:0|0:0,0:0:0:0:
346,208,84524,6,0,L|336:60,1,140,4|0,0:0|0:0,0:0:0:0:
166,184,85176,2,0,L|156:323,1,140,4|0,0:0|0:0,0:0:0:0:
320,232,85828,2,0,L|310:84,1,140,4|0,0:0|0:0,0:0:0:0:
192,208,86480,2,0,L|182:347,1,140,4|0,0:0|0:0,0:0:0:0:
294,256,87132,6,0,P|348:248|380:252,1,70,4|0,0:0|0:0,0:0:0:0:
400,164,87459,2,0,P|365:164|330:157,1,70,8|0,0:0|0:0,0:0:0:0:
244,124,87785,1,0,0:0:0:0:
154,148,87948,1,0,0:0:0:0:
211,219,88111,2,0,P|232:252|236:292,1,70,8|0,0:0|0:0,0:0:0:0:
232,372,88437,5,2,0:1:0:0:
128,220,88763,1,2,0:1:0:0:
311,205,89089,2,0,P|313:273|272:329,1,140,2|0,0:1|0:0,0:0:0:0:
311,205,89578,1,0,1:0:0:0:
311,205,89660,1,0,1:0:0:0:
311,205,89741,5,4,0:0:0:0:
356,300,90067,1,0,0:0:0:0:
250,291,90393,2,0,P|223:289|196:281,2,56,0|0|0,0:0|0:0|0:0,0:0:0:0:
180,204,90882,6,0,P|134:233|119:285,1,112,0|0,0:0|0:0,0:0:0:0:
168,360,91372,2,0,L|232:364,1,56,0|0,0:0|0:0,0:0:0:0:
320,348,91698,1,0,0:0:0:0:
316,336,92024,1,0,0:0:0:0:
312,324,92350,5,0,0:0:0:0:
280,216,92676,1,0,0:0:0:0:
389,242,93002,2,0,P|416:248|443:245,2,56,0|0|0,0:0|0:0|0:0,0:0:0:0:
420,168,93491,6,0,P|430:114|400:68,1,112,0|0,0:0|0:0,0:0:0:0:
312,52,93980,1,0,0:0:0:0:
268,131,94143,1,0,0:0:0:0:
329,196,94306,2,0,P|358:241|348:295,1,112,0|0,0:0|0:0,0:0:0:0:
268,131,94959,5,4,0:0:0:0:
268,131,95285,1,8,0:0:0:0:
196,87,95448,1,8,0:0:0:0:
130,143,95611,2,0,P|100:189|102:249,1,112,0|8,0:0|0:0,0:0:0:0:
272,260,96263,5,4,0:0:0:0:
272,260,96589,1,8,0:0:0:0:
344,304,96752,1,8,0:0:0:0:
409,249,96915,2,0,P|439:202|437:142,1,112,0|8,0:0|0:0,0:0:0:0:
272,92,97567,5,4,0:0:0:0:
272,92,97893,1,8,0:0:0:0:
200,136,98056,1,8,0:0:0:0:
135,81,98219,2,0,P|128:48|128:16,1,56,0|0,0:0|0:0,0:0:0:0:
52,68,98545,2,0,P|50:95|44:123,1,56,8|0,0:0|0:0,0:0:0:0:
32,212,98872,6,0,P|76:244|130:214,1,112,0|8,0:0|0:0,0:0:0:0:
152,336,99524,2,0,P|201:315|244:347,1,112,0|0,0:0|1:0,0:0:0:0:
332,280,100176,6,0,L|340:200,1,70,4|0,0:0|0:0,0:0:0:0:
412,264,100502,2,0,L|420:184,1,70,8|0,0:0|0:0,0:0:0:0:
492,248,100828,2,0,L|500:168,2,70,0|0|8,0:0|0:0|0:0,0:0:0:0:
455,332,101317,6,0,P|388:341|338:296,1,140,0|0,0:0|0:0,0:0:0:0:
292,208,101806,1,8,0:0:0:0:
200,248,101969,1,8,0:0:0:0:
108,208,102132,2,0,P|72:188|52:160,1,70,0|0,0:0|0:0,0:0:0:0:
140,116,102459,2,0,P|139:74|153:43,1,70,8|0,0:0|0:0,0:0:0:0:
234,97,102785,6,0,P|272:104|308:100,1,70,0|0,0:0|0:0,0:0:0:0:
320,196,103111,2,0,P|285:193|251:199,1,70,8|0,0:0|0:0,0:0:0:0:
188,276,103437,1,0,0:0:0:0:
94,247,103600,1,0,0:0:0:0:
165,180,103763,1,8,0:0:0:0:
165,180,103926,6,0,P|98:149|35:172,1,140
52,256,104415,1,8,0:0:0:0:
133,291,104578,1,8,0:0:0:0:
220,280,104741,2,0,P|241:225|241:197,1,70
312,268,105067,2,0,P|318:302|333:333,1,70,8|0,0:0|0:0,0:0:0:0:
416,364,105393,5,4,0:0:0:0:
416,364,105719,1,8,0:0:0:0:
464,280,105882,1,8,0:0:0:0:
438,186,106045,2,0,P|432:144|488:68,1,140,0|8,0:0|0:0,0:0:0:0:
300,48,106698,5,4,0:0:0:0:
300,48,107024,1,8,0:0:0:0:
252,132,107187,1,8,0:0:0:0:
278,226,107350,2,0,P|284:268|228:344,1,140,0|8,0:0|0:0,0:0:0:0:
108,296,108002,6,0,P|102:254|158:178,2,140,0|8|0,0:0|0:0|0:0,0:0:0:0:
192,332,108817,1,0,0:0:0:0:
276,296,108980,1,8,0:0:0:0:
359,331,109143,6,0,P|424:318|439:253,1,140,0|0,0:0|0:0,0:0:0:0:
416,168,109632,1,8,0:0:0:0:
330,145,109795,1,8,0:0:0:0:
244,168,109959,2,0,P|184:180|144:176,1,70,0|0,0:0|0:0,0:0:0:0:
196,100,110285,2,0,P|138:80|105:56,1,70,8|0,0:0|0:0,0:0:0:0:
188,17,110611,6,0,B|268:12|268:12|312:32,1,112,4|0,0:0|0:0,0:0:0:0:
360,84,111100,2,0,P|400:96|440:28,1,112,0|0,0:0|0:0,0:0:0:0:
496,120,111589,2,0,L|488:188,1,56,0|0,0:0|0:0,0:0:0:0:
424,240,111915,6,0,P|404:203|327:223,1,112,2|0,1:2|0:0,0:0:0:0:
280,264,112404,2,0,P|227:272|196:229,1,112,2|0,1:2|0:0,0:0:0:0:
152,120,112893,2,0,L|136:180,1,56,0|0,0:0|0:0,0:0:0:0:
60,208,113219,6,0,B|52:175|52:175|72:99,1,112,4|0,0:0|0:0,0:0:0:0:
132,36,113709,1,2,0:0:0:0:
216,55,113872,2,0,P|264:60|288:56,1,56,0|2,0:0|0:0,0:0:0:0:
238,138,114198,2,0,P|211:138|183:143,1,56,0|2,0:0|0:0,0:0:0:0:
100,112,114524,6,0,P|98:167|130:214,1,112,4|2,0:0|0:0,0:0:0:0:
206,252,115013,1,2,0:0:0:0:
287,221,115176,2,0,P|328:204|364:204,1,56,4|0,0:0|0:0,0:0:0:0:
340,284,115502,2,0,P|375:311|393:342,1,56,0|0,1:0|1:0,0:0:0:0:
311,361,115828,5,4,0:0:0:0:
311,361,115991,2,0,L|232:368,2,70,2|10|0,0:0|0:0|0:0,0:0:0:0:
340,284,116480,1,0,0:0:0:0:
340,284,116643,2,0,L|419:291,2,70,2|10|0,0:0|0:0|0:0,0:0:0:0:
311,207,117132,5,4,0:0:0:0:
311,207,117295,2,0,L|232:214,2,70,2|10|0,0:0|0:0|0:0,0:0:0:0:
340,130,117785,1,0,0:0:0:0:
340,130,117948,2,0,L|419:137,2,70,2|10|0,0:0|0:0|0:0,0:0:0:0:
259,144,118437,6,0,P|212:152|164:148,1,70,4|0,0:0|0:0,0:0:0:0:
100,140,118763,1,8,0:0:0:0:
134,223,118926,1,8,0:0:0:0:
204,278,119089,2,0,P|252:300|284:304,1,70,0|0,0:0|0:0,0:0:0:0:
260,212,119415,2,0,P|312:220|344:216,1,70,8|0,0:0|0:0,0:0:0:0:
298,133,119741,6,0,P|350:128|380:115,1,70,4|0,0:0|0:0,0:0:0:0:
448,88,120067,1,8,0:0:0:0:
505,154,120230,1,8,0:0:0:0:
459,229,120393,2,0,P|452:276|464:320,1,70,0|0,0:0|0:0,0:0:0:0:
372,268,120719,2,0,P|375:233|368:199,1,70,8|0,0:0|0:0,0:0:0:0:
328,120,121045,5,8,0:0:0:0:
328,120,121209,1,8,0:0:0:0:
164,172,121535,2,0,P|134:190|111:216,1,70,8|0,0:0|0:0,0:0:0:0:
188,247,121861,2,0,P|164:272|148:303,1,70,8|0,0:0|0:0,0:0:0:0:
230,315,122187,6,0,P|317:264|404:313,1,210,8|2,0:0|0:1,0:0:0:0:
120,152,123165,1,2,0:0:0:0:
80,84,123328,1,2,0:0:0:0:
132,24,123491,1,2,0:0:0:0:
204,55,123654,6,0,P|272:61|331:24,1,140,4|8,0:0|0:0,0:0:0:0:
420,56,124143,1,0,0:0:0:0:
437,149,124306,2,0,P|452:192|480:220,2,70,0|0|8,0:0|0:0|0:0,0:0:0:0:
347,117,124795,6,0,P|300:136|244:212,1,140,2|2,0:0|0:0,0:0:0:0:
172,30,125448,2,0,P|134:87|72:118,1,140,2|2,0:0|0:0,0:0:0:0:
20,192,125937,1,10,0:0:0:0:
73,264,126100,1,2,0:0:0:0:
157,235,126263,6,0,P|224:236|256:295,1,140,4|8,0:0|0:0,0:0:0:0:
340,332,126752,1,2,0:0:0:0:
423,295,126915,2,0,P|464:288|508:304,2,70,0|2|8,0:0|0:0|0:0,0:0:0:0:
348,241,127404,6,0,P|281:239|249:180,1,140,2|2,0:0|0:0,0:0:0:0:
232,88,127893,1,8,0:0:0:0:
303,27,128056,1,0,0:0:0:0:
391,58,128219,2,0,P|444:68|472:64,1,70,0|0,0:0|0:0,0:0:0:0:
424,152,128545,2,0,P|389:151|355:160,1,70,8|0,0:0|0:0,0:0:0:0:
272,204,128872,6,0,P|228:220|116:208,1,140,0|8,0:0|0:0,0:0:0:0:
72,148,129361,1,0,0:0:0:0:
45,237,129524,2,0,L|40:312,1,70,0|0,0:0|0:0,0:0:0:0:
132,292,129850,2,0,L|127:367,1,70,8|0,0:0|0:0,0:0:0:0:
220,347,130176,6,0,P|280:332|380:360,1,140,0|8,0:0|0:0,0:0:0:0:
424,284,130665,1,0,0:0:0:0:
385,199,130828,2,0,P|325:214|225:186,1,140,0|8,0:0|0:0,0:0:0:0:
172,148,131317,1,0,0:0:0:0:
94,199,131480,6,0,B|80:244|80:244|98:334,1,140,0|8,0:0|0:0,0:0:0:0:
180,380,131969,1,0,0:0:0:0:
272,373,132132,2,0,L|342:374,1,70,0|0,0:0|0:0,0:0:0:0:
349,282,132459,2,0,L|278:280,1,70,8|0,0:0|0:0,0:0:0:0:
226,205,132785,6,0,P|192:192|152:192,1,70,0|0,1:0|1:0,0:0:0:0:
204,116,133111,2,0,P|238:129|278:129,1,70,8|0,1:2|1:0,0:0:0:0:
464,172,133600,1,2,0:0:0:0:
404,108,133763,1,2,0:0:0:0:
421,248,133926,1,2,0:0:0:0:
361,184,134089,6,0,P|297:158|236:188,1,140,4|8,0:0|0:0,0:0:0:0:
192,260,134578,1,0,0:0:0:0:
119,215,134741,2,0,P|72:204|32:208,2,70,0|0|8,0:0|0:0|0:0,0:0:0:0:
192,260,135230,6,0,L|344:292,1,140,2|2,0:0|0:0,0:0:0:0:
302,105,135882,2,0,L|166:134,1,140,2|2,0:0|0:0,0:0:0:0:
84,172,136372,1,10,0:0:0:0:
93,262,136535,1,2,0:0:0:0:
180,279,136698,6,0,P|246:265|262:201,1,140,4|8,0:0|0:0,0:0:0:0:
328,144,137187,1,2,0:0:0:0:
402,188,137350,2,0,P|440:200|480:196,2,70,0|2|8,0:0|0:0|0:0,0:0:0:0:
328,144,137839,6,0,P|266:114|202:140,1,140,2|2,0:0|0:0,0:0:0:0:
152,208,138328,1,8,0:0:0:0:
237,217,138491,1,0,0:0:0:0:
185,286,138654,2,0,P|176:328|188:376,1,70,0|0,0:0|0:0,0:0:0:0:
83,312,138980,2,0,P|92:278|89:243,1,70,8|0,0:0|0:0,0:0:0:0:
9,176,139306,6,0,P|68:140|141:151,1,140,0|8,0:0|0:0,0:0:0:0:
228,200,139795,1,0,0:0:0:0:
319,148,139959,2,0,P|328:100|320:64,1,70,0|0,0:0|0:0,0:0:0:0:
419,124,140285,2,0,P|417:158|426:192,1,70,8|0,0:0|0:0,0:0:0:0:
507,256,140611,6,0,P|452:296|382:289,1,140,0|8,0:0|0:0,0:0:0:0:
284,256,141100,1,0,0:0:0:0:
284,256,141263,2,0,P|215:250|159:289,1,140,0|8,0:0|0:0,0:0:0:0:
72,348,141752,1,0,0:0:0:0:
72,347,141915,6,0,P|60:278|58:209,1,140,0|8,0:0|0:0,0:0:0:0:
140,164,142404,1,0,0:0:0:0:
140,164,142567,2,0,P|137:94|126:25,1,140,0|8,0:0|0:0,0:0:0:0:
240,168,143219,6,0,P|244:208|232:248,1,70,0|0,1:0|1:0,0:0:0:0:
320,304,143545,2,0,P|316:264|328:224,1,70,8|0,1:2|1:0,0:0:0:0:
504,204,144035,1,2,0:0:0:0:
464,288,144198,1,2,0:0:0:0:
436,140,144361,1,2,0:0:0:0:
396,224,144524,6,0,P|369:253|265:229,1,140,4|8,0:0|0:0,0:0:0:0:
208,180,145013,1,0,0:0:0:0:
126,225,145176,2,0,P|88:244|32:240,2,70,0|0|8,0:0|0:0|0:0,0:0:0:0:
208,180,145665,6,0,B|244:168|244:168|356:188,1,140,2|2,0:0|0:0,0:0:0:0:
281,14,146317,2,0,B|382:32|382:32|418:20,1,140,2|2,0:0|0:0,0:0:0:0:
480,88,146806,1,10,0:0:0:0:
452,174,146969,1,2,0:0:0:0:
363,192,147132,6,0,B|320:200|320:200|227:174,1,140,4|8,0:0|0:0,0:0:0:0:
144,132,147622,1,0,0:0:0:0:
148,225,147785,2,0,P|152:268|140:312,1,70,0|0,0:0|0:0,0:0:0:0:
232,332,148111,2,0,P|226:297|231:262,1,70,8|0,0:0|0:0,0:0:0:0:
264,172,148437,5,2,0:0:0:0:
360,348,148763,1,10,0:0:0:0:
385,149,149089,1,2,0:0:0:0:
247,294,149415,1,10,0:0:0:0:
444,257,149741,6,0,P|488:248|516:252,2,70,2|0|8,0:0|0:0|0:0,0:0:0:0:
444,257,150230,1,0,0:0:0:0:
385,149,150393,2,0,P|409:111|432:94,2,70,2|0|8,0:0|0:0|0:0,0:0:0:0:
385,149,150882,1,0,0:0:0:0:
266,114,151045,6,0,P|256:70|261:41,2,70,2|0|8,0:0|0:0|0:0,0:0:0:0:
266,114,151535,1,0,0:0:0:0:
158,173,151698,2,0,P|120:148|103:125,2,70,2|0|8,0:0|0:0|0:0,0:0:0:0:
158,173,152187,1,0,0:0:0:0:
123,291,152350,5,2,0:0:0:0:
216,324,152513,1,2,0:0:0:0:
310,296,152676,2,0,P|356:288|396:292,1,70,10|2,0:0|0:0,0:0:0:0:
336,200,153002,2,0,P|290:208|250:204,2,70,2|2|10,0:0|0:0|0:0,0:0:0:0:
408,140,153491,1,10,0:0:0:0:
423,232,153654,6,0,P|422:266|429:301,1,70,10|10,0:0|0:0,0:0:0:0:
266,206,154143,2,0,P|333:262|255:306,1,210,10|0,0:0|0:0,0:0:0:0:
192,148,154958,5,2,0:0:0:0:
88,120,155122,1,2,0:0:0:0:
115,224,155285,2,0,P|120:264|108:324,1,70,10|2,0:0|0:0,0:0:0:0:
207,288,155611,2,0,P|202:248|214:188,2,70,2|2|10,0:0|0:0|0:0,0:0:0:0:
296,340,156100,1,10,0:0:0:0:
383,307,156263,6,0,P|416:300|452:302,1,70,10|10,0:0|0:0,0:0:0:0:
344,157,156752,2,0,P|400:183|421:125,1,140,10|2,0:0|0:0,0:0:0:0:
328,76,157241,1,2,0:0:0:0:
262,158,157404,1,2,0:0:0:0:
281,249,157567,6,0,P|280:294|256:336,1,70,6|0,0:0|0:0,0:0:0:0:
200,271,157893,2,0,P|176:310|134:334,1,70,10|0,0:0|0:0,0:0:0:0:
118,249,158219,2,0,P|77:271|30:271,2,70,2|2|10,0:0|0:0|0:0,0:0:0:0:
178,188,158709,1,0,0:0:0:0:
178,188,158790,1,0,0:0:0:0:
178,188,158872,6,0,P|217:166|265:166,1,70,2|0,0:0|0:0,0:0:0:0:
237,247,159198,2,0,P|282:248|324:272,1,70,10|0,0:0|0:0,0:0:0:0:
259,329,159524,2,0,P|298:353|322:394,2,70,2|10|10,0:0|0:0|0:0,0:0:0:0:
176,307,160013,1,0,0:0:0:0:
176,307,160094,1,0,0:0:0:0:
176,307,160176,6,0,L|88:296,1,70,2|0,0:0|0:0,0:0:0:0:
160,224,160502,2,0,L|72:213,1,70,10|0,0:0|0:0,0:0:0:0:
144,141,160828,2,0,B|56:130|56:130|12:161,1,140,2|10,0:0|0:0,0:0:0:0:
44,316,161480,6,0,B|132:327|132:327|176:296,1,140,2|10,0:0|0:0,0:0:0:0:
244,244,161969,1,0,0:0:0:0:
244,244,162051,1,0,0:0:0:0:
244,244,162132,2,0,P|312:226|379:243,1,140,2|10,0:0|0:0,0:0:0:0:
448,296,162622,1,0,2:0:0:0:
448,296,162703,1,0,2:0:0:0:
448,296,162785,6,0,L|460:212,1,70,2|0,0:0|0:0,0:0:0:0:
377,243,163111,2,0,L|389:159,1,70,10|0,0:0|0:0,0:0:0:0:
306,190,163437,2,0,L|318:106,2,70,2|0|10,0:0|0:0|0:0,0:0:0:0:
206,190,163926,1,0,0:0:0:0:
206,190,164007,1,0,0:0:0:0:
206,190,164089,6,0,L|218:274,1,70,2|0,0:0|0:0,0:0:0:0:
135,243,164415,2,0,L|147:327,1,70,10|0,0:0|0:0,0:0:0:0:
64,296,164741,2,0,L|76:380,2,70,2|10|10,0:0|0:0|0:0,0:0:0:0:
53,208,165230,1,0,0:0:0:0:
53,208,165312,1,0,0:0:0:0:
53,208,165393,6,0,P|48:160|32:120,1,70,2|0,0:0|0:0,0:0:0:0:
146,174,165719,2,0,P|136:208|135:243,1,70,10|0,0:0|0:0,0:0:0:0:
191,307,166045,2,0,P|253:336|316:308,1,140,2|10,0:0|0:0,0:0:0:0:
388,168,166698,5,0,0:0:0:0:
271,111,167024,1,10,0:0:0:0:
214,228,167350,2,0,P|184:260|152:268,1,70,2|8,0:0|0:0,0:0:0:0:
144,192,167676,2,0,P|102:204|70:195,1,70,8|0,0:0|0:0,0:0:0:0:
101,125,168002,5,0,0:0:0:0:
218,68,168328,1,10,0:0:0:0:
275,185,168654,2,0,P|305:217|337:225,1,70,2|8,0:0|0:0,0:0:0:0:
345,149,168980,2,0,P|386:161|418:152,1,70,8|0,0:0|0:0,0:0:0:0:
388,82,169306,6,0,L|396:0,1,70,0|0,0:0|0:0,0:0:0:0:
480,76,169632,2,0,L|486:145,1,70,2|2,0:0|0:0,0:0:0:0:
427,223,169959,2,0,P|388:167|322:173,1,140,2|8,0:0|0:0,0:0:0:0:
304,244,170448,6,0,B|268:268|268:268|200:263,1,112,4|0,1:2|1:0,0:0:0:0:
188,40,171263,2,0,B|224:16|224:16|292:21,1,112,0|0,0:0|0:0,0:0:0:0:
365,34,171752,2,0,P|419:46|472:33,1,112,4|0,1:2|1:0,0:0:0:0:
280,132,172567,2,0,L|264:214,2,84,0|0|0,0:0|0:0|0:0,0:0:0:0:
352,144,173219,6,0,P|375:171|463:163,1,112,4|0,1:2|0:0,0:0:0:0:
500,227,173709,1,0,0:0:0:0:
464,292,173872,2,0,L|395:301,1,56,0|0,0:0|0:0,0:0:0:0:
352,252,174198,2,0,L|296:259,1,56
295,185,174524,5,0,1:0:0:0:
295,185,174687,2,0,P|245:206|224:268,1,112,0|0,1:0|0:0,0:0:0:0:
152,236,175176,2,0,P|130:286|80:307,1,112,0|0,1:0|0:0,0:0:0:0:
20,260,175665,6,0,B|28:224|28:224|88:172,1,112,4|0,1:2|1:0,0:0:0:0:
248,256,176480,2,0,B|240:292|240:292|180:344,1,112
260,375,176969,6,0,P|312:359|364:376,1,112,4|0,1:2|1:0,0:0:0:0:
472,228,177785,2,0,P|476:180|448:136,2,84
420,280,178437,6,0,P|371:304|317:295,1,112,4|0,0:0|0:0,0:0:0:0:
200,248,179089,2,0,P|145:238|96:263,1,112,4|0,0:0|0:0,0:0:0:0:
96,140,179741,6,0,P|150:149|199:124,1,112,4|0,1:2|1:0,0:0:0:0:
284,100,180230,1,0,0:0:0:0:
366,129,180393,1,0,1:0:0:0:
299,186,180556,1,0,0:0:0:0:
381,215,180719,2,0,P|406:226|423:248,1,56,0|0,1:0|1:0,0:0:0:0:
460,328,181045,5,0,0:0:0:0:
376,352,181209,1,0,0:0:0:0:
293,322,181372,1,8,0:0:0:0:
460,328,181698,5,0,0:0:0:0:
372,329,181862,1,0,0:0:0:0:
300,278,182025,1,8,0:0:0:0:
460,328,182350,5,0,0:0:0:0:
374,306,182514,1,0,0:0:0:0:
318,238,182677,1,8,0:0:0:0:
260,172,182839,2,0,P|234:104|263:43,2,140,8|8|8,0:0|0:0|0:0,0:0:0:0:
322,109,183654,5,0,0:0:0:0:
406,85,183818,1,0,0:0:0:0:
489,115,183981,1,8,0:0:0:0:
322,109,184307,5,0,0:0:0:0:
410,108,184469,1,0,0:0:0:0:
482,159,184632,1,8,0:0:0:0:
322,109,184959,5,0,0:0:0:0:
408,131,185123,1,0,0:0:0:0:
464,199,185286,1,8,0:0:0:0:
469,286,185448,2,0,P|400:312|339:283,2,140,8|8|8,0:0|0:0|0:0,0:0:0:0:
405,223,186263,6,0,L|409:135,1,70,0|0,0:0|0:0,0:0:0:0:
325,183,186589,2,0,L|329:95,1,70,8|0,0:0|0:0,0:0:0:0:
248,73,186915,2,0,L|245:143,1,70,0|0,0:0|0:0,0:0:0:0:
168,33,187241,2,0,L|165:103,1,70,8|0,0:0|0:0,0:0:0:0:
116,192,187567,6,0,P|108:232|76:264,1,70,0|0,0:0|0:0,0:0:0:0:
132,348,187893,1,8,0:0:0:0:
131,348,188056,2,0,P|196:327|251:367,1,140,0|0,0:0|0:0,0:0:0:0:
352,364,188545,2,0,P|360:324|392:292,1,70,8|0,0:0|0:0,0:0:0:0:
432,240,188872,6,0,L|440:160,1,70,8|8,0:0|0:0,0:0:0:0:
284,239,189361,2,0,P|215:242|165:196,1,140,8|8,0:0|0:0,0:0:0:0:
165,197,190013,1,8,0:0:0:0:
239,90,190176,6,0,L|246:160,1,70,8|8,0:0|0:0,0:0:0:0:
391,159,190665,2,0,P|460:162|510:116,1,140,8|8,0:0|0:0,0:0:0:0:
511,117,191317,1,8,0:0:0:0:
436,9,191480,6,0,L|430:79,1,70,8|8,0:0|0:0,0:0:0:0:
284,80,191969,2,0,P|250:88|215:84,1,70,8|0,0:0|0:0,0:0:0:0:
268,173,192295,2,0,P|301:165|336:169,1,70,8|0,0:0|0:0,0:0:0:0:
396,225,192622,6,0,P|391:270|269:241,1,210,8|2,0:0|0:1,0:0:0:0:
292,88,193600,1,2,0:0:0:0:
204,56,193763,1,2,0:0:0:0:
220,148,193926,1,2,0:0:0:0:
308,179,194089,5,4,0:0:0:0:
204,205,199306,5,0,0:0:0:0:
152,100,199632,1,10,0:0:0:0:
235,18,199959,1,0,0:0:0:0:
338,72,200285,1,10,0:0:0:0:
318,187,200611,6,0,B|310:227|310:227|330:331,1,140,0|10,0:0|0:0,0:0:0:0:
202,299,201264,2,0,B|220:201|220:201|212:161,1,140,0|0,0:0|0:0,0:0:0:0:
144,56,201916,5,0,0:0:0:0:
22,88,202241,1,2,0:0:0:0:
15,213,202567,1,0,0:0:0:0:
132,258,202893,1,2,0:0:0:0:
212,161,203219,6,0,P|245:152|280:154,1,70,0|0,0:0|0:0,0:0:0:0:
232,68,203545,2,0,P|198:77|163:74,2,70,0|0|0,0:0|0:0|0:0,0:0:0:0:
320,44,204035,1,10,0:0:0:0:
344,132,204198,1,10,0:0:0:0:
256,156,204361,1,10,0:0:0:0:
279,243,204524,6,0,P|340:274|400:243,1,140,4|8,0:0|0:0,0:0:0:0:
452,176,205013,1,0,0:0:0:0:
484,255,205176,2,0,P|492:296|488:340,2,70,0|0|8,0:0|0:0|0:0,0:0:0:0:
452,176,205665,6,0,P|440:128|504:76,1,140,2|2,0:0|0:0,0:0:0:0:
348,116,206317,2,0,P|360:164|296:216,1,140,2|10,0:0|0:0,0:0:0:0:
208,224,206806,1,10,0:0:0:0:
245,142,206969,1,10,0:0:0:0:
156,150,207132,6,0,P|128:184|144:284,1,140,4|8,0:0|0:0,0:0:0:0:
216,308,207622,1,2,0:0:0:0:
295,275,207785,2,0,P|336:268|392:280,2,70,0|0|8,0:0|0:0|0:0,0:0:0:0:
216,308,208274,6,0,B|172:316|172:316|72:288,1,140,2|2,0:0|0:0,0:0:0:0:
48,204,208763,1,8,0:0:0:0:
120,146,208926,1,0,0:0:0:0:
196,196,209089,2,0,P|240:204|296:196,1,70,0|0,0:0|0:0,0:0:0:0:
223,283,209415,2,0,P|189:282|154:289,1,70,8|0,0:0|0:0,0:0:0:0:
99,368,209740,6,0,P|63:309|72:241,1,140,0|8,0:0|0:0,0:0:0:0:
140,172,210230,1,0,0:0:0:0:
227,214,210393,2,0,P|236:260|232:296,1,70,0|0,0:0|0:0,0:0:0:0:
324,248,210719,2,0,P|315:202|319:166,1,70,8|0,0:0|0:0,0:0:0:0:
396,124,211045,6,0,B|428:156|428:156|435:250,1,140,0|8,0:0|0:0,0:0:0:0:
368,320,211535,1,0,0:0:0:0:
280,276,211698,2,0,B|248:244|248:244|240:149,1,140,0|8,0:0|0:0,0:0:0:0:
152,105,212187,1,0,0:0:0:0:
64,149,212350,6,0,L|44:292,1,140,0|8,0:0|0:0,0:0:0:0:
111,356,212839,1,0,0:0:0:0:
172,284,213002,2,0,L|152:145,1,140,0|8,0:0|0:0,0:0:0:0:
296,270,213654,6,0,P|344:272|376:256,1,70,0|0,1:0|1:0,0:0:0:0:
408,348,213980,2,0,P|360:346|328:362,2,70,8|0|0,1:2|1:0|0:0,0:0:0:0:
488,300,214469,1,10,0:0:0:0:
406,254,214632,1,2,0:0:0:0:
486,206,214795,1,10,0:0:0:0:
404,160,214959,6,0,P|360:144|276:188,1,140,4|8,0:0|0:0,0:0:0:0:
256,272,215448,1,0,0:0:0:0:
189,206,215611,2,0,P|161:184|128:172,2,70,0|0|8,0:0|0:0|0:0,0:0:0:0:
256,272,216100,6,0,B|296:288|296:288|408:260,1,140,2|2,0:0|0:0,0:0:0:0:
368,128,216752,2,0,B|328:112|328:112|216:140,1,140,2|10,0:0|0:0,0:0:0:0:
164,204,217241,1,10,0:0:0:0:
188,298,217404,1,10,0:0:0:0:
257,229,217567,6,0,P|292:216|388:260,1,140,4|8,0:0|0:0,0:0:0:0:
472,236,218056,1,0,0:0:0:0:
455,146,218219,2,0,P|448:104|448:72,1,70,0|0,0:0|0:0,0:0:0:0:
360,108,218545,2,0,P|367:150|367:182,1,70,8|0,0:0|0:0,0:0:0:0:
344,268,218872,5,2,0:0:0:0:
148,156,219198,1,10,0:0:0:0:
172,272,219524,1,2,0:0:0:0:
320,152,219850,1,10,0:0:0:0:
349,340,220176,6,0,P|384:352|436:344,2,70,2|0|8,0:0|0:0|0:0,0:0:0:0:
349,340,220665,1,0,0:0:0:0:
396,260,220828,2,0,P|432:252|473:219,2,70,2|0|8,0:0|0:0|0:0,0:0:0:0:
396,260,221317,1,0,0:0:0:0:
396,167,221480,6,0,P|423:142|442:93,2,70,2|0|8,0:0|0:0|0:0,0:0:0:0:
396,167,221969,1,0,0:0:0:0:
350,86,222132,2,0,P|362:50|354:-1,2,70,2|0|8,0:0|0:0|0:0,0:0:0:0:
350,86,222622,1,0,0:0:0:0:
270,39,222785,6,0,L|196:48,1,70,2|2,0:0|0:0,0:0:0:0:
228,136,223111,2,0,L|297:144,1,70,10|2,0:0|0:0,0:0:0:0:
376,192,223437,1,2,0:0:0:0:
295,236,223600,1,2,0:0:0:0:
373,283,223763,2,0,P|420:296|468:288,1,70,10|10,0:0|0:0,0:0:0:0:
392,376,224089,6,0,P|345:363|297:371,1,70,10|10,0:0|0:0,0:0:0:0:
184,360,224578,2,0,P|128:370|130:254,1,210,10|0,0:0|0:0,0:0:0:0:
292,240,225393,6,0,L|376:248,1,70,2|2,0:0|0:0,0:0:0:0:
324,156,225719,2,0,L|254:162,1,70,10|2,0:0|0:0,0:0:0:0:
156,172,226045,1,2,0:0:0:0:
98,91,226208,1,2,0:0:0:0:
196,81,226372,2,0,P|231:80|265:70,1,70,10|10,0:0|0:0,0:0:0:0:
255,167,226698,6,0,P|289:157|324:156,1,70,10|10,0:0|0:0,0:0:0:0:
417,277,227187,2,0,P|340:327|304:242,1,210,10|0,0:0|0:0,0:0:0:0:
336,84,228002,5,4,0:0:0:0:
272,164,228165,1,0,0:0:0:0:
373,179,228328,2,0,P|424:184|464:172,1,70,8|0,0:0|0:0,0:0:0:0:
400,268,228654,1,8,0:0:0:0:
400,268,228817,1,8,0:0:0:0:
176,300,229306,5,4,0:0:0:0:
240,220,229469,1,0,0:0:0:0:
139,205,229632,2,0,P|88:200|48:212,1,70,8|0,0:0|0:0,0:0:0:0:
112,116,229959,1,8,0:0:0:0:
112,116,230122,1,8,0:0:0:0:
336,84,230611,6,0,L|348:168,1,70,4|0,0:0|0:0,0:0:0:0:
264,128,230937,2,0,L|276:212,1,70,8|0,0:0|0:0,0:0:0:0:
316,284,231263,1,0,0:0:0:0:
410,270,231426,1,0,0:0:0:0:
426,174,231589,2,0,P|384:153|336:157,1,70,10|8,0:0|0:0,0:0:0:0:
273,197,231915,6,0,P|231:218|183:214,1,70,4|0,0:0|0:0,0:0:0:0:
94,134,232404,2,0,P|144:90|207:111,1,140,10|2,0:0|0:0,0:0:0:0:
288,86,232893,1,2,0:0:0:0:
368,111,233056,1,2,0:0:0:0:
348,192,233219,6,0,P|344:232|356:276,1,70,4|2,0:0|0:0,0:0:0:0:
256,220,233545,2,0,P|262:185|257:151,1,70,2|2,0:0|0:0,0:0:0:0:
176,116,233872,2,0,P|136:108|44:144,1,140,2|0,0:0|0:0,0:0:0:0:
37,242,234361,6,0,P|82:292|148:280,1,140,2|0,0:0|0:0,0:0:0:0:
190,198,234850,1,0,0:0:0:0:
264,144,235013,1,0,0:0:0:0:
348,180,235176,2,0,P|404:188|440:180,1,70,0|2,0:0|0:0,0:0:0:0:
392,268,235502,2,0,P|357:266|323:274,1,70,2|2,0:0|0:0,0:0:0:0:
232,296,235828,6,0,L|224:368,1,70,4|2,0:0|0:0,0:0:0:0:
140,344,236154,2,0,L|132:274,1,70,2|2,0:0|0:0,0:0:0:0:
136,184,236480,2,0,P|176:176|268:212,1,140,2|0,0:0|0:0,0:0:0:0:
302,306,236969,6,0,P|275:366|210:360,1,140,2|0,0:0|0:0,0:0:0:0:
212,270,237459,1,0,0:0:0:0:
272,204,237622,1,0,0:0:0:0:
360,198,237785,2,0,P|398:195|442:203,1,70,0|2,0:0|0:0,0:0:0:0:
387,114,238111,2,0,P|352:119|317:116,1,70,2|2,0:0|0:0,0:0:0:0:
231,79,238437,6,0,P|280:28|345:25,1,140,4|0,0:0|0:0,0:0:0:0:
368,167,239089,2,0,P|420:216|422:281,1,140,4|0,0:0|0:0,0:0:0:0:
280,304,239741,2,0,P|232:356|166:358,1,140,4|0,0:0|0:0,0:0:0:0:
143,216,240393,2,0,P|92:168|89:102,1,140,4|0,0:0|0:0,0:0:0:0:
232,79,241045,6,0,L|240:160,1,70,4|0,0:0|0:0,0:0:0:0:
316,188,241372,2,0,L|322:118,1,70,8|0,0:0|0:0,0:0:0:0:
420,76,241698,1,0,0:0:0:0:
505,138,241861,1,0,0:0:0:0:
408,181,242024,2,0,L|402:251,1,70,8|0,0:0|0:0,0:0:0:0:
340,336,242350,6,0,P|292:360|140:308,1,210,2|6,0:1|0:1,0:0:0:0:
