osu file format v14

[General]
AudioFilename: Yui Ogura-Honey Come!!.mp3
AudioLeadIn: 0
PreviewTime: 44904
Countdown: 0
SampleSet: Soft
StackLeniency: 0.7
Mode: 0
LetterboxInBreaks: 0
WidescreenStoryboard: 0

[Editor]
DistanceSpacing: 1
BeatDivisor: 4
GridSize: 4
TimelineZoom: 1.7

[Metadata]
Title:Honey Come!!
TitleUnicode:Honey♥Come!!
Artist:Ogura Yui
ArtistUnicode:小倉唯
Creator:Doormat
Version:Easy
Source:城下町のダンデライオン
Tags:joukamachi no dandelion castle town ed ending full size hikari sakurada 櫻田光 oomori shouko 大森祥子 ookubo kaoru 大久保薫 shunryu 俊龍
BeatmapID:779087
BeatmapSetID:350963

[Difficulty]
HPDrainRate:2
CircleSize:3
OverallDifficulty:2
ApproachRate:3
SliderMultiplier:1
SliderTickRate:1

[Events]
//Background and Video events
0,0,"dande_background.jpg",0,0
//Break Periods
2,89941,93519
2,194289,203084
//Storyboard Layer 0 (Background)
//Storyboard Layer 1 (Fail)
//Storyboard Layer 2 (Pass)
//Storyboard Layer 3 (Foreground)
//Storyboard Sound Samples

[TimingPoints]
1046,326.086956521739,4,2,1,80,1,0
10176,-100,4,2,1,95,0,0
11480,-100,4,2,1,60,0,0
16698,-100,4,2,2,60,0,0
20611,-100,4,2,1,60,0,0
20855,-100,4,2,3,40,0,0
21018,-100,4,2,1,60,0,0
21915,-100,4,2,1,70,0,0
27132,-100,4,2,2,70,0,0
29741,-100,4,2,1,70,0,0
29986,-100,4,2,3,50,0,0
30149,-100,4,2,1,70,0,0
30638,-100,4,2,3,50,0,0
30801,-100,4,2,1,70,0,0
32350,-100,4,2,1,50,0,0
37567,-100,4,2,1,70,0,0
37812,-100,4,2,3,50,0,0
37975,-100,4,2,1,70,0,0
39116,-100,4,2,3,50,0,0
39279,-100,4,2,1,70,0,0
40420,-100,4,2,3,50,0,0
40584,-100,4,2,1,70,0,0
41725,-100,4,2,3,50,0,0
41888,-100,4,2,1,70,0,0
45393,-100,4,2,1,90,0,1
46942,-100,4,2,3,70,0,1
47105,-100,4,2,1,90,0,1
49551,-100,4,2,3,70,0,1
49714,-100,4,2,1,90,0,1
50611,-100,4,2,2,90,0,1
54524,-100,4,2,1,90,0,1
54768,-100,4,2,3,70,0,1
54931,-100,4,2,1,90,0,1
55339,-100,4,2,1,90,0,0
55828,-100,4,2,1,90,0,1
57377,-100,4,2,3,70,0,1
57540,-100,4,2,1,90,0,1
59986,-100,4,2,3,70,0,1
60149,-100,4,2,1,90,0,1
61045,-100,4,2,2,90,0,1
64959,-100,4,2,1,90,0,1
65203,-100,4,2,3,70,0,1
65366,-100,4,2,1,90,0,1
65774,-100,4,2,1,90,0,0
66263,-100,4,2,1,90,0,1
66507,-100,4,2,3,70,0,1
66670,-100,4,2,1,90,0,1
69116,-100,4,2,3,70,0,1
69279,-100,4,2,1,90,0,1
71725,-100,4,2,3,70,0,1
71888,-100,4,2,1,90,0,1
73029,-100,4,2,3,70,0,1
73192,-100,4,2,1,90,0,1
79306,-100,4,2,1,80,0,0
88437,-100,4,2,1,95,0,0
89741,-100,4,2,1,60,0,0
94959,-100,4,2,2,60,0,0
98872,-100,4,2,1,60,0,0
99116,-100,4,2,3,40,0,0
99279,-100,4,2,1,60,0,0
100176,-100,4,2,1,70,0,0
105393,-100,4,2,2,70,0,0
108002,-100,4,2,1,70,0,0
108247,-100,4,2,3,50,0,0
108410,-100,4,2,1,70,0,0
108899,-100,4,2,3,50,0,0
109062,-100,4,2,1,70,0,0
110611,-100,4,2,1,50,0,0
115828,-100,4,2,1,70,0,0
116073,-100,4,2,3,50,0,0
116236,-100,4,2,1,70,0,0
117377,-100,4,2,3,50,0,0
117540,-100,4,2,1,70,0,0
118681,-100,4,2,3,50,0,0
118844,-100,4,2,1,70,0,0
119986,-100,4,2,3,50,0,0
120149,-100,4,2,1,70,0,0
123654,-100,4,2,1,90,0,1
125203,-100,4,2,3,70,0,1
125366,-100,4,2,1,90,0,1
127812,-100,4,2,3,70,0,1
127975,-100,4,2,1,90,0,1
128872,-100,4,2,2,90,0,1
132785,-100,4,2,1,90,0,1
133029,-100,4,2,3,70,0,1
133192,-100,4,2,1,90,0,1
133600,-100,4,2,1,90,0,0
134089,-100,4,2,1,90,0,1
135638,-100,4,2,3,70,0,1
135801,-100,4,2,1,90,0,1
138247,-100,4,2,3,70,0,1
138410,-100,4,2,1,90,0,1
139306,-100,4,2,2,90,0,1
143219,-100,4,2,1,90,0,1
143464,-100,4,2,3,70,0,1
143627,-100,4,2,1,90,0,1
144035,-100,4,2,1,90,0,0
144524,-100,4,2,1,90,0,1
144768,-100,4,2,3,70,0,1
144931,-100,4,2,1,90,0,1
147377,-100,4,2,3,70,0,1
147540,-100,4,2,1,90,0,1
149986,-100,4,2,3,70,0,1
150149,-100,4,2,1,90,0,1
151290,-100,4,2,3,70,0,1
151453,-100,4,2,1,90,0,1
157567,-100,4,2,1,90,0,0
157812,-100,4,2,3,70,0,0
157975,-100,4,2,1,90,0,0
159605,-100,4,2,2,90,0,0
159931,-100,4,2,1,90,0,0
161725,-100,4,2,3,70,0,0
161888,-100,4,2,1,90,0,0
163029,-100,4,2,3,70,0,0
163192,-100,4,2,1,90,0,0
164823,-100,4,2,2,90,0,0
165149,-100,4,2,1,90,0,0
170448,-100,4,2,1,50,0,0
181045,-100,4,2,2,60,0,0
181290,-100,4,2,4,40,0,0
181453,-100,4,2,2,60,0,0
181942,-100,4,2,4,40,0,0
182105,-100,4,2,2,60,0,0
183899,-100,4,2,4,40,0,0
184062,-100,4,2,2,60,0,0
184551,-100,4,2,4,40,0,0
184714,-100,4,2,2,60,0,0
186263,-100,4,2,1,60,0,0
186507,-100,4,2,3,40,0,0
186670,-100,4,2,1,60,0,0
187160,-100,4,2,3,40,0,0
187323,-100,4,2,1,60,0,0
194089,-100,4,2,1,70,0,0
204524,-100,4,2,1,90,0,1
206073,-100,4,2,3,70,0,1
206236,-100,4,2,1,90,0,1
208681,-100,4,2,3,70,0,1
208844,-100,4,2,1,90,0,1
209741,-100,4,2,2,90,0,1
213654,-100,4,2,1,90,0,1
213899,-100,4,2,3,70,0,1
214062,-100,4,2,1,90,0,1
214469,-100,4,2,1,90,0,0
214959,-100,4,2,1,90,0,1
215203,-100,4,2,3,70,0,1
215366,-100,4,2,1,90,0,1
217812,-100,4,2,3,70,0,1
217975,-100,4,2,1,90,0,1
228247,-100,4,2,3,70,0,1
228410,-100,4,2,1,90,0,1
229551,-100,4,2,3,70,0,1
229714,-100,4,2,1,90,0,1
233219,-100,4,2,1,80,0,0

[Colours]
Combo1 : 16,153,205
Combo2 : 105,58,160
Combo3 : 208,136,2
Combo4 : 251,226,87
Combo5 : 255,195,210
Combo6 : 179,149,201
Combo7 : 204,20,46
Combo8 : 75,183,131

[HitObjects]
87,297,1046,6,0,P|135:285|183:298,1,100,4|2,0:0|0:0,0:0:0:0:
266,320,1698,2,0,P|339:329|397:284,2,150,2|2|0,0:0|0:0|0:0,0:0:0:0:
316,244,3002,2,0,L|324:136,1,100,0|2,0:0|0:0,0:0:0:0:
231,140,3654,6,0,L|224:240,1,100,4|2,0:0|0:0,0:0:0:0:
267,321,4306,2,0,P|194:329|141:281,2,150,2|2|0,0:0|0:0|0:0,0:0:0:0:
347,276,5611,2,0,P|382:242|395:194,1,100,0|2,0:0|0:0,0:0:0:0:
304,196,6263,5,4,0:0:0:0:
133,166,6915,1,4,0:0:0:0:
192,329,7567,1,4,0:0:0:0:
364,272,8219,1,4,0:0:0:0:
307,100,8872,6,0,L|418:107,1,100,4|8,0:0|0:0,0:0:0:0:
430,193,9524,2,0,L|331:187,1,100,0|8,0:0|0:0,0:0:0:0:
355,274,10176,2,0,L|455:281,2,100,2|2|2,0:1|0:1|0:1,0:0:0:0:
220,156,11480,6,0,L|227:56,2,100,4|8|0,0:0|0:0|0:0,0:0:0:0:
199,288,12622,2,0,B|151:300|151:300|123:288|123:288|87:304|36:285,1,150,0|8,0:0|0:0,0:0:0:0:
87,208,13437,2,0,L|103:92,1,100,0|8,0:0|0:0,0:0:0:0:
191,96,14089,6,0,L|175:212,2,100,0|8|0,0:0|0:0|0:0,0:0:0:0:
299,175,15230,2,0,P|372:193|444:174,1,150,0|8,0:0|0:0,0:0:0:0:
384,104,16045,2,0,P|333:100|294:68,1,100,0|8,0:0|0:0,0:0:0:0:
208,44,16698,5,4,0:0:0:0:
119,36,17024,2,0,L|115:144,2,100,8|0|8,0:0|0:0|0:0,0:0:0:0:
212,192,18328,2,0,L|215:92,2,100,8|0|8,0:0|0:0|0:0,0:0:0:0:
312,40,19632,2,0,L|308:148,2,100,8|0|8,0:0|0:0|0:0,0:0:0:0:
404,44,20611,2,0,B|398:200|398:200|416:248,1,200,0|0,0:0|0:0,0:0:0:0:
232,228,21915,6,0,P|225:277|203:321,2,100,4|8|0,0:0|0:0|0:0,0:0:0:0:
318,123,23056,2,0,B|326:239|326:239|354:283,1,150,0|8,0:0|0:0,0:0:0:0:
416,212,23872,2,0,L|409:112,1,100,0|8,0:0|0:0,0:0:0:0:
318,123,24524,6,0,P|270:133|222:122,2,100,0|8|0,0:0|0:0|0:0,0:0:0:0:
212,39,25665,2,0,P|151:78|144:152,1,150,0|8,0:0|0:0,0:0:0:0:
208,216,26480,2,0,P|256:227|304:217,1,100,0|8,0:0|0:0,0:0:0:0:
384,172,27132,5,4,0:0:0:0:
457,116,27459,2,0,L|441:8,2,100,0|0|8,0:0|0:0|0:0,0:0:0:0:
304,216,28763,2,0,L|319:324,2,100,8|0|8,0:0|0:0|0:0,0:0:0:0:
248,148,29741,2,0,B|196:160|148:144|148:144|104:160|50:148,2,200
316,91,31372,1,8,0:0:0:0:
406,82,31698,2,0,P|428:126|425:176,1,100,0|8,0:0|0:0,0:0:0:0:
404,264,32350,6,0,P|392:316|208:280,1,300,4|0,0:0|0:0,0:0:0:0:
260,208,33654,2,0,P|153:123|64:226,1,300,2|0,1:2|0:0,0:0:0:0:
76,316,34959,6,0,B|136:332|216:296|216:296|266:321,1,200,4|0,0:0|0:0,0:0:0:0:
427,251,36263,1,4,0:0:0:0:
340,92,36915,1,4,0:0:0:0:
245,246,37567,6,0,B|204:264|164:240|164:240|128:264|128:264|96:240|58:248,1,200,4|0,0:0|0:0,0:0:0:0:
212,152,38872,2,0,B|253:134|293:158|293:158|329:134|329:134|361:158|398:149,1,200,4|0,0:0|0:0,0:0:0:0:
256,264,40176,6,0,P|166:235|101:307,1,200,4|0,0:0|0:0,0:0:0:0:
188,322,41154,1,8,0:0:0:0:
276,344,41480,2,0,P|366:373|431:301,1,200,4|0,0:0|0:0,0:0:0:0:
344,286,42459,1,8,0:0:0:0:
256,192,42785,12,8,43926,0:0:0:0:
186,176,45393,6,0,P|139:187|102:222,2,100,4|8|0,0:0|0:0|0:0,0:0:0:0:
180,268,46372,1,8,0:0:0:0:
227,346,46698,2,0,P|320:339|328:248,1,200,0|0,0:0|0:0,0:0:0:0:
296,164,47676,1,10,0:0:0:0:
205,167,48002,6,0,P|151:160|116:131,2,100,4|8|0,0:0|0:0|0:0,0:0:0:0:
188,80,48980,1,8,0:0:0:0:
272,109,49306,2,0,P|286:204|206:256,1,200,0|0,0:0|0:0,0:0:0:0:
120,268,50285,1,8,0:0:0:0:
65,197,50611,6,0,L|56:88,1,100,0|8,0:0|0:0,0:0:0:0:
140,64,51263,2,0,L|149:173,1,100,0|8,0:0|0:0,0:0:0:0:
231,129,51915,2,0,L|222:20,2,100,0|8|0,0:0|0:0|0:0,0:0:0:0:
312,160,52893,1,8,0:0:0:0:
366,226,53219,6,0,L|376:336,1,100,0|8,0:0|0:0,0:0:0:0:
288,352,53872,2,0,L|278:242,1,100,0|8,0:0|0:0,0:0:0:0:
191,279,54524,2,0,P|100:308|52:216,1,200,0|0,1:0|0:0,0:0:0:0:
32,144,55502,1,2,0:0:0:0:
111,98,55828,6,0,P|159:86|207:98,2,100,4|8|0,0:0|0:0|0:0,0:0:0:0:
160,176,56806,1,8,0:0:0:0:
111,253,57132,2,0,P|113:312|225:278,1,200,0|0,0:0|0:0,0:0:0:0:
272,224,58111,1,10,0:0:0:0:
259,133,58437,6,0,P|291:93|346:75,2,100,4|8|0,0:0|0:0|0:0,0:0:0:0:
344,168,59415,1,8,0:0:0:0:
427,205,59741,2,0,P|460:244|380:348,1,200,0|0,0:0|0:0,0:0:0:0:
300,364,60719,1,8,0:0:0:0:
256,286,61045,6,0,B|240:264|240:264|144:252,1,100,0|8,0:0|0:0,0:0:0:0:
132,336,61698,2,0,B|148:358|148:358|244:370,1,100,0|8,0:0|0:0,0:0:0:0:
308,359,62350,2,0,P|357:352|406:362,2,100,0|8|0,0:0|0:0|0:0,0:0:0:0:
256,286,63328,1,8,0:0:0:0:
310,213,63654,6,0,B|336:184|336:184|416:176,1,100,0|8,0:0|0:0,0:0:0:0:
432,260,64306,2,0,B|406:289|406:289|326:297,1,100,0|8,0:0|0:0,0:0:0:0:
256,286,64959,2,0,P|204:276|184:144,1,200,0|0,1:0|0:0,0:0:0:0:
236,80,65937,1,2,0:0:0:0:
325,94,66263,6,0,P|368:124|333:253,1,200,4|0,0:0|0:0,0:0:0:0:
256,286,67241,1,8,0:0:0:0:
180,236,67567,2,0,P|131:222|84:235,2,100,0|8|0,0:0|0:0|0:0,0:0:0:0:
131,312,68545,1,10,0:0:0:0:
43,309,68872,6,0,P|0:226|65:150,1,200,4|0,0:0|0:0,0:0:0:0:
148,152,69850,1,8,0:0:0:0:
197,229,70176,2,0,L|200:336,1,100,2|10,0:0|0:0,0:0:0:0:
288,344,70828,2,0,L|285:237,1,100,2|10,0:0|0:0,0:0:0:0:
308,156,71480,6,0,B|369:182|374:239|374:239|377:332,1,200,2|2,0:0|0:0,0:0:0:0:
200,360,72785,2,0,B|139:334|134:277|134:277|131:184,1,200,2|2,0:0|0:0,0:0:0:0:
196,24,74089,6,0,L|296:8,2,100,2|10|2,0:0|0:0|0:0,0:0:0:0:
120,76,75067,1,10,0:0:0:0:
127,167,75393,2,0,L|132:220,1,50,10|10,0:0|0:0,0:0:0:0:
196,280,75882,2,0,B|222:248|222:248|212:140,1,150,10|0,0:0|0:0,0:0:0:0:
300,164,76698,6,0,L|311:268,2,100,2|10|2,0:0|0:0|0:0,0:0:0:0:
384,196,77676,1,10,0:0:0:0:
369,107,78002,2,0,L|362:54,1,50,10|10,0:0|0:0,0:0:0:0:
448,32,78491,2,0,B|480:57|480:57|493:166,1,150,10|2,0:0|0:0,0:0:0:0:
420,220,79306,6,0,B|388:236|388:236|316:221,1,100,4|2,0:0|0:0,0:0:0:0:
236,200,79959,2,0,B|176:184|124:208|124:208|80:188,2,150,2|2|0,0:0|0:0|0:0,0:0:0:0:
219,287,81263,2,0,P|170:284|124:312,1,100,0|2,0:0|0:0,0:0:0:0:
48,352,81915,6,0,L|36:244,1,100,4|2,0:0|0:0,0:0:0:0:
28,164,82567,2,0,B|12:104|36:52|36:52|16:8,2,150,2|2|0,0:0|0:0|0:0,0:0:0:0:
115,147,83872,2,0,P|112:98|140:52,1,100,0|2,0:0|0:0,0:0:0:0:
200,120,84524,5,4,0:0:0:0:
216,300,85176,1,4,0:0:0:0:
291,136,85828,1,4,0:0:0:0:
307,316,86480,1,4,0:0:0:0:
143,239,87132,6,0,L|136:128,1,100,4|8,0:0|0:0,0:0:0:0:
228,152,87785,2,0,L|235:263,1,100,0|8,0:0|0:0,0:0:0:0:
325,264,88437,2,0,L|318:164,2,100,2|2|2,0:1|0:1|0:1,0:0:0:0:
188,148,89741,5,4,0:0:0:0:
120,60,94959,5,4,0:0:0:0:
187,120,95285,2,0,L|175:232,2,100,8|0|8,0:0|0:0|0:0,0:0:0:0:
276,276,96589,2,0,L|286:176,2,100,8|0|8,0:0|0:0|0:0,0:0:0:0:
396,140,97893,2,0,L|384:252,2,100,8|0|8,0:0|0:0|0:0,0:0:0:0:
315,96,98872,2,0,P|231:141|149:93,1,200,0|0,0:0|0:0,0:0:0:0:
210,263,100176,6,0,P|153:247|112:211,2,100,4|8|0,0:0|0:0|0:0,0:0:0:0:
288,152,101317,2,0,B|304:268|304:268|336:292,1,150,0|8,0:0|0:0,0:0:0:0:
384,216,102132,2,0,L|370:116,1,100,0|8,0:0|0:0,0:0:0:0:
296,64,102785,6,0,P|247:54|198:63,2,100,0|8|0,0:0|0:0|0:0,0:0:0:0:
192,151,103926,2,0,P|128:116|114:39,1,150,0|8,0:0|0:0,0:0:0:0:
24,60,104741,2,0,L|40:180,1,100,0|8,0:0|0:0,0:0:0:0:
84,236,105393,5,4,0:0:0:0:
152,296,105719,2,0,P|200:312|256:296,2,100,8|0|8,0:0|0:0|0:0,0:0:0:0:
204,124,107024,2,0,P|156:108|100:124,2,100,8|0|8,0:0|0:0|0:0,0:0:0:0:
284,163,108002,2,0,P|336:180|428:84,2,200,0|0|0,0:0|0:0|0:0,0:0:0:0:
200,192,109632,1,8,0:0:0:0:
112,173,109959,2,0,P|62:160|16:173,1,100,0|8,0:0|0:0,0:0:0:0:
64,252,110611,6,0,P|76:304|260:268,1,300,4|0,0:0|0:0,0:0:0:0:
196,208,111915,2,0,P|303:123|392:226,1,300,2|0,1:2|0:0,0:0:0:0:
380,316,113219,6,0,B|320:332|240:296|240:296|190:321,1,200,4|0,0:0|0:0,0:0:0:0:
29,251,114523,1,4,0:0:0:0:
116,92,115175,1,4,0:0:0:0:
211,246,115828,6,0,B|264:264|264:264|312:248|312:248|372:264|424:244,1,200,4|0,0:0|0:0,0:0:0:0:
256,148,117132,2,0,B|203:130|203:130|155:146|155:146|95:130|43:150,1,200,4|0,0:0|0:0,0:0:0:0:
70,328,118437,6,0,P|166:329|214:247,1,200,4|0,0:0|0:0,0:0:0:0:
256,168,119415,1,8,0:0:0:0:
298,247,119741,2,0,P|345:329|445:326,1,200,4|0,0:0|0:0,0:0:0:0:
392,248,120719,1,8,0:0:0:0:
256,192,121045,12,8,122187,0:0:0:0:
326,176,123654,6,0,P|373:187|410:222,2,100,4|8|0,0:0|0:0|0:0,0:0:0:0:
332,268,124633,1,8,0:0:0:0:
285,346,124959,2,0,P|192:339|184:248,1,200,0|0,0:0|0:0,0:0:0:0:
216,164,125937,1,10,0:0:0:0:
307,167,126263,6,0,P|361:160|396:131,2,100,4|8|0,0:0|0:0|0:0,0:0:0:0:
324,80,127241,1,8,0:0:0:0:
240,109,127567,2,0,P|226:204|306:256,1,200,0|0,0:0|0:0,0:0:0:0:
392,268,128546,1,8,0:0:0:0:
447,197,128872,6,0,L|456:88,1,100,0|8,0:0|0:0,0:0:0:0:
372,64,129524,2,0,L|363:173,1,100,0|8,0:0|0:0,0:0:0:0:
281,129,130176,2,0,L|290:20,2,100,0|8|0,0:0|0:0|0:0,0:0:0:0:
200,160,131154,1,8,0:0:0:0:
146,226,131480,6,0,L|136:336,1,100,0|8,0:0|0:0,0:0:0:0:
224,352,132133,2,0,L|234:242,1,100,0|8,0:0|0:0,0:0:0:0:
321,279,132785,2,0,P|412:308|460:216,1,200,0|0,1:0|0:0,0:0:0:0:
480,144,133763,1,2,0:0:0:0:
401,98,134089,6,0,P|353:86|305:98,2,100,4|8|0,0:0|0:0|0:0,0:0:0:0:
352,176,135067,1,8,0:0:0:0:
401,253,135393,2,0,P|399:312|287:278,1,200,0|0,0:0|0:0,0:0:0:0:
240,224,136372,1,10,0:0:0:0:
253,133,136698,6,0,P|221:93|166:75,2,100,4|8|0,0:0|0:0|0:0,0:0:0:0:
168,168,137676,1,8,0:0:0:0:
85,205,138002,2,0,P|52:244|132:348,1,200,0|0,0:0|0:0,0:0:0:0:
212,364,138980,1,8,0:0:0:0:
256,286,139306,6,0,B|272:264|272:264|368:252,1,100,0|8,0:0|0:0,0:0:0:0:
380,336,139959,2,0,B|364:358|364:358|268:370,1,100,0|8,0:0|0:0,0:0:0:0:
204,359,140611,2,0,P|155:352|106:362,2,100,0|8|0,0:0|0:0|0:0,0:0:0:0:
256,286,141589,1,8,0:0:0:0:
202,213,141915,6,0,B|176:184|176:184|96:176,1,100,0|8,0:0|0:0,0:0:0:0:
80,260,142567,2,0,B|106:289|106:289|186:297,1,100,0|8,0:0|0:0,0:0:0:0:
256,286,143220,2,0,P|308:276|328:144,1,200,0|0,1:0|0:0,0:0:0:0:
276,80,144198,1,2,0:0:0:0:
187,94,144524,6,0,P|144:124|179:253,1,200,4|0,0:0|0:0,0:0:0:0:
256,286,145502,1,8,0:0:0:0:
331,236,145828,2,0,P|381:222|428:235,2,100,0|8|0,0:0|0:0|0:0,0:0:0:0:
381,312,146806,1,10,0:0:0:0:
469,309,147132,6,0,P|512:226|447:150,1,200,4|0,0:0|0:0,0:0:0:0:
364,152,148111,1,8,0:0:0:0:
315,229,148437,2,0,L|312:336,1,100,2|10,0:0|0:0,0:0:0:0:
224,344,149089,2,0,L|227:237,1,100,2|10,0:0|0:0,0:0:0:0:
204,156,149741,6,0,B|143:182|138:239|138:239|135:332,1,200,2|2,0:0|0:0,0:0:0:0:
312,360,151045,2,0,B|373:334|378:277|378:277|381:184,1,200,2|2,0:0|0:0,0:0:0:0:
316,24,152349,6,0,L|216:8,2,100,2|10|2,0:0|0:0|0:0,0:0:0:0:
392,76,153327,1,10,0:0:0:0:
385,167,153653,2,0,L|380:220,1,50,10|10,0:0|0:0,0:0:0:0:
316,280,154142,2,0,B|290:248|290:248|300:140,1,150,10|0,0:0|0:0,0:0:0:0:
212,164,154959,6,0,L|201:268,2,100,2|10|2,0:0|0:0|0:0,0:0:0:0:
128,196,155936,1,10,0:0:0:0:
143,107,156262,6,0,L|150:54,1,50,10|10,0:0|0:0,0:0:0:0:
64,32,156752,2,0,B|32:57|32:57|19:166,1,150,10|2,0:0|0:0,0:0:0:0:
16,256,157567,6,0,P|65:331|142:284,1,200,6|2,0:0|0:0,0:0:0:0:
177,204,158545,1,10,0:0:0:0:
230,274,158872,2,0,P|278:285|325:271,1,100,2|10,0:0|0:0,0:0:0:0:
275,197,159524,2,0,L|246:151,2,50,2|10|10,0:0|0:0|0:0,0:0:0:0:
340,132,160176,6,0,P|387:117|434:129,2,100,2|10|2,0:0|0:0|0:0,0:0:0:0:
390,206,161154,1,10,0:0:0:0:
349,286,161480,2,0,P|268:334|187:284,1,200,2|2,0:0|0:0,0:0:0:0:
152,104,162785,6,0,P|209:44|241:138,1,200,2|2,0:0|0:0,0:0:0:0:
279,208,163763,1,10,0:0:0:0:
353,162,164089,2,0,P|401:151|447:165,1,100,2|10,0:0|0:0,0:0:0:0:
398,238,164742,2,0,L|423:286,2,50,2|10|10,0:0|0:0|0:0,0:0:0:0:
309,238,165393,6,0,L|200:236,1,100,2|10,0:0|0:0,0:0:0:0:
232,148,166045,2,0,L|341:150,1,100,2|10,0:0|0:0,0:0:0:0:
354,61,166698,2,0,L|254:59,2,100,0|10|2,0:0|0:0|0:0,0:0:0:0:
300,232,168002,2,0,L|399:233,2,100,0|10|2,0:0|0:0|0:0,0:0:0:0:
80,168,170448,6,0,P|128:152|188:168,1,100,4|0,1:2|1:0,0:0:0:0:
444,184,171752,2,0,P|396:200|336:184,1,100,4|0,1:2|1:0,0:0:0:0:
176,144,173219,6,0,B|132:124|132:124|16:148,2,150,4|0|0,1:2|0:0|0:0,0:0:0:0:
256,184,174524,2,0,B|262:337|262:337|229:383,1,200,0|0,1:0|1:0,0:0:0:0:
124,296,175665,6,0,L|120:184,1,100,4|0,1:2|1:0,0:0:0:0:
391,196,176969,2,0,L|388:296,1,100,4|0,1:2|1:0,0:0:0:0:
100,172,178437,6,0,P|81:82|168:55,1,200,4|4,0:0|0:0,0:0:0:0:
344,54,179741,2,0,P|431:81|412:171,1,200,4|0,1:2|1:0,0:0:0:0:
304,312,181045,6,0,B|256:324|256:324|106:309,2,200,0|0|0,0:0|0:0|0:0,0:0:0:0:
248,240,182676,2,0,L|186:233,1,50,8|8,0:0|0:0,0:0:0:0:
108,28,183654,6,0,B|156:16|156:16|316:32,2,200,0|0|0,0:0|0:0|0:0,0:0:0:0:
164,100,185285,2,0,L|225:106,1,50,8|8,0:0|0:0,0:0:0:0:
304,312,186263,6,0,B|288:272|288:272|300:111,2,200,0|0|0,0:0|0:0|0:0,0:0:0:0:
372,252,187893,2,0,L|377:182,1,50,8|0,0:0|0:0,0:0:0:0:
156,258,188872,6,0,B|162:147|162:147|184:108,1,150,8|8,0:0|0:0,0:0:0:0:
251,55,189687,1,8,0:0:0:0:
367,123,190176,2,0,B|361:235|361:235|344:268,1,150,8|8,0:0|0:0,0:0:0:0:
272,327,190991,1,8,0:0:0:0:
256,192,191480,12,8,192622,0:0:0:0:
256,192,194089,5,4,0:0:0:0:
427,115,204524,6,0,P|439:164|424:211,2,100,4|8|0,0:0|0:0|0:0,0:0:0:0:
348,160,205502,1,8,0:0:0:0:
267,115,205828,2,0,P|172:90|113:165,1,200,0|0,0:0|0:0,0:0:0:0:
144,246,206806,1,10,0:0:0:0:
200,173,207132,6,0,P|230:213|233:262,2,100,4|8|0,0:0|0:0|0:0,0:0:0:0:
283,141,208111,1,8,0:0:0:0:
366,173,208437,2,0,P|455:150|420:60,1,200,0|0,0:0|0:0,0:0:0:0:
348,32,209415,1,8,0:0:0:0:
276,88,209741,6,0,L|282:195,1,100,0|8,0:0|0:0,0:0:0:0:
198,219,210393,2,0,L|192:112,1,100,0|8,0:0|0:0,0:0:0:0:
107,150,211045,2,0,P|58:158|8:150,2,100,0|8|0,0:0|0:0|0:0,0:0:0:0:
148,232,212024,1,8,0:0:0:0:
189,314,212350,6,0,B|220:340|220:340|284:328,1,100,0|8,0:0|0:0,0:0:0:0:
308,244,213002,2,0,B|277:218|277:218|213:230,1,100,0|8,0:0|0:0,0:0:0:0:
129,244,213654,2,0,P|40:221|75:131,1,200,0|0,1:0|0:0,0:0:0:0:
152,116,214632,1,2,0:0:0:0:
229,164,214959,6,0,P|327:164|366:76,1,200,4|0,0:0|0:0,0:0:0:0:
318,12,215937,1,8,0:0:0:0:
279,91,216263,2,0,P|233:76|185:87,1,100,0|8,0:0|0:0,0:0:0:0:
229,164,216915,2,0,P|275:179|323:168,1,100,0|10,0:0|0:0,0:0:0:0:
412,143,217567,6,0,P|488:196|452:281,1,200,4|0,0:0|0:0,0:0:0:0:
368,312,218545,1,8,0:0:0:0:
284,281,218872,2,0,L|276:172,1,100,2|10,0:0|0:0,0:0:0:0:
192,216,219524,2,0,L|199:315,1,100,2|10,0:0|0:0,0:0:0:0:
114,350,220176,5,2,0:0:0:0:
88,172,220828,1,2,0:0:0:0:
255,238,221480,1,2,0:0:0:0:
229,60,222132,1,2,0:0:0:0:
395,125,222785,6,0,P|443:140|491:128,2,100,2|10|2,0:0|0:0|0:0,0:0:0:0:
312,92,223763,1,10,0:0:0:0:
324,180,224089,2,0,L|332:232,1,50,10|10,0:0|0:0,0:0:0:0:
300,312,224578,2,0,B|254:294|254:294|238:194,1,150,10|0,0:0|0:0,0:0:0:0:
180,124,225393,6,0,P|132:139|84:127,2,100,2|10|2,0:0|0:0|0:0,0:0:0:0:
263,91,226371,1,10,0:0:0:0:
251,179,226697,2,0,L|243:231,1,50,10|10,0:0|0:0,0:0:0:0:
275,311,227186,2,0,B|321:293|321:293|337:193,1,150,10|0,0:0|0:0,0:0:0:0:
348,103,228002,6,0,P|281:36|193:70,1,200,4|8,0:0|0:0,0:0:0:0:
164,248,229306,2,0,P|231:315|319:281,1,200,4|8,0:0|0:0,0:0:0:0:
348,103,230611,6,0,L|435:154,2,100,4|8|0,0:0|0:0|0:0,0:0:0:0:
268,148,231589,1,10,0:0:0:0:
188,103,231915,2,0,L|136:72,1,50,4|0,0:0|0:0,0:0:0:0:
56,88,232404,2,8,B|63:130|63:130|155:185,1,150,10|2,0:0|0:0,0:0:0:0:
236,228,233219,6,0,P|285:240|333:228,1,100,4|2,0:0|0:0,0:0:0:0:
386,159,233872,2,0,P|420:225|389:294,2,150,2|2|0,0:0|0:0|0:0,0:0:0:0:
312,111,235176,2,0,P|263:116|227:149,1,100,0|2,0:0|0:0,0:0:0:0:
276,228,235828,6,0,P|227:240|179:228,1,100,4|2,0:0|0:0,0:0:0:0:
126,159,236481,2,0,P|92:225|123:294,2,150,2|0|0,0:0|0:0|0:0,0:0:0:0:
200,111,237785,2,0,P|248:116|284:149,1,100,0|2,0:0|0:0,0:0:0:0:
340,220,238437,5,4,0:0:0:0:
164,252,239089,1,4,0:0:0:0:
325,328,239741,1,4,0:0:0:0:
149,360,240393,1,4,0:0:0:0:
209,191,241045,6,0,L|204:292,1,100,4|8,0:0|0:0,0:0:0:0:
292,264,241698,2,0,L|296:164,1,100,0|8,0:0|0:0,0:0:0:0:
384,137,242350,6,0,B|379:249|379:249|400:300,1,150,2|6,0:1|0:1,0:0:0:0:
