osu file format v14

[General]
AudioFilename: Yui Ogura-Honey Come!!.mp3
AudioLeadIn: 0
PreviewTime: 44904
Countdown: 0
SampleSet: Soft
StackLeniency: 0.7
Mode: 0
LetterboxInBreaks: 0
WidescreenStoryboard: 0

[Editor]
DistanceSpacing: 1
BeatDivisor: 4
GridSize: 4
TimelineZoom: 1.7

[Metadata]
Title:Honey Come!!
TitleUnicode:Honey♥Come!!
Artist:Ogura Yui
ArtistUnicode:小倉唯
Creator:Doormat
Version:Bloom
Source:城下町のダンデライオン
Tags:joukamachi no dandelion castle town ed ending full size hikari sakurada 櫻田光 oomori shouko 大森祥子 ookubo kaoru 大久保薫 shunryu 俊龍
BeatmapID:773567
BeatmapSetID:350963

[Difficulty]
HPDrainRate:6
CircleSize:4
OverallDifficulty:8
ApproachRate:9
SliderMultiplier:1.7
SliderTickRate:1

[Events]
//Background and Video events
0,0,"dande_background.jpg",0,0
//Break Periods
//Storyboard Layer 0 (Background)
//Storyboard Layer 1 (Fail)
//Storyboard Layer 2 (Pass)
//Storyboard Layer 3 (Foreground)
//Storyboard Sound Samples

[TimingPoints]
1046,326.086956521739,4,2,1,80,1,0
10176,-100,4,2,1,95,0,0
11480,-125,4,2,1,60,0,0
16698,-125,4,2,2,60,0,0
20611,-125,4,2,1,60,0,0
21915,-100,4,2,1,70,0,0
27132,-100,4,2,2,70,0,0
29741,-100,4,2,1,70,0,0
32350,-125,4,2,1,50,0,0
37567,-100,4,2,1,70,0,0
44252,-100,4,2,1,5,0,0
44415,-100,4,2,1,70,0,0
45393,-90.9090909090909,4,2,1,90,0,1
50611,-90.9090909090909,4,2,2,90,0,1
54524,-90.9090909090909,4,2,1,90,0,1
55339,-90.9090909090909,4,2,1,90,0,0
55828,-90.9090909090909,4,2,1,90,0,1
61045,-90.9090909090909,4,2,2,90,0,1
64959,-90.9090909090909,4,2,1,90,0,1
65774,-90.9090909090909,4,2,1,90,0,0
66263,-100,4,2,1,90,0,1
79306,-100,4,2,1,80,0,0
88437,-100,4,2,1,95,0,0
89741,-125,4,2,1,60,0,0
94959,-125,4,2,2,60,0,0
98872,-125,4,2,1,60,0,0
100176,-100,4,2,1,70,0,0
105393,-100,4,2,2,70,0,0
108002,-100,4,2,1,70,0,0
110611,-125,4,2,1,50,0,0
115828,-100,4,2,1,70,0,0
122513,-100,4,2,1,5,0,0
122676,-100,4,2,1,70,0,0
123654,-90.9090909090909,4,2,1,90,0,1
128872,-90.9090909090909,4,2,2,90,0,1
132785,-90.9090909090909,4,2,1,90,0,1
133600,-90.9090909090909,4,2,1,90,0,0
134089,-90.9090909090909,4,2,1,90,0,1
139306,-90.9090909090909,4,2,2,90,0,1
143219,-90.9090909090909,4,2,1,90,0,1
144035,-90.9090909090909,4,2,1,90,0,0
144524,-100,4,2,1,90,0,1
157567,-90.9090909090909,4,2,1,90,0,0
159605,-90.9090909090909,4,2,2,90,0,0
159931,-90.9090909090909,4,2,1,90,0,0
162214,-90.9090909090909,4,2,2,90,0,0
162540,-90.9090909090909,4,2,1,90,0,0
164823,-90.9090909090909,4,2,2,90,0,0
165149,-90.9090909090909,4,2,1,90,0,0
167431,-90.9090909090909,4,2,2,90,0,0
167757,-90.9090909090909,4,2,1,90,0,0
168736,-90.9090909090909,4,2,2,90,0,0
169062,-90.9090909090909,4,2,1,90,0,0
170448,-125,4,2,1,50,0,0
181045,-100,4,2,2,60,0,0
186263,-100,4,2,1,60,0,0
192948,-100,4,2,1,5,0,0
193111,-100,4,2,1,60,0,0
194089,-125,4,2,1,40,0,0
199306,-90.9090909090909,4,2,1,70,0,0
204524,-90.9090909090909,4,2,1,90,0,1
209741,-90.9090909090909,4,2,2,90,0,1
213654,-90.9090909090909,4,2,1,90,0,1
214469,-90.9090909090909,4,2,1,90,0,0
214959,-100,4,2,1,90,0,1
233219,-100,4,2,1,80,0,0

[Colours]
Combo1 : 16,153,205
Combo2 : 105,58,160
Combo3 : 208,136,2
Combo4 : 251,226,87
Combo5 : 255,195,210
Combo6 : 179,149,201
Combo7 : 204,20,46
Combo8 : 75,183,131

[HitObjects]
138,136,1046,5,4,0:0:0:0:
202,240,1209,1,2,0:0:0:0:
212,120,1372,1,2,0:0:0:0:
132,211,1535,1,2,0:0:0:0:
251,184,1698,2,0,P|287:111|232:47,1,170,2|0,0:0|0:0,0:0:0:0:
352,48,2187,6,0,B|368:176|368:176|412:216,1,170,2|0,0:0|0:0,0:0:0:0:
444,100,2676,1,0,0:0:0:0:
276,80,2839,1,0,0:0:0:0:
398,203,3002,2,0,L|486:215,1,85,0|2,0:0|0:0,0:0:0:0:
416,304,3328,2,0,L|331:315,1,85,2|2,0:0|0:0,0:0:0:0:
224,260,3654,5,4,0:0:0:0:
157,183,3817,1,2,0:0:0:0:
63,222,3980,2,0,L|76:320,1,85,2|2,0:0|0:0,0:0:0:0:
213,318,4306,2,0,L|225:234,1,85,2|0,0:0|0:0,0:0:0:0:
225,234,4551,1,0,0:0:0:0:
225,234,4632,1,0,0:0:0:0:
312,112,4795,6,0,B|176:136|176:136|144:116,1,170,2|0,0:0|0:0,0:0:0:0:
244,44,5285,2,0,L|340:28,1,85,0|0,0:0|0:0,0:0:0:0:
416,112,5611,1,0,0:0:0:0:
320,188,5774,1,2,0:0:0:0:
288,70,5937,2,0,P|325:50|369:51,1,85,2|2,0:0|0:0,0:0:0:0:
479,147,6263,6,0,P|409:185|346:135,1,170,4|0,0:0|0:0,0:0:0:0:
166,134,6915,2,0,P|103:84|33:123,1,170,4|0,0:0|0:0,0:0:0:0:
33,261,7567,2,0,P|103:299|166:250,1,170,4|0,0:0|0:0,0:0:0:0:
345,249,8219,2,0,P|408:199|479:237,1,170,4|0,0:0|0:0,0:0:0:0:
416,112,8872,5,4,0:0:0:0:
269,123,9034,1,0,0:0:0:0:
346,249,9198,2,0,P|360:304|356:352,1,85,8|0,0:0|0:0,0:0:0:0:
213,304,9524,2,0,P|214:261|226:221,1,85,0|0,0:0|0:0,0:0:0:0:
128,300,9850,1,8,0:0:0:0:
128,144,10013,1,0,0:0:0:0:
307,243,10176,6,0,P|265:235|226:220,1,85,2|0,0:1|0:0,0:0:0:0:
341,150,10502,2,0,P|299:142|260:127,1,85,2|0,0:1|0:0,0:0:0:0:
374,56,10828,2,0,P|332:48|293:34,1,85,2|0,0:1|0:0,0:0:0:0:
204,20,11154,1,0,0:0:0:0:
160,100,11317,1,0,1:0:0:0:
160,100,11399,1,0,1:0:0:0:
159,100,11480,6,0,P|163:166|207:217,2,136,4|8|0,0:0|0:0|0:0,0:0:0:0:
276,28,12295,1,0,0:0:0:0:
260,128,12459,1,8,0:0:0:0:
368,83,12622,6,0,P|433:70|492:102,1,136,0|0,0:0|0:0,0:0:0:0:
420,164,13111,1,8,0:0:0:0:
292,84,13274,1,8,0:0:0:0:
312,232,13437,2,0,L|408:248,1,68,0|0,0:0|0:0,0:0:0:0:
256,160,13763,2,0,L|160:176,1,68,8|0,0:0|0:0,0:0:0:0:
252,274,14089,6,0,P|318:305|374:271,2,136,0|8|0,0:0|0:0|0:0,0:0:0:0:
224,160,14904,1,0,0:0:0:0:
164,260,15067,1,8,0:0:0:0:
310,172,15230,6,0,P|294:108|238:72,1,136,0|0,0:0|0:0,0:0:0:0:
136,56,15719,2,0,L|152:152,1,68,8|8,0:0|0:0,0:0:0:0:
48,104,16045,2,0,L|32:200,1,68,0|0,0:0|0:0,0:0:0:0:
36,171,16290,1,0,0:0:0:0:
36,171,16372,1,8,0:0:0:0:
99,252,16535,1,0,0:0:0:0:
200,273,16698,6,0,P|233:285|266:283,1,68,4|0,0:0|0:0,0:0:0:0:
372,276,17024,1,8,0:0:0:0:
248,192,17187,1,8,0:0:0:0:
352,156,17350,2,0,L|428:152,1,68
376,64,17676,2,0,L|300:68,1,68,8|0,0:0|0:0,0:0:0:0:
170,79,18001,6,0,P|135:82|105:99,1,68,4|0,0:0|0:0,0:0:0:0:
15,154,18328,1,8,0:0:0:0:
163,172,18490,1,8,0:0:0:0:
87,252,18654,2,0,L|21:289,1,68
108,344,18980,2,0,L|175:307,1,68,8|0,0:0|0:0,0:0:0:0:
268,263,19306,6,0,P|299:249|324:226,1,68,4|0,0:0|0:0,0:0:0:0:
398,151,19632,1,8,0:0:0:0:
250,171,19794,1,8,0:0:0:0:
250,171,19959,2,0,L|191:204,1,68
188,101,20285,2,0,L|248:67,1,68,8|0,0:0|0:0,0:0:0:0:
382,42,20611,5,0,0:0:0:0:
328,168,20774,1,0,0:0:0:0:
464,112,20937,1,8,0:0:0:0:
410,238,21100,1,0,0:0:0:0:
410,238,21181,1,0,0:0:0:0:
410,238,21263,1,0,0:0:0:0:
214,172,21426,5,0,1:0:0:0:
182,173,21507,1,0,1:0:0:0:
148,178,21589,1,0,1:0:0:0:
117,191,21670,1,0,1:0:0:0:
88,209,21752,1,0,1:0:0:0:
64,233,21833,1,0,1:0:0:0:
45,261,21915,6,0,L|26:350,1,85,4|0,0:0|0:0,0:0:0:0:
167,315,22241,2,0,L|149:231,1,85,8|0,0:0|0:0,0:0:0:0:
284,280,22567,1,0,0:0:0:0:
258,139,22730,1,0,0:0:0:0:
149,231,22893,1,8,0:0:0:0:
212,315,23056,6,0,P|281:360|354:319,1,170
376,216,23545,1,8,0:0:0:0:
336,108,23709,1,8,0:0:0:0:
268,196,23872,2,0,L|284:280,1,85,0|0,0:0|0:0,0:0:0:0:
148,248,24198,2,0,L|163:164,1,85,8|0,0:0|0:0,0:0:0:0:
208,48,24524,6,0,L|300:36,1,85,0|0,0:0|0:0,0:0:0:0:
364,158,24850,2,0,L|280:148,1,85,8|0,0:0|0:0,0:0:0:0:
136,224,25176,1,0,0:0:0:0:
271,284,25339,1,0,0:0:0:0:
183,150,25502,1,8,0:0:0:0:
133,305,25665,6,0,P|210:335|271:285,1,170,0|0,0:0|0:0,0:0:0:0:
220,152,26154,1,8,0:0:0:0:
196,254,26317,1,8,0:0:0:0:
316,200,26480,2,0,P|376:188|424:184,1,85,0|0,0:0|0:0,0:0:0:0:
399,185,26725,1,0,0:0:0:0:
399,185,26806,1,8,0:0:0:0:
380,284,26969,1,0,0:0:0:0:
284,316,27132,6,0,P|241:310|200:301,1,85,4|0,0:0|0:0,0:0:0:0:
93,260,27459,1,8,0:0:0:0:
209,204,27622,1,8,0:0:0:0:
153,368,27785,2,0,P|111:376|69:369,1,85,0|0,0:0|0:0,0:0:0:0:
125,202,28111,2,0,P|167:195|209:204,1,85,8|0,0:0|0:0,0:0:0:0:
284,316,28437,6,0,P|327:310|368:301,1,85,4|0,0:0|0:0,0:0:0:0:
475,260,28764,1,8,0:0:0:0:
359,204,28927,1,8,0:0:0:0:
415,368,29090,2,0,P|457:376|499:369,1,85,0|0,0:0|0:0,0:0:0:0:
442,202,29416,2,0,P|400:195|358:203,1,85,8|0,0:0|0:0,0:0:0:0:
244,280,29741,6,0,P|163:281|132:208,1,170,0|8,0:0|0:0,0:0:0:0:
146,111,30230,1,0,0:0:0:0:
56,146,30393,2,0,L|19:224,2,85,0|0|8,0:0|0:0|0:0,0:0:0:0:
203,220,30882,6,0,P|272:261|337:213,1,170,0|0,0:0|0:0,0:0:0:0:
322,64,31372,1,8,0:0:0:0:
269,188,31535,1,0,0:0:0:0:
164,104,31698,1,0,0:0:0:0:
126,200,31861,1,0,0:0:0:0:
126,200,31942,1,0,0:0:0:0:
126,200,32024,2,0,B|116:248|116:248|128:284,1,85,8|0,0:0|0:0,0:0:0:0:
195,167,32350,6,0,P|145:126|80:138,1,136,4|0,0:0|0:0,0:0:0:0:
44,296,32839,2,0,B|132:316|132:316|175:303,1,136,0|0,0:0|0:0,0:0:0:0:
126,200,33328,1,0,0:0:0:0:
0,236,33492,1,0,0:0:0:0:
46,368,33654,6,0,B|134:388|134:388|177:375,1,136,2|0,1:2|0:0,0:0:0:0:
112,228,34143,2,0,P|45:239|11:298,1,136,2|0,1:2|0:0,0:0:0:0:
58,150,34633,1,0,0:0:0:0:
90,305,34795,1,0,0:0:0:0:
208,201,34959,6,0,P|271:179|334:202,1,136,4|0,0:0|0:0,0:0:0:0:
363,293,35448,1,2,0:0:0:0:
269,274,35611,1,0,0:0:0:0:
208,201,35774,1,2,0:0:0:0:
224,107,35937,2,0,P|256:99|289:106,1,68,0|2,0:0|0:0,0:0:0:0:
407,180,36263,6,0,P|356:220|291:206,1,136,4|2,0:0|0:0,0:0:0:0:
200,144,36752,1,2,0:0:0:0:
140,236,36915,2,0,L|124:304,1,68,4|0,0:0|0:0,0:0:0:0:
265,355,37241,1,0,1:0:0:0:
299,355,37322,1,0,1:0:0:0:
330,342,37404,1,0,1:0:0:0:
354,319,37485,1,0,1:0:0:0:
367,288,37567,5,4,0:0:0:0:
408,180,37730,1,2,0:0:0:0:
408,180,37812,1,2,0:0:0:0:
408,180,37893,2,0,P|400:136|372:96,1,85,10|0,0:0|0:0,0:0:0:0:
288,136,38219,5,0,0:0:0:0:
248,244,38382,1,2,0:0:0:0:
248,244,38464,1,2,0:0:0:0:
248,244,38545,2,0,P|240:288|212:328,1,85,10|0,0:0|0:0,0:0:0:0:
128,288,38872,5,4,0:0:0:0:
88,180,39035,1,2,0:0:0:0:
88,180,39117,1,2,0:0:0:0:
88,180,39198,2,0,P|96:136|124:96,1,85,10|0,0:0|0:0,0:0:0:0:
208,136,39524,5,0,0:0:0:0:
248,244,39687,1,2,0:0:0:0:
248,244,39769,1,2,0:0:0:0:
248,244,39850,2,0,P|256:288|284:328,1,85,10|0,0:0|0:0,0:0:0:0:
368,288,40176,5,4,0:0:0:0:
412,168,40339,1,0,0:0:0:0:
436,320,40502,1,8,0:0:0:0:
344,200,40665,1,8,0:0:0:0:
264,284,40828,2,0,L|276:376,1,85,0|0,0:0|0:0,0:0:0:0:
148,324,41154,2,0,L|158:239,1,85,8|0,0:0|0:0,0:0:0:0:
168,92,41480,5,4,0:0:0:0:
96,188,41643,1,0,0:0:0:0:
244,216,41806,1,8,0:0:0:0:
88,104,41969,1,8,0:0:0:0:
162,199,42132,1,0,0:0:0:0:
12,228,42295,1,0,0:0:0:0:
124,296,42459,2,0,P|172:300|216:288,1,85,8|0,0:0|0:0,0:0:0:0:
333,256,42784,5,8,0:0:0:0:
296,92,42948,1,8,0:0:0:0:
296,92,43274,2,0,L|204:84,1,85,8|0,0:0|0:0,0:0:0:0:
248,200,43600,2,0,L|164:239,1,85,8|0,0:0|0:0,0:0:0:0:
259,316,43926,2,0,P|328:334|296:272,1,170,8|0,0:0|0:0,0:0:0:0:
400,232,44415,6,2,P|376:167|442:187,1,170,2|0,0:1|0:0,0:1:0:0:
444,304,44904,1,2,0:0:0:0:
296,256,45067,1,2,0:0:0:0:
441,186,45230,1,2,0:0:0:0:
348,318,45393,6,0,P|261:328|217:247,1,187.000005706787,4|8,0:0|0:0,0:0:0:0:
178,93,45882,1,0,0:0:0:0:
64,208,46045,1,0,0:0:0:0:
76,44,46209,1,0,0:0:0:0:
166,187,46372,1,8,0:0:0:0:
48,116,46535,6,0,L|64:208,1,93.5000028533936,2|0,0:0|0:0,0:0:0:0:
232,144,46861,2,0,L|248:52,1,93.5000028533936,2|8,0:0|0:0,0:0:0:0:
140,152,47187,2,0,L|156:244,1,93.5000028533936,2|0,0:0|0:0,0:0:0:0:
316,196,47513,1,2,0:0:0:0:
220,276,47676,1,10,0:0:0:0:
252,148,47839,1,2,0:0:0:0:
272,328,48002,6,0,P|187:341|149:259,1,187.000005706787,4|8,0:0|0:0,0:0:0:0:
171,164,48491,1,2,0:0:0:0:
244,232,48654,1,0,0:0:0:0:
91,198,48817,1,2,0:0:0:0:
196,82,48980,1,8,0:0:0:0:
145,251,49143,6,0,P|59:267|16:190,1,187.000005706787,2|2,0:0|0:0,0:0:0:0:
200,132,49632,1,8,0:0:0:0:
216,321,49795,1,0,0:0:0:0:
91,198,49959,1,0,0:0:0:0:
260,151,50122,1,0,0:0:0:0:
260,151,50203,1,0,0:0:0:0:
260,151,50285,2,0,L|272:252,1,93.5000028533936,8|0,0:0|0:0,0:0:0:0:
372,288,50611,6,0,L|394:102,1,187.000005706787,0|8,0:0|0:0,0:0:0:0:
308,36,51100,1,0,0:0:0:0:
218,97,51263,2,0,P|164:104|124:92,1,93.5000028533936
200,200,51589,2,0,P|254:193|294:205,1,93.5000028533936,8|0,0:0|0:0,0:0:0:0:
384,272,51915,6,0,P|474:284|511:205,1,187.000005706787,0|8,0:0|0:0,0:0:0:0:
304,140,52404,2,0,P|300:188|307:233,1,93.5000028533936,0|0,0:0|0:0,0:0:0:0:
436,216,52730,2,0,P|440:168|433:123,1,93.5000028533936,0|8,0:0|0:0,0:0:0:0:
360,36,53056,1,0,0:0:0:0:
304,140,53219,6,0,P|260:157|144:93,1,187.000005706787,0|8,0:0|0:0,0:0:0:0:
60,40,53709,1,0,0:0:0:0:
4,124,53872,2,0,L|16:228,1,93.5000028533936,0|0,0:0|0:0,0:0:0:0:
136,256,54198,2,0,L|146:163,1,93.5000028533936,8|0,0:0|0:0,0:0:0:0:
146,163,54442,1,0,0:0:0:0:
146,163,54524,5,0,1:0:0:0:
240,93,54687,1,0,1:0:0:0:
252,207,54850,1,8,1:2:0:0:
375,154,55013,1,0,1:0:0:0:
375,154,55339,1,2,0:0:0:0:
255,241,55502,1,2,0:0:0:0:
240,93,55665,1,2,0:0:0:0:
375,154,55828,6,0,P|392:241|320:292,1,187.000005706787,4|8,0:0|0:0,0:0:0:0:
168,320,56317,1,0,0:0:0:0:
272,100,56480,1,0,0:0:0:0:
318,211,56643,1,0,0:0:0:0:
170,188,56806,1,8,0:0:0:0:
168,320,56969,6,0,L|261:316,1,93.5000028533936,2|0,0:0|0:0,0:0:0:0:
264,184,57295,2,0,L|171:188,1,93.5000028533936,2|8,0:0|0:0,0:0:0:0:
187,331,57622,2,0,L|280:327,1,93.5000028533936,2|0,0:0|0:0,0:0:0:0:
352,176,57948,1,2,0:0:0:0:
280,327,58111,1,10,0:0:0:0:
232,220,58274,1,2,0:0:0:0:
400,282,58437,6,0,P|418:196|345:147,1,187.000005706787,4|8,0:0|0:0,0:0:0:0:
235,184,58926,1,2,0:0:0:0:
343,227,59089,1,0,0:0:0:0:
272,316,59252,2,0,P|224:324|160:312,1,93.5000028533936,2|8,0:0|0:0,0:0:0:0:
163,164,59578,6,0,P|230:110|306:159,1,187.000005706787,2|2,0:0|0:0,0:0:0:0:
284,296,60067,2,0,P|240:320|192:312,1,93.5000028533936,8|0,0:0|0:0,0:0:0:0:
224,224,60393,1,0,0:0:0:0:
249,132,60556,1,0,0:0:0:0:
249,132,60638,1,0,0:0:0:0:
249,132,60719,2,0,P|203:128|164:152,1,93.5000028533936,8|0,0:0|0:0,0:0:0:0:
88,212,61045,6,0,B|72:288|100:356|100:356|144:336,1,187.000005706787,0|8,0:0|0:0,0:0:0:0:
228,300,61535,1,0,0:0:0:0:
319,336,61698,2,0,P|376:348|424:336,1,93.5000028533936,0|0,0:0|0:0,0:0:0:0:
408,244,62024,2,0,P|363:232|317:238,1,93.5000028533936,8|0,0:0|0:0,0:0:0:0:
232,288,62350,6,0,P|184:304|64:248,1,187.000005706787,0|8,0:0|0:0,0:0:0:0:
124,192,62839,2,0,L|228:212,1,93.5000028533936
279,141,63165,2,0,L|364:182,1,93.5000028533936,0|8,0:0|0:0,0:0:0:0:
408,272,63491,1,0,0:0:0:0:
497,228,63654,6,0,L|508:40,1,187.000005706787,0|8,0:0|0:0,0:0:0:0:
416,0,64143,1,0,0:0:0:0:
324,44,64306,2,0,L|329:137,1,93.5000028533936,0|0,0:0|0:0,0:0:0:0:
240,168,64632,1,8,0:0:0:0:
360,236,64795,1,0,0:0:0:0:
360,236,64877,1,0,0:0:0:0:
360,236,64959,5,0,1:0:0:0:
284,72,65122,1,0,0:0:0:0:
240,192,65285,1,8,1:2:0:0:
404,116,65448,1,0,1:2:0:0:
404,116,65774,1,2,0:0:0:0:
416,252,65937,1,2,0:0:0:0:
292,208,66100,1,2,0:0:0:0:
336,76,66263,6,0,P|383:38|476:88,1,170,4|8,0:0|0:0,0:0:0:0:
392,184,66752,1,0,0:0:0:0:
256,120,66915,1,0,0:0:0:0:
302,245,67078,1,0,0:0:0:0:
340,108,67241,1,8,0:0:0:0:
240,288,67404,6,0,P|272:315|313:320,1,85,2|0,0:0|0:0,0:0:0:0:
424,232,67730,2,0,L|436:328,1,85,2|8,0:0|0:0,0:0:0:0:
302,245,68056,2,0,L|312:160,1,85,2|0,0:0|0:0,0:0:0:0:
360,304,68382,1,2,0:0:0:0:
228,320,68545,1,10,0:0:0:0:
162,188,68709,1,2,0:0:0:0:
309,202,68872,6,0,P|395:184|420:106,1,170,4|8,0:0|0:0,0:0:0:0:
244,96,69360,1,0,0:0:0:0:
323,40,69524,2,0,P|336:79|337:122,1,85,0|0,0:0|0:0,0:0:0:0:
152,200,69850,2,0,P|152:157|166:117,1,85,8|0,0:0|0:0,0:0:0:0:
245,173,70176,6,0,L|229:273,1,85,2|0,0:0|0:0,0:0:0:0:
377,165,70502,2,0,L|363:81,1,85,10|0,0:0|0:0,0:0:0:0:
269,217,70828,2,0,L|253:317,1,85,2|0,0:0|0:0,0:0:0:0:
401,209,71154,2,0,L|387:125,1,85,10|0,0:0|0:0,0:0:0:0:
280,88,71480,6,0,P|232:76|184:76,2,85,2|0|8,0:0|0:0|0:0,0:0:0:0:
200,164,71969,1,0,0:0:0:0:
296,220,72132,2,0,P|344:208|392:208,2,85,2|0|8,0:0|0:0|0:0,0:0:0:0:
376,296,72622,1,0,0:0:0:0:
456,184,72785,6,0,P|468:136|468:88,2,85,2|0|8,0:0|0:0|0:0,0:0:0:0:
356,252,73274,1,0,0:0:0:0:
280,156,73437,2,0,P|268:115|266:72,1,85,2|0,0:0|0:0,0:0:0:0:
389,88,73763,2,0,P|387:131|376:172,1,85,8|0,0:0|0:0,0:0:0:0:
340,296,74089,5,2,0:0:0:0:
196,216,74252,1,2,0:0:0:0:
216,356,74415,1,10,0:0:0:0:
300,196,74578,1,2,0:0:0:0:
158,280,74741,1,2,0:0:0:0:
289,333,74904,1,2,0:0:0:0:
194,181,75067,1,10,0:0:0:0:
195,345,75230,1,10,0:0:0:0:
306,259,75393,6,0,P|346:245|389:245,2,85,10|10|0,0:0|0:0|0:0,0:0:0:0:
426,313,75882,2,0,P|465:241|417:173,1,170,10|0,0:0|0:0,0:0:0:0:
332,324,76372,1,0,0:0:0:0:
272,164,76535,1,0,0:0:0:0:
232,156,76616,1,0,0:0:0:0:
190,160,76698,5,2,0:0:0:0:
32,204,76861,1,2,0:0:0:0:
152,288,77024,1,10,0:0:0:0:
100,128,77187,1,2,0:0:0:0:
59,286,77350,1,2,0:0:0:0:
191,224,77513,1,2,0:0:0:0:
27,189,77676,1,10,0:0:0:0:
143,304,77839,1,10,0:0:0:0:
154,159,78002,6,0,P|170:114|206:84,2,85,10|10|0,0:0|0:0|0:0,0:0:0:0:
219,323,78491,2,0,B|240:292|240:292|245:234|236:160,1,170,10|2,0:0|0:0,0:0:0:0:
340,100,78980,1,2,0:0:0:0:
340,100,79143,1,2,0:0:0:0:
340,100,79306,6,0,P|345:141|346:190,1,85,4|2,0:0|0:0,0:0:0:0:
432,248,79632,2,0,P|433:205|438:163,1,85,2|2,0:0|0:0,0:0:0:0:
492,290,79959,2,0,P|417:320|359:253,1,170,2|0,0:0|0:0,0:0:0:0:
264,150,80447,6,0,P|339:120|397:187,1,170,2|0,0:0|0:0,0:0:0:0:
356,328,80937,1,0,0:0:0:0:
324,192,81100,1,0,0:0:0:0:
223,278,81263,2,0,P|180:278|140:267,1,85,0|2,0:0|0:0,0:0:0:0:
240,179,81589,2,0,P|283:180|324:192,1,85,2|2,0:0|0:0,0:0:0:0:
464,204,81915,5,4,0:0:0:0:
364,120,82078,1,2,0:0:0:0:
408,264,82241,2,0,L|416:352,1,85,2|2,0:0|0:0,0:0:0:0:
284,280,82567,2,0,L|291:195,1,85,2|0,0:0|0:0,0:0:0:0:
291,195,82812,1,0,0:0:0:0:
291,195,82893,1,0,0:0:0:0:
355,309,83056,6,0,P|291:357|218:319,1,170,2|0,0:0|0:0,0:0:0:0:
260,176,83545,1,0,0:0:0:0:
284,280,83709,1,0,0:0:0:0:
176,212,83872,2,0,L|88:200,1,85,0|2,0:0|0:0,0:0:0:0:
128,324,84198,2,0,L|216:312,1,85,2|2,0:0|0:0,0:0:0:0:
380,264,84524,6,0,L|402:81,1,170,4|0,0:0|0:0,0:0:0:0:
109,163,85176,2,0,L|131:345,1,170,4|0,0:0|0:0,0:0:0:0:
345,274,85828,2,0,L|368:92,1,170,4|0,0:0|0:0,0:0:0:0:
144,152,86480,2,0,L|165:320,1,170,4|0,0:0|0:0,0:0:0:0:
310,284,87132,5,4,0:0:0:0:
220,156,87295,1,0,0:0:0:0:
208,356,87459,1,8,0:0:0:0:
272,212,87622,1,0,0:0:0:0:
400,288,87785,2,0,L|384:384,1,85
258,295,88111,2,0,L|272:211,1,85,8|0,0:0|0:0,0:0:0:0:
328,40,88437,6,0,P|336:82|341:125,1,85,2|0,0:1|0:0,0:0:0:0:
409,65,88763,2,0,P|416:106|421:149,1,85,2|0,0:1|0:0,0:0:0:0:
489,89,89089,2,0,P|496:130|501:173,1,85,2|0,0:1|0:0,0:0:0:0:
439,256,89415,1,0,0:0:0:0:
345,212,89578,1,0,1:0:0:0:
345,212,89660,1,0,1:0:0:0:
345,212,89741,5,4,0:0:0:0:
316,224,90067,1,0,0:0:0:0:
284,219,90393,2,0,P|250:215|217:223,2,68,0|0|0,0:0|0:0|0:0,0:0:0:0:
175,288,90882,6,0,P|141:233|160:170,1,136,0|0,0:0|0:0,0:0:0:0:
256,300,91372,1,0,0:0:0:0:
304,192,91534,1,0,0:0:0:0:
401,321,91698,2,0,P|469:333|493:281,1,136,0|0,0:0|0:0,0:0:0:0:
472,128,92350,5,0,0:0:0:0:
452,104,92676,1,0,0:0:0:0:
421,96,93002,2,0,P|387:95|354:104,2,68,0|0|0,0:0|0:0|0:0,0:0:0:0:
343,177,93491,6,0,P|290:139|296:62,1,136,0|0,0:0|0:0,0:0:0:0:
420,108,93980,1,0,0:0:0:0:
236,196,94143,1,0,0:0:0:0:
388,256,94306,1,0,0:0:0:0:
296,144,94469,1,0,1:0:0:0:
296,144,94551,1,0,1:0:0:0:
296,144,94632,2,0,P|240:136|208:136,1,68,0|0,0:0|0:0,0:0:0:0:
272,256,94959,6,0,P|305:253|339:247,1,68,4|0,0:0|0:0,0:0:0:0:
464,216,95285,1,8,0:0:0:0:
292,168,95448,1,8,0:0:0:0:
388,320,95611,2,0,L|468:332,1,68,0|0,0:0|0:0,0:0:0:0:
408,192,95937,2,0,L|340:202,1,68,8|0,0:0|0:0,0:0:0:0:
212,204,96263,6,0,P|179:201|145:195,1,68,4|0,0:0|0:0,0:0:0:0:
20,164,96589,1,8,0:0:0:0:
192,116,96752,1,8,0:0:0:0:
96,268,96915,2,0,L|16:280,1,68,0|0,0:0|0:0,0:0:0:0:
76,140,97241,2,0,L|144:150,1,68,8|0,0:0|0:0,0:0:0:0:
272,168,97567,6,0,P|305:171|339:177,1,68,4|0,0:0|0:0,0:0:0:0:
464,208,97893,1,8,0:0:0:0:
292,256,98056,1,8,0:0:0:0:
388,104,98219,2,0,L|468:92,1,68,0|0,0:0|0:0,0:0:0:0:
408,232,98545,2,0,L|340:222,1,68,8|0,0:0|0:0,0:0:0:0:
168,188,98872,5,0,0:0:0:0:
360,144,99035,1,0,0:0:0:0:
280,284,99198,1,8,0:0:0:0:
245,92,99361,1,0,0:0:0:0:
245,92,99442,1,0,0:0:0:0:
245,92,99524,1,0,0:0:0:0:
160,24,99687,5,0,1:0:0:0:
126,20,99768,1,0,1:0:0:0:
94,31,99850,1,0,1:0:0:0:
70,54,99931,1,0,1:0:0:0:
58,86,100013,1,0,1:0:0:0:
61,120,100094,1,0,1:0:0:0:
79,148,100176,6,0,P|86:197|82:245,1,85,4|0,0:0|0:0,0:0:0:0:
248,172,100502,2,0,P|241:123|245:75,1,85,8|0,0:0|0:0,0:0:0:0:
308,264,100828,1,0,0:0:0:0:
168,228,100991,1,0,0:0:0:0:
248,172,101154,1,8,0:0:0:0:
220,280,101317,6,0,P|180:300|96:216,1,170,0|0,0:0|0:0,0:0:0:0:
156,92,101806,1,8,0:0:0:0:
224,204,101969,1,8,0:0:0:0:
84,148,102132,2,0,P|28:140|0:164,1,85,0|0,0:0|0:0,0:0:0:0:
104,56,102459,2,0,P|160:64|188:40,1,85,8|0,0:0|0:0,0:0:0:0:
292,32,102785,6,0,L|312:120,1,85,0|0,0:0|0:0,0:0:0:0:
456,168,103111,2,0,L|476:80,1,85,8|0,0:0|0:0,0:0:0:0:
360,192,103437,1,0,0:0:0:0:
492,264,103600,1,0,0:0:0:0:
408,136,103763,1,8,0:0:0:0:
280,216,103926,6,0,P|338:273|422:249,1,170,0|0,0:0|0:0,0:0:0:0:
328,132,104415,1,8,0:0:0:0:
252,312,104578,1,8,0:0:0:0:
444,276,104741,1,0,0:0:0:0:
268,188,104904,1,0,0:0:0:0:
268,188,104986,1,0,0:0:0:0:
268,188,105067,2,0,P|208:176|168:176,1,85,8|0,0:0|0:0,0:0:0:0:
328,88,105393,5,4,0:0:0:0:
408,216,105556,1,0,0:0:0:0:
268,159,105719,1,8,0:0:0:0:
414,122,105882,1,8,0:0:0:0:
316,237,106045,2,0,L|232:232,1,85,0|0,0:0|0:0,0:0:0:0:
200,76,106372,2,0,L|284:81,1,85,8|0,0:0|0:0,0:0:0:0:
382,202,106698,5,4,0:0:0:0:
311,335,106861,1,0,0:0:0:0:
290,185,107024,1,8,0:0:0:0:
395,293,107187,1,8,0:0:0:0:
247,266,107350,2,0,L|209:191,1,85,0|0,0:0|0:0,0:0:0:0:
328,85,107677,2,0,L|366:160,1,85,8|0,0:0|0:0,0:0:0:0:
309,317,108002,6,0,P|233:346|173:292,1,170,0|8,0:0|0:0,0:0:0:0:
92,240,108491,1,0,0:0:0:0:
14,297,108654,2,0,L|24:384,2,85,0|0|8,0:0|0:0|0:0,0:0:0:0:
31,189,109143,6,0,P|112:161|168:221,1,170
77,317,109632,1,8,0:0:0:0:
31,189,109795,1,8,0:0:0:0:
166,213,109959,2,0,P|226:211|258:191,1,85,0|0,0:0|0:0,0:0:0:0:
247,199,110203,1,0,0:0:0:0:
247,199,110285,1,8,0:0:0:0:
164,324,110447,1,0,0:0:0:0:
166,213,110611,6,0,P|103:188|37:198,1,136,4|0,0:0|0:0,0:0:0:0:
146,284,111100,2,0,P|213:270|239:212,1,136
330,149,111589,2,0,L|354:241,1,68,0|0,0:0|0:0,0:0:0:0:
399,53,111915,6,0,P|337:35|285:79,1,136,2|0,1:2|0:0,0:0:0:0:
276,231,112404,2,0,P|342:221|410:250,1,136,2|0,1:2|0:0,0:0:0:0:
332,336,112893,2,0,L|244:340,1,68,0|0,0:0|0:0,0:0:0:0:
280,192,113219,6,0,P|345:181|413:210,1,136,4|0,0:0|0:0,0:0:0:0:
336,104,113709,1,2,0:0:0:0:
292,272,113872,1,0,0:0:0:0:
208,140,114035,1,2,0:0:0:0:
164,308,114198,1,0,0:0:0:0:
80,176,114361,1,2,0:0:0:0:
208,232,114524,6,0,P|256:240|336:188,1,136,4|2,0:0|0:0,0:0:0:0:
336,104,115013,1,2,0:0:0:0:
208,232,115176,2,0,L|223:315,1,68,4|0,0:0|0:0,0:0:0:0:
387,285,115502,1,0,1:0:0:0:
404,257,115583,1,0,1:0:0:0:
400,223,115665,1,0,1:0:0:0:
377,200,115746,1,0,1:0:0:0:
344,195,115828,5,4,0:0:0:0:
212,248,115991,1,2,0:0:0:0:
212,248,116073,1,2,0:0:0:0:
212,248,116154,1,10,0:0:0:0:
323,335,116317,1,0,0:0:0:0:
270,203,116480,5,0,0:0:0:0:
380,291,116643,1,2,0:0:0:0:
380,291,116725,1,2,0:0:0:0:
380,291,116806,1,10,0:0:0:0:
249,343,116969,1,0,0:0:0:0:
196,211,117132,5,4,0:0:0:0:
64,262,117295,1,2,0:0:0:0:
64,262,117377,1,2,0:0:0:0:
64,262,117458,1,10,0:0:0:0:
174,350,117621,1,0,0:0:0:0:
121,218,117785,5,0,0:0:0:0:
231,306,117948,1,2,0:0:0:0:
231,306,118030,1,2,0:0:0:0:
231,306,118111,1,10,0:0:0:0:
100,358,118274,1,0,0:0:0:0:
121,218,118437,6,0,P|116:172|96:128,1,85,4|0,0:0|0:0,0:0:0:0:
240,44,118763,2,0,P|244:86|260:126,1,85,8|8,0:0|0:0,0:0:0:0:
384,160,119089,1,0,0:0:0:0:
232,212,119252,1,0,0:0:0:0:
404,264,119415,1,8,0:0:0:0:
252,316,119578,1,0,0:0:0:0:
316,168,119741,6,0,L|344:276,1,85,4|0,0:0|0:0,0:0:0:0:
192,176,120067,2,0,L|213:93,1,85,8|8,0:0|0:0,0:0:0:0:
64,168,120393,1,0,0:0:0:0:
240,252,120556,1,0,0:0:0:0:
56,264,120719,1,8,0:0:0:0:
250,155,120882,1,0,0:0:0:0:
135,321,121045,5,8,0:0:0:0:
264,340,121209,1,8,0:0:0:0:
264,340,121535,2,0,P|328:332|368:336,1,85,8|0,0:0|0:0,0:0:0:0:
400,224,121861,2,0,P|357:224|315:217,1,85,8|0,0:0|0:0,0:0:0:0:
188,168,122187,2,0,P|119:174|165:225,1,170,8|0,0:0|0:0,0:0:0:0:
256,116,122676,6,2,P|324:109|278:58,1,170,2|0,0:1|0:0,0:1:0:0:
144,92,123165,1,2,0:0:0:0:
240,216,123328,1,2,0:0:0:0:
88,160,123491,1,2,0:0:0:0:
295,147,123654,6,0,P|380:112|391:21,1,187.000005706787,4|8,0:0|0:0,0:0:0:0:
480,124,124143,1,0,0:0:0:0:
304,55,124306,1,0,0:0:0:0:
448,208,124469,1,0,0:0:0:0:
392,76,124632,1,8,0:0:0:0:
376,260,124795,6,0,B|372:328|372:328|363:351,1,93.5000028533936,2|0,0:0|0:0,0:0:0:0:
176,224,125122,2,0,B|171:156|171:156|179:122,1,93.5000028533936,2|8,0:0|0:0,0:0:0:0:
250,253,125448,2,0,P|180:304|102:252,1,187.000005706787,2|2,0:0|0:0,0:0:0:0:
264,180,125937,1,10,0:0:0:0:
164,120,126100,1,2,0:0:0:0:
208,303,126263,6,0,P|136:355|61:307,1,187.000005706787,4|8,0:0|0:0,0:0:0:0:
84,156,126752,1,2,0:0:0:0:
224,184,126915,1,0,0:0:0:0:
134,275,127078,1,2,0:0:0:0:
164,120,127241,1,8,0:0:0:0:
226,241,127404,6,0,P|320:232|336:152,1,187.000005706787,2|2,0:0|0:0,0:0:0:0:
220,72,127893,1,8,0:0:0:0:
148,216,128056,1,0,0:0:0:0:
268,180,128219,1,0,0:0:0:0:
120,116,128382,1,0,0:0:0:0:
120,116,128464,1,0,0:0:0:0:
120,116,128545,1,8,0:0:0:0:
226,241,128709,1,0,0:0:0:0:
377,178,128872,6,0,P|440:172|502:270,1,187.000005706787,0|8,0:0|0:0,0:0:0:0:
416,352,129361,1,0,0:0:0:0:
324,274,129524,2,0,L|415:256,1,93.5000028533936,0|0,0:0|0:0,0:0:0:0:
416,352,129850,2,0,L|324:370,1,93.5000028533936,8|0,0:0|0:0,0:0:0:0:
240,322,130176,6,0,P|196:304|80:368,1,187.000005706787,0|8,0:0|0:0,0:0:0:0:
0,320,130665,2,0,L|8:208,1,93.5000028533936
116,147,130991,2,0,L|110:241,1,93.5000028533936,0|8,0:0|0:0,0:0:0:0:
200,284,131317,1,0,0:0:0:0:
289,241,131480,6,0,L|301:54,1,187.000005706787,0|8,0:0|0:0,0:0:0:0:
388,8,131969,1,0,0:0:0:0:
472,60,132132,2,0,P|476:105|460:149,1,93.5000028533936,0|0,0:0|0:0,0:0:0:0:
376,92,132459,1,8,0:0:0:0:
382,211,132622,1,0,0:0:0:0:
382,211,132703,1,0,0:0:0:0:
382,211,132785,5,0,1:0:0:0:
350,363,132949,1,0,1:0:0:0:
228,140,133112,1,8,1:2:0:0:
196,292,133274,1,0,1:0:0:0:
196,292,133600,1,2,0:0:0:0:
442,223,133763,1,2,0:0:0:0:
295,205,133926,1,2,0:0:0:0:
501,180,134088,6,0,P|417:154|370:226,1,187.000005706787,4|8,0:0|0:0,0:0:0:0:
492,280,134578,1,0,0:0:0:0:
340,324,134741,1,0,0:0:0:0:
388,172,134904,1,0,0:0:0:0:
428,344,135067,1,8,0:0:0:0:
287,247,135230,6,0,P|243:234|197:238,1,93.5000028533936,2|0,0:0|0:0,0:0:0:0:
304,108,135556,2,0,P|348:121|394:117,1,93.5000028533936,2|8,0:0|0:0,0:0:0:0:
318,36,135882,2,0,P|240:72|256:162,1,187.000005706787,2|2,0:0|0:0,0:0:0:0:
380,192,136372,1,10,0:0:0:0:
224,244,136535,1,2,0:0:0:0:
408,259,136698,6,0,P|452:183|386:119,1,187.000005706787,4|8,0:0|0:0,0:0:0:0:
312,248,137187,1,2,0:0:0:0:
248,116,137350,1,0,0:0:0:0:
380,192,137513,1,2,0:0:0:0:
316,60,137676,1,8,0:0:0:0:
300,208,137839,6,0,P|306:271|425:295,1,187.000005706787,2|2,0:0|0:0,0:0:0:0:
444,176,138328,1,8,0:0:0:0:
320,140,138491,1,0,0:0:0:0:
376,232,138654,1,0,0:0:0:0:
368,76,138817,1,0,0:0:0:0:
368,76,138899,1,0,0:0:0:0:
368,76,138980,1,8,0:0:0:0:
274,184,139143,1,0,0:0:0:0:
155,102,139306,6,0,P|66:106|26:186,1,187.000005706787,0|8,0:0|0:0,0:0:0:0:
119,273,139795,1,0,0:0:0:0:
224,220,139959,2,0,L|231:126,1,93.5000028533936,0|0,0:0|0:0,0:0:0:0:
112,180,140285,2,0,L|119:273,1,93.5000028533936,8|0,0:0|0:0,0:0:0:0:
244,276,140611,6,0,L|258:89,1,187.000005706787,0|8,0:0|0:0,0:0:0:0:
360,12,141100,2,0,P|412:32|456:28,1,93.5000028533936,0|0,0:0|0:0,0:0:0:0:
347,107,141426,2,0,P|295:87|251:91,1,93.5000028533936,0|8,0:0|0:0,0:0:0:0:
168,140,141752,1,0,0:0:0:0:
138,240,141915,6,0,P|71:179|77:89,1,187.000005706787,0|8,0:0|0:0,0:0:0:0:
168,32,142404,1,0,0:0:0:0:
258,139,142567,2,0,P|213:149|168:140,1,93.5000028533936
220,244,142893,2,0,P|265:233|310:243,1,93.5000028533936,8|0,0:0|0:0,0:0:0:0:
310,243,143138,1,0,0:0:0:0:
310,243,143220,5,0,1:0:0:0:
212,76,143382,1,0,1:0:0:0:
136,244,143545,1,8,1:2:0:0:
334,156,143709,1,0,1:0:0:0:
334,156,144034,1,2,0:0:0:0:
220,240,144198,1,2,0:0:0:0:
349,296,144361,1,2,0:0:0:0:
321,91,144524,6,0,P|240:81|194:148,1,170,4|8,0:0|0:0,0:0:0:0:
324,244,145013,1,0,0:0:0:0:
272,152,145176,1,0,0:0:0:0:
208,272,145339,2,0,P|180:320|152:344,1,85,0|8,0:0|0:0,0:0:0:0:
80,224,145665,6,0,P|108:176|136:152,1,85,2|0,0:0|0:0,0:0:0:0:
272,192,145991,2,0,L|280:284,1,85,2|8,0:0|0:0,0:0:0:0:
414,223,146317,2,0,P|437:142|391:72,1,170,2|2,0:0|0:0,0:0:0:0:
240,40,146806,1,10,0:0:0:0:
345,156,146969,1,2,0:0:0:0:
190,190,147132,6,0,P|120:234|113:319,1,170,4|8,0:0|0:0,0:0:0:0:
244,348,147622,1,0,0:0:0:0:
340,216,147785,1,0,0:0:0:0:
200,284,147948,1,0,0:0:0:0:
340,324,148111,2,0,P|388:332|444:328,1,85,8|0,0:0|0:0,0:0:0:0:
384,192,148437,6,0,P|341:191|299:199,1,85,2|0,0:0|0:0,0:0:0:0:
152,120,148763,2,0,P|195:121|237:113,1,85,10|0,0:0|0:0,0:0:0:0:
368,232,149089,2,0,P|325:231|283:239,1,85,2|0,0:0|0:0,0:0:0:0:
168,80,149415,2,0,P|211:81|253:73,1,85,10|0,0:0|0:0,0:0:0:0:
376,48,149741,5,2,0:0:0:0:
328,168,149904,1,0,0:0:0:0:
448,120,150067,1,8,0:0:0:0:
400,240,150230,1,0,0:0:0:0:
244,192,150393,1,2,0:0:0:0:
295,311,150556,1,0,0:0:0:0:
345,192,150719,1,8,0:0:0:0:
396,311,150882,1,0,0:0:0:0:
444,155,151045,6,0,P|432:80|416:52,1,85,2|0,0:0|0:0,0:0:0:0:
308,112,151372,2,0,P|294:152|292:194,1,85,8|0,0:0|0:0,0:0:0:0:
336,312,151698,1,2,0:0:0:0:
448,256,151861,1,0,0:0:0:0:
424,132,152024,2,0,P|381:126|340:134,1,85,8|0,0:0|0:0,0:0:0:0:
164,212,152350,5,2,0:0:0:0:
312,308,152513,1,2,0:0:0:0:
308,112,152676,1,10,0:0:0:0:
256,220,152839,1,2,0:0:0:0:
188,120,153002,2,0,P|188:64|200:12,1,85,2|2,0:0|0:0,0:0:0:0:
92,60,153328,2,0,P|98:101|97:144,1,85,10|10,0:0|0:0,0:0:0:0:
80,272,153654,5,10,0:0:0:0:
184,192,153817,2,0,L|196:280,1,85,10|0,0:0|0:0,0:0:0:0:
305,238,154143,2,0,P|384:201|466:242,1,170,10|0,0:0|0:0,0:0:0:0:
312,140,154632,1,0,0:0:0:0:
384,304,154795,1,0,0:0:0:0:
384,304,154877,1,0,0:0:0:0:
384,304,154959,5,2,0:0:0:0:
440,160,155122,1,2,0:0:0:0:
308,220,155285,1,10,0:0:0:0:
364,76,155448,1,2,0:0:0:0:
388,204,155611,2,0,P|396:248|428:292,1,85,2|2,0:0|0:0,0:0:0:0:
252,256,155937,2,0,P|274:219|281:178,1,85,10|10,0:0|0:0,0:0:0:0:
200,76,156263,5,10,0:0:0:0:
96,152,156426,2,0,L|192:188,1,85,10|0,0:0|0:0,0:0:0:0:
80,77,156752,2,0,P|23:131|53:215,1,170,10|2,0:0|0:0,0:0:0:0:
175,181,157241,1,2,0:0:0:0:
88,304,157404,1,2,0:0:0:0:
208,354,157567,6,0,L|308:364,1,93.5000028533936,6|0,0:0|0:0,0:0:0:0:
348,206,157893,2,0,L|248:216,1,93.5000028533936,10|0,0:0|0:0,0:0:0:0:
172,296,158219,1,2,0:0:0:0:
184,176,158382,1,2,0:0:0:0:
261,317,158545,1,10,0:0:0:0:
344,180,158709,1,0,0:0:0:0:
380,204,158790,1,0,0:0:0:0:
395,244,158872,5,2,0:0:0:0:
288,360,159035,1,0,0:0:0:0:
260,244,159198,1,10,0:0:0:0:
424,356,159361,1,0,0:0:0:0:
380,204,159524,1,2,0:0:0:0:
356,336,159687,1,10,0:0:0:0:
476,252,159850,1,10,0:0:0:0:
344,156,160013,1,0,0:0:0:0:
308,136,160094,1,0,0:0:0:0:
267,140,160176,5,2,0:0:0:0:
72,212,160339,1,0,0:0:0:0:
276,216,160502,1,10,0:0:0:0:
112,280,160665,1,0,0:0:0:0:
334,284,160828,2,0,P|389:282|436:269,1,93.5000028533936,2|0,0:0|0:0,0:0:0:0:
365,162,161154,2,0,P|319:151|272:150,1,93.5000028533936,10|0,0:0|0:0,0:0:0:0:
156,192,161480,5,2,0:0:0:0:
268,268,161643,1,0,0:0:0:0:
288,80,161806,1,10,0:0:0:0:
400,156,161969,1,0,0:0:0:0:
412,196,162051,1,0,0:0:0:0:
398,235,162132,1,2,0:0:0:0:
300,300,162295,1,10,0:0:0:0:
272,144,162459,1,10,0:0:0:0:
208,264,162622,1,0,2:0:0:0:
173,286,162704,1,0,2:0:0:0:
130,285,162785,6,0,P|74:276|15:248,1,93.5000028533936,2|0,0:0|0:0,0:0:0:0:
98,170,163111,2,0,P|54:134|18:80,1,93.5000028533936,10|0,0:0|0:0,0:0:0:0:
127,54,163437,1,2,0:0:0:0:
292,32,163599,1,2,0:0:0:0:
176,176,163763,1,10,0:0:0:0:
341,198,163926,1,0,0:0:0:0:
352,236,164007,1,0,0:0:0:0:
338,273,164089,5,2,0:0:0:0:
172,336,164252,1,0,0:0:0:0:
232,140,164415,1,10,0:0:0:0:
412,332,164578,1,0,0:0:0:0:
252,304,164741,1,2,0:0:0:0:
372,232,164904,1,10,0:0:0:0:
232,176,165067,1,10,0:0:0:0:
352,104,165230,1,0,0:0:0:0:
392,92,165312,1,0,0:0:0:0:
431,105,165393,5,2,0:0:0:0:
464,264,165556,1,0,0:0:0:0:
356,184,165719,1,10,0:0:0:0:
323,343,165882,1,0,0:0:0:0:
268,224,166045,2,0,P|252:168|252:120,1,93.5000028533936,2|0,0:0|0:0,0:0:0:0:
140,172,166372,2,0,P|136:218|122:262,1,93.5000028533936,10|0,0:0|0:0,0:0:0:0:
220,196,166698,5,0,0:0:0:0:
308,288,166861,2,0,L|296:356,2,46.7500014266968,2|2|10,0:0|0:0|0:0,0:0:0:0:
160,332,167187,1,2,0:0:0:0:
120,328,167268,1,2,0:0:0:0:
83,311,167350,1,2,0:0:0:0:
22,209,167513,1,8,0:0:0:0:
22,209,167594,1,8,0:0:0:0:
22,209,167675,2,0,L|40:112,1,93.5000028533936,8|0,0:0|0:0,0:0:0:0:
116,200,168002,5,0,0:0:0:0:
208,112,168165,2,0,L|196:60,2,46.7500014266968,2|2|10,0:0|0:0|0:0,0:0:0:0:
240,248,168491,1,2,0:0:0:0:
264,280,168573,1,2,0:0:0:0:
301,291,168654,1,2,0:0:0:0:
335,173,168817,1,8,0:0:0:0:
335,173,168899,1,8,0:0:0:0:
335,173,168980,2,0,L|233:132,1,93.5000028533936,8|0,0:0|0:0,0:0:0:0:
98,200,169306,5,0,0:0:0:0:
98,200,169388,1,2,0:0:0:0:
174,186,169551,1,2,0:0:0:0:
174,186,169632,1,2,0:0:0:0:
123,127,169795,1,2,0:0:0:0:
123,127,169877,1,2,0:0:0:0:
123,127,169959,2,0,P|40:148|32:240,1,187.000005706787,2|8,0:0|0:0,0:0:0:0:
168,300,170448,6,0,L|320:312,1,136,4|0,1:2|1:0,0:0:0:0:
301,115,171263,2,0,L|149:103,1,136
59,176,171752,6,0,P|33:237|47:303,1,136,4|0,1:2|1:0,0:0:0:0:
256,272,172567,2,0,P|300:260|368:280,2,102,0|0|0,0:0|0:0|0:0,0:0:0:0:
372,344,173219,6,0,P|412:320|408:224,1,136,4|0,1:2|0:0,0:0:0:0:
308,284,173709,1,0,0:0:0:0:
232,192,173872,2,0,L|256:96,1,68,0|0,0:0|0:0,0:0:0:0:
360,88,174198,2,0,L|368:176,1,68,0|0,0:0|0:0,0:0:0:0:
291,252,174524,5,0,1:0:0:0:
291,252,174687,2,0,P|229:277|166:245,1,136,0|0,1:0|0:0,0:0:0:0:
180,116,175176,2,0,B|280:136|280:136|324:112,1,136,0|0,1:0|0:0,0:0:0:0:
180,39,175665,6,0,P|120:67|106:132,1,136,4|0,1:2|1:0,0:0:0:0:
184,296,176480,2,0,P|246:320|311:289,1,136,0|0,0:0|0:0,0:0:0:0:
366,229,176969,6,0,P|304:205|244:232,1,136,4|0,1:2|1:0,0:0:0:0:
118,349,177785,2,0,P|98:302|102:252,2,102
198,285,178437,6,0,B|295:307|295:307|354:282,1,136,4|0,0:0|0:0,0:0:0:0:
500,208,179089,2,0,B|403:186|403:186|343:210,1,136,4|0,0:0|0:0,0:0:0:0:
214,86,179741,6,0,P|160:80|132:68,1,68,4|0,1:2|0:0,0:0:0:0:
72,192,180067,2,0,P|104:182|172:187,1,102,0|0,1:0|1:0,0:0:0:0:
208,200,180393,1,0,1:0:0:0:
272,268,180556,1,0,0:0:0:0:
365,266,180719,1,0,1:0:0:0:
364,300,180801,1,0,1:0:0:0:
347,328,180882,1,0,1:0:0:0:
317,344,180964,1,0,1:0:0:0:
284,344,181045,5,0,0:0:0:0:
192,268,181209,1,0,0:0:0:0:
320,196,181371,1,8,0:0:0:0:
138,292,181698,5,0,0:0:0:0:
158,174,181862,1,0,0:0:0:0:
284,249,182024,1,8,0:0:0:0:
110,140,182350,5,0,0:0:0:0:
222,98,182514,1,0,0:0:0:0:
220,245,182676,1,8,0:0:0:0:
74,211,182839,2,0,P|31:141|76:67,2,170,8|8|8,0:0|0:0|0:0,0:0:0:0:
292,104,183654,5,0,0:0:0:0:
356,208,183817,1,0,0:0:0:0:
180,184,183980,1,8,0:0:0:0:
350,179,184306,5,0,0:0:0:0:
292,286,184469,1,0,0:0:0:0:
224,122,184632,1,8,0:0:0:0:
314,267,184959,5,0,0:0:0:0:
192,270,185122,1,0,0:0:0:0:
300,130,185285,1,8,0:0:0:0:
394,258,185448,2,0,P|362:332|276:338,2,170,8|8|8,0:0|0:0|0:0,0:0:0:0:
192,52,186263,6,0,P|140:64|92:92,1,85,0|0,0:0|0:0,0:0:0:0:
212,124,186589,2,0,P|160:136|112:164,1,85,8|0,0:0|0:0,0:0:0:0:
288,216,186915,2,0,P|326:233|368:241,1,85,0|0,0:0|0:0,0:0:0:0:
307,144,187241,2,0,P|345:161|387:169,1,85,8|0,0:0|0:0,0:0:0:0:
448,108,187567,5,0,0:0:0:0:
408,308,187730,1,0,0:0:0:0:
322,122,187893,1,8,0:0:0:0:
499,221,188056,1,0,0:0:0:0:
296,244,188219,5,0,0:0:0:0:
256,228,188301,1,0,0:0:0:0:
228,196,188382,1,0,0:0:0:0:
204,163,188464,1,0,0:0:0:0:
167,146,188545,1,8,0:0:0:0:
127,150,188627,1,0,0:0:0:0:
94,173,188709,1,0,0:0:0:0:
77,209,188790,1,0,0:0:0:0:
81,249,188872,5,8,0:0:0:0:
192,231,189035,1,8,0:0:0:0:
192,231,189361,2,0,P|204:168|200:132,1,85,8|0,0:0|0:0,0:0:0:0:
304,192,189687,2,0,P|304:234|314:275,1,85,8|0,0:0|0:0,0:0:0:0:
380,336,190013,1,8,0:0:0:0:
295,363,190176,5,8,0:0:0:0:
220,272,190339,1,8,0:0:0:0:
220,272,190665,2,0,P|172:264|120:276,1,85,8|0,0:0|0:0,0:0:0:0:
208,164,190991,2,0,P|249:169|291:161,1,85,8|0,0:0|0:0,0:0:0:0:
372,112,191317,1,8,0:0:0:0:
405,192,191480,5,8,0:0:0:0:
290,259,191643,1,8,0:0:0:0:
290,259,191969,2,0,P|295:218|292:175,1,85,8|0,0:0|0:0,0:0:0:0:
180,128,192295,2,0,P|176:170|181:212,1,85,8|0,0:0|0:0,0:0:0:0:
251,300,192622,2,0,P|316:321|289:258,1,170,8|0,0:0|0:0,0:0:0:0:
400,244,193111,6,0,P|380:178|444:202,1,170,2|0,0:1|0:0,0:0:0:0:
416,332,193600,1,2,0:0:0:0:
288,248,193763,1,2,0:0:0:0:
304,356,193926,1,2,0:0:0:0:
173,276,194089,6,0,P|107:286|71:342,1,136,4|2,0:0|0:0,0:0:0:0:
152,357,194578,1,0,0:0:0:0:
152,357,194741,2,0,L|240:368,1,68,0|0,0:0|0:0,0:0:0:0:
295,302,195067,1,2,0:0:0:0:
295,302,195230,6,0,P|350:335|418:311,1,136,0|0,0:0|0:0,0:0:0:0:
444,192,195719,1,2,0:0:0:0:
360,256,195882,1,2,0:0:0:0:
329,133,196045,2,0,P|320:88|320:64,1,68,0|0,0:0|0:0,0:0:0:0:
236,120,196372,2,0,P|243:153|245:186,1,68,2|0,0:0|0:0,0:0:0:0:
249,281,196698,6,0,P|186:260|152:203,1,136,0|2,0:0|0:0,0:0:0:0:
60,148,197187,1,0,0:0:0:0:
60,148,197350,2,0,L|52:220,2,68,0|0|2,0:0|0:0|0:0,0:0:0:0:
167,147,197839,6,0,L|160:80,1,68,0|8,0:0|0:0,0:0:0:0:
219,207,198165,1,0,0:0:0:0:
372,248,198328,1,2,0:0:0:0:
272,124,198492,1,8,0:0:0:0:
280,282,198654,1,0,0:0:0:0:
366,149,198818,1,0,0:0:0:0:
232,132,198980,1,10,0:0:0:0:
136,228,199143,1,0,0:0:0:0:
267,263,199306,6,0,P|320:276|440:224,1,187.000005706787,0|10,0:0|0:0,0:0:0:0:
208,124,199959,2,0,P|202:170|214:214,1,93.5000028533936
364,176,200285,2,0,P|369:129|357:85,1,93.5000028533936,10|0,0:0|0:0,0:0:0:0:
272,14,200611,6,0,L|292:200,1,187.000005706787,0|10,0:0|0:0,0:0:0:0:
268,308,201100,1,0,0:0:0:0:
268,308,201263,2,0,P|212:320|180:308,1,93.5000028533936
292,200,201589,2,0,P|348:188|380:200,1,93.5000028533936,10|0,0:0|0:0,0:0:0:0:
453,292,201915,6,0,P|457:198|447:105,1,187.000005706787,0|2,0:0|0:0,0:0:0:0:
238,50,202404,1,0,0:0:0:0:
238,50,202567,2,0,P|226:142|232:236,1,187.000005706787,0|2,0:0|0:0,0:0:0:0:
344,144,203056,1,0,0:0:0:0:
344,144,203138,1,0,0:0:0:0:
344,144,203219,6,0,P|345:190|349:237,1,93.5000028533936,0|0,0:0|0:0,0:0:0:0:
244,280,203545,2,0,P|247:233|249:186,1,93.5000028533936,0|0,0:0|0:0,0:0:0:0:
143,229,203872,1,0,0:0:0:0:
100,68,204035,1,10,0:0:0:0:
40,192,204198,1,10,0:0:0:0:
203,105,204361,1,10,0:0:0:0:
214,256,204524,6,0,P|132:305|70:251,1,187.000005706787,4|8,0:0|0:0,0:0:0:0:
200,160,205013,1,0,0:0:0:0:
40,124,205176,1,0,0:0:0:0:
143,229,205339,1,0,0:0:0:0:
97,55,205502,1,8,0:0:0:0:
256,60,205665,6,0,P|328:68|364:88,1,93.5000028533936,2|0,0:0|0:0,0:0:0:0:
280,188,205991,2,0,L|292:288,1,93.5000028533936,2|8,0:0|0:0,0:0:0:0:
139,248,206317,2,0,L|150:155,1,93.5000028533936,2|0,0:0|0:0,0:0:0:0:
196,36,206643,1,10,0:0:0:0:
272,140,206806,1,10,0:0:0:0:
100,84,206969,1,10,0:0:0:0:
211,211,207132,6,0,P|301:231|364:158,1,187.000005706787,4|8,0:0|0:0,0:0:0:0:
344,296,207622,1,2,0:0:0:0:
272,140,207785,1,0,0:0:0:0:
228,272,207947,1,2,0:0:0:0:
149,173,208111,1,8,0:0:0:0:
64,256,208274,6,0,P|48:312|52:364,1,93.5000028533936,2|0,0:0|0:0,0:0:0:0:
204,288,208600,2,0,P|203:241|188:197,1,93.5000028533936,2|8,0:0|0:0,0:0:0:0:
100,80,208926,1,0,0:0:0:0:
72,212,209089,1,0,0:0:0:0:
196,120,209252,1,0,0:0:0:0:
196,120,209334,1,0,0:0:0:0:
196,120,209415,1,8,0:0:0:0:
184,236,209578,1,0,0:0:0:0:
288,184,209741,6,0,L|480:164,1,187.000005706787,0|8,0:0|0:0,0:0:0:0:
512,256,210230,1,0,0:0:0:0:
473,347,210393,2,0,L|356:334,1,93.5000028533936,0|0,0:0|0:0,0:0:0:0:
332,228,210719,2,0,L|448:240,1,93.5000028533936,8|0,0:0|0:0,0:0:0:0:
276,304,211045,6,0,P|239:221|285:144,1,187.000005706787,0|8,0:0|0:0,0:0:0:0:
409,170,211535,2,0,P|421:214|406:258,1,93.5000028533936,0|0,0:0|0:0,0:0:0:0:
284,143,211861,1,0,0:0:0:0:
284,143,212024,2,0,P|271:99|286:56,1,93.5000028533936,8|0,0:0|0:0,0:0:0:0:
461,60,212350,6,0,L|444:260,1,187.000005706787,0|8,0:0|0:0,0:0:0:0:
356,296,212839,1,0,0:0:0:0:
357,193,213002,2,0,P|301:180|261:200,1,93.5000028533936,0|0,0:0|0:0,0:0:0:0:
289,296,213328,2,0,P|345:309|385:289,1,93.5000028533936,8|0,0:0|1:0,0:0:0:0:
376,295,213573,1,0,1:0:0:0:
376,295,213654,6,0,B|436:288|436:288|468:301,1,93.5000028533936,0|0,1:0|1:0,0:0:0:0:
360,164,213980,2,0,B|300:171|300:171|268:158,1,93.5000028533936,8|0,1:2|1:0,0:0:0:0:
99,132,214306,1,0,0:0:0:0:
212,256,214469,1,10,0:0:0:0:
244,92,214632,1,2,0:0:0:0:
131,216,214795,1,10,0:0:0:0:
284,207,214959,6,0,P|356:228|376:316,1,170,4|8,0:0|0:0,0:0:0:0:
236,336,215448,1,0,0:0:0:0:
324,156,215611,1,0,0:0:0:0:
304,284,215774,1,0,0:0:0:0:
208,204,215937,1,8,0:0:0:0:
440,176,216100,6,0,L|452:260,1,85,2|0,0:0|0:0,0:0:0:0:
324,243,216426,2,0,L|312:328,1,85,2|8,0:0|0:0,0:0:0:0:
472,208,216752,2,0,L|484:292,1,85,2|0,0:0|0:0,0:0:0:0:
312,328,217078,1,10,0:0:0:0:
472,208,217241,1,10,0:0:0:0:
418,334,217404,1,10,0:0:0:0:
200,273,217567,6,0,P|255:212|336:225,1,170,4|8,0:0|0:0,0:0:0:0:
264,136,218056,1,0,0:0:0:0:
285,296,218219,2,0,P|326:310|368:312,1,85,0|0,0:0|0:0,0:0:0:0:
352,204,218545,2,0,P|393:195|431:176,1,85,8|0,0:0|0:0,0:0:0:0:
364,90,218872,6,0,L|264:80,1,85,2|0,0:0|0:0,0:0:0:0:
216,252,219198,2,0,L|300:243,1,85,10|0,0:0|0:0,0:0:0:0:
383,123,219524,2,0,L|283:113,1,85,2|0,0:0|0:0,0:0:0:0:
235,285,219850,2,0,L|319:276,1,85,10|0,0:0|0:0,0:0:0:0:
428,224,220176,5,2,0:0:0:0:
292,168,220339,1,0,0:0:0:0:
412,124,220501,1,8,0:0:0:0:
276,268,220665,1,0,0:0:0:0:
212,144,220828,2,0,P|220:84|248:36,1,85,2|0,0:0|0:0,0:0:0:0:
96,108,221154,2,0,P|110:147|113:189,1,85,8|0,0:0|0:0,0:0:0:0:
76,336,221480,5,2,0:0:0:0:
32,184,221643,1,0,0:0:0:0:
168,264,221806,1,8,0:0:0:0:
212,112,221969,1,0,0:0:0:0:
264,240,222132,2,0,P|276:288|268:344,1,85,2|0,0:0|0:0,0:0:0:0:
376,284,222459,2,0,P|374:241|385:200,1,85,8|0,0:0|0:0,0:0:0:0:
440,60,222785,5,2,0:0:0:0:
496,216,222948,1,2,0:0:0:0:
312,156,223111,1,10,0:0:0:0:
464,144,223274,1,2,0:0:0:0:
356,270,223437,1,2,0:0:0:0:
316,81,223600,1,2,0:0:0:0:
403,206,223763,1,10,0:0:0:0:
240,176,223926,1,10,0:0:0:0:
383,47,224089,5,10,0:0:0:0:
318,184,224252,2,0,L|292:100,1,85,10|0,0:0|0:0,0:0:0:0:
197,165,224578,2,0,P|140:222|61:198,1,170,10|0,0:0|0:0,0:0:0:0:
200,280,225067,1,0,0:0:0:0:
120,144,225230,1,0,0:0:0:0:
120,144,225312,1,0,0:0:0:0:
120,144,225393,5,2,0:0:0:0:
224,56,225556,1,2,0:0:0:0:
252,212,225719,1,10,0:0:0:0:
162,82,225882,1,2,0:0:0:0:
296,58,226045,1,2,0:0:0:0:
242,207,226208,1,2,0:0:0:0:
229,50,226372,1,10,0:0:0:0:
357,96,226535,1,10,0:0:0:0:
236,198,226698,5,10,0:0:0:0:
303,55,226861,2,0,P|332:86|324:128,1,85,10|0,0:0|0:0,0:0:0:0:
236,187,227187,2,0,P|153:196|108:119,1,170,10|0,0:0|0:0,0:0:0:0:
160,276,227676,1,0,0:0:0:0:
188,124,227839,1,0,0:0:0:0:
188,124,227920,1,0,0:0:0:0:
188,124,228002,5,4,0:0:0:0:
296,80,228165,1,0,0:0:0:0:
292,200,228328,1,8,0:0:0:0:
400,156,228491,1,0,0:0:0:0:
396,276,228654,2,0,P|388:340|368:380,1,85,8|8,0:0|0:0,0:0:0:0:
280,300,228980,1,0,0:0:0:0:
241,282,229061,1,0,0:0:0:0:
199,282,229143,1,0,0:0:0:0:
160,298,229224,1,0,0:0:0:0:
131,329,229306,5,4,0:0:0:0:
52,244,229469,1,0,0:0:0:0:
172,208,229632,1,8,0:0:0:0:
92,122,229795,1,0,0:0:0:0:
212,86,229959,2,0,P|276:94|316:114,1,85,8|8,0:0|0:0,0:0:0:0:
236,202,230285,1,0,0:0:0:0:
218,241,230366,1,0,0:0:0:0:
218,283,230448,1,0,0:0:0:0:
234,322,230529,1,0,0:0:0:0:
265,351,230611,6,0,P|328:356|376:348,1,85,4|0,0:0|0:0,0:0:0:0:
328,248,230937,2,0,P|385:220|422:189,1,85,8|0,0:0|0:0,0:0:0:0:
331,127,231263,1,0,0:0:0:0:
248,244,231426,1,0,0:0:0:0:
191,131,231589,1,10,0:0:0:0:
156,109,231670,1,0,0:0:0:0:
114,106,231752,1,8,0:0:0:0:
76,124,231833,1,0,0:0:0:0:
51,158,231915,5,4,0:0:0:0:
20,260,232078,2,0,L|35:353,1,85
136,376,232404,2,0,P|219:382|299:326,1,170,10|2,0:0|0:0,0:0:0:0:
352,172,232893,1,2,0:0:0:0:
399,342,233056,1,2,0:0:0:0:
256,232,233219,6,0,P|204:224|132:232,1,85,4|2,0:0|0:0,0:0:0:0:
136,112,233545,2,0,P|178:112|220:104,1,85,2|2,0:0|0:0,0:0:0:0:
340,91,233872,2,0,P|423:111|449:193,1,170,2|0,0:0|0:0,0:0:0:0:
413,310,234361,6,0,P|352:255|364:175,1,170,2|0,0:0|0:0,0:0:0:0:
484,112,234850,1,0,0:0:0:0:
432,227,235012,1,0,0:0:0:0:
336,76,235176,2,0,L|244:64,1,85,0|2,0:0|0:0,0:0:0:0:
196,200,235502,2,0,L|288:188,1,85,2|2,0:0|0:0,0:0:0:0:
333,276,235828,5,4,0:0:0:0:
384,172,235991,1,2,0:0:0:0:
468,320,236154,1,2,0:0:0:0:
268,340,236317,1,2,0:0:0:0:
301,201,236480,2,0,P|338:195|382:212,1,85,2|0,0:0|0:0,0:0:0:0:
381,211,236725,1,0,0:0:0:0:
381,211,236806,1,0,0:0:0:0:
351,318,236969,6,0,P|268:328|200:280,1,170,2|0,0:0|0:0,0:0:0:0:
164,164,237459,1,0,0:0:0:0:
80,268,237622,1,0,0:0:0:0:
68,120,237785,2,0,L|92:28,1,85,0|2,0:0|0:0,0:0:0:0:
208,104,238111,2,0,L|184:196,1,85,2|2,0:0|0:0,0:0:0:0:
248,272,238437,6,0,L|444:288,1,170,4|0,0:0|0:0,0:0:0:0:
316,100,239089,2,0,L|146:113,1,170,4|0,0:0|0:0,0:0:0:0:
204,312,239741,2,0,L|400:328,1,170,4|0,0:0|0:0,0:0:0:0:
272,60,240393,2,0,L|76:76,1,170,4|0,0:0|0:0,0:0:0:0:
316,184,241045,6,0,P|396:192|428:188,1,85,4|0,0:0|0:0,0:0:0:0:
340,284,241372,2,0,P|297:284|255:291,1,85,8|0,0:0|0:0,0:0:0:0:
148,319,241698,1,0,0:0:0:0:
45,273,241861,1,0,0:0:0:0:
24,236,241942,1,0,0:0:0:0:
26,195,242024,1,8,0:0:0:0:
49,160,242105,1,0,0:0:0:0:
87,142,242187,1,0,0:0:0:0:
128,146,242268,1,0,0:0:0:0:
161,170,242350,6,0,P|236:204|309:166,1,170,2|0,0:1|0:0,0:0:0:0:
116,68,242839,1,6,0:1:0:0:
