osu file format v14

[General]
AudioFilename: audio.mp3
AudioLeadIn: 0
PreviewTime: 60474
Countdown: 0
SampleSet: Soft
StackLeniency: 0.6
Mode: 0
LetterboxInBreaks: 0
WidescreenStoryboard: 1

[Editor]
Bookmarks: 125808
DistanceSpacing: 1.5
BeatDivisor: 4
GridSize: 32
TimelineZoom: 1.7

[Metadata]
Title:High-Touch * Memory
TitleUnicode:ハイタッチ☆メモリー
Artist:Ogura Yui
ArtistUnicode:小倉唯
Creator:shardex
Version:Reform's High-Touch * Insane
Source:カードファイト!! ヴァンガードG ストライドゲート編
Tags:Reform Kujinn Yuuma xIced Cardfight Vanguard G Stride Gate High Touch Summer japanese anime ed ending full version
BeatmapID:1885562
BeatmapSetID:803559

[Difficulty]
HPDrainRate:5
CircleSize:4
OverallDifficulty:8
ApproachRate:9
SliderMultiplier:1.7
SliderTickRate:1

[Events]
//Background and Video events
0,0,"hightouchbg.jpg",0,0
//Break Periods
2,10174,11541
2,82174,83207
2,90174,93974
2,200840,203307
2,232840,233874
//Storyboard Layer 0 (Background)
//Storyboard Layer 1 (Fail)
//Storyboard Layer 2 (Pass)
//Storyboard Layer 3 (Foreground)
//Storyboard Sound Samples

[TimingPoints]
641,333.333333333333,4,2,1,5,1,0
807,-142.857142857143,4,2,1,10,0,0
974,-142.857142857143,4,2,1,20,0,0
1140,-142.857142857143,4,2,1,30,0,0
1307,-142.857142857143,4,2,1,40,0,0
1474,-142.857142857143,4,2,1,50,0,0
1640,-142.857142857143,4,2,1,55,0,0
1807,-142.857142857143,4,2,1,5,0,0
1974,-142.857142857143,4,2,1,65,0,0
5807,-142.857142857143,4,2,1,65,0,0
6807,-125,4,2,1,65,0,0
9974,-125,4,2,1,60,0,0
12640,-100,4,2,1,70,0,0
23307,-111.111111111111,4,2,1,65,0,0
44640,-142.857142857143,4,2,1,55,0,0
49974,-111.111111111111,4,2,1,65,0,0
57974,-111.111111111111,4,2,1,60,0,0
60640,-90.9090909090908,4,2,1,75,0,1
70974,-90.9090909090909,4,2,1,75,0,0
71307,-90.9090909090909,4,2,1,75,0,1
81974,-90.9090909090909,4,2,1,55,0,0
84640,-90.9090909090909,4,2,1,70,0,1
88474,-90.9090909090909,4,2,1,60,0,1
89974,-125,4,2,1,45,0,0
95307,-125,4,2,1,50,0,0
97974,-111.111111111111,4,2,1,60,0,0
99307,-99.9999999999999,4,2,1,60,0,0
99640,-90.9090909090909,4,2,1,60,0,0
100140,-76.9230769230769,4,2,1,60,0,0
100640,-111.111111111111,4,2,1,65,0,0
103307,-90.9090909090908,4,2,1,60,0,0
103974,-83.3333333333333,4,2,1,60,0,0
105307,-76.923076923077,4,2,1,60,0,0
105557,-71.4285714285714,4,2,1,60,0,0
105807,-66.6666666666667,4,2,1,60,0,0
105974,-111.111111111111,4,2,1,60,0,0
111307,-111.111111111111,4,2,1,55,0,0
111807,-142.857142857143,4,2,1,55,0,0
116640,-111.111111111111,4,2,1,65,0,0
124640,-111.111111111111,4,2,1,60,0,0
125807,-111.111111111111,4,2,1,70,0,0
128474,-111.111111111111,4,2,1,60,0,0
129974,-90.9090909090908,4,2,1,75,0,1
140307,-90.9090909090909,4,2,1,75,0,0
140640,-90.9090909090909,4,2,1,75,0,1
153974,-111.111111111111,4,2,1,65,0,0
159307,-111.111111111111,4,2,1,70,0,0
164640,-111.111111111111,4,2,1,65,0,0
176640,-99.9999999999999,4,2,1,70,0,1
187307,-142.857142857143,4,2,1,50,0,0
191807,-125,4,2,1,55,0,0
192640,-111.111111111111,4,2,1,65,0,0
194974,-333.333333333332,4,2,1,65,0,0
195307,-111.111111111111,4,2,1,65,0,0
197974,-166.666666666666,4,2,1,40,0,0
200140,-166.666666666666,4,2,1,45,0,0
200224,-166.666666666666,4,2,1,45,0,0
200640,-166.666666666666,4,2,1,45,0,0
204640,-166.666666666666,4,2,1,45,0,0
205974,-125,4,2,1,50,0,0
208640,-100,4,2,1,65,0,0
211640,-90.9090909090909,4,2,1,75,0,1
211807,-90.9090909090909,4,2,1,75,0,0
212474,-90.9090909090909,4,2,1,75,0,1
221640,-90.9090909090909,4,2,1,75,0,0
221974,-90.9090909090909,4,2,1,75,0,1
232640,-90.909090909091,4,2,1,55,0,0
235307,-90.909090909091,4,2,1,70,0,1
245974,-111.111111111111,4,2,1,65,0,0
248224,-83.3333333333333,4,2,1,65,0,0
250307,-83.3333333333333,4,2,1,5,0,0

[Colours]
Combo1 : 243,163,139
Combo2 : 79,180,255
Combo3 : 124,211,162
Combo4 : 146,142,213

[HitObjects]
256,192,641,12,0,1807,0:0:0:0:
168,128,1974,6,0,B|117:182|27:124|78:17|177:10|244:97|244:97|297:170|405:121,1,475.999985473633,6|0,1:2|1:2,0:0:0:0:
451,310,4474,6,0,L|401:307,1,29.7499990921021,2|0,0:0|0:0,0:0:0:0:
366,323,4640,2,0,B|327:282|245:280|200:334|200:334|135:319|86:254|121:184|198:198|201:255,1,416.499987289429,2|4,1:2|1:2,0:0:0:0:
209,233,6140,6,0,P|214:181|218:147,1,59.4999981842042,0|8,1:2|0:0,0:0:0:0:
324,66,6474,1,0,1:2:0:0:
324,66,6557,1,0,1:2:0:0:
324,66,6640,2,0,P|327:97|330:128,1,59.4999981842042,8|8,0:0|0:0,0:0:0:0:
380,204,6890,1,8,0:0:0:0:
380,204,6974,2,0,L|375:268,3,34,8|8|8|8,0:0|0:0|0:0|0:0,0:0:0:0:
321,317,7307,5,6,1:2:0:0:
256,192,7390,12,8,8974,0:0:0:0:
188,125,9307,6,0,L|136:115,3,34,8|8|8|8,3:0|3:0|3:0|3:0,0:0:0:0:
253,191,9640,2,0,L|305:181,3,34,4|4|4|4,3:0|3:0|3:0|3:0,0:0:0:0:
171,260,9974,5,6,1:2:0:0:
255,328,12141,5,8,0:0:0:0:
255,328,12307,1,8,0:0:0:0:
461,323,12640,6,0,B|349:302|399:364|270:343,1,170,6|10,1:2|0:0,0:0:0:0:
158,215,13140,2,0,P|172:274|174:320,1,85,2|0,0:0|1:2,0:0:0:0:
292,118,13474,2,0,P|281:159|277:201,1,85,2|8,0:0|0:0,0:0:0:0:
249,36,13807,6,0,P|315:27|387:105,1,170,2|2,0:0|0:0,0:0:0:0:
277,201,14307,1,10,0:0:0:0:
277,201,14474,2,0,P|225:186|173:185,1,85,2|0,0:0|1:2,0:0:0:0:
332,336,14807,1,2,0:0:0:0:
332,336,14974,2,0,P|374:331|414:318,1,85,10|0,0:0|0:0,0:0:0:0:
415,108,15307,6,0,P|404:176|401:222,1,85,2|0,1:2|0:0,0:0:0:0:
253,117,15640,1,10,0:0:0:0:
293,230,15807,2,0,P|304:298|307:344,1,85,2|0,0:0|1:2,0:0:0:0:
155,172,16140,2,0,P|159:129|167:87,1,85,2|8,0:0|0:0,0:0:0:0:
56,251,16474,6,0,B|162:235|113:296|244:280,1,170,6|0,1:2|1:2,0:0:0:0:
333,217,16974,2,0,P|345:164|320:105,1,85,10|2,0:0|1:2,0:0:0:0:
322,89,17224,1,8,0:0:0:0:
322,89,17307,2,0,P|310:36|335:-23,1,85,0|2,1:2|1:2,0:0:0:0:
455,117,17640,1,10,0:0:0:0:
462,141,17724,1,8,0:0:0:0:
463,166,17807,1,8,0:0:0:0:
459,191,17890,1,8,0:0:0:0:
455,216,17974,6,0,P|394:270|320:223,1,170,6|10,1:2|0:0,0:0:0:0:
277,67,18474,2,0,P|285:114|272:169,1,85,2|0,0:0|1:2,0:0:0:0:
202,314,18807,2,0,P|194:267|207:212,1,85,2|8,0:0|0:0,0:0:0:0:
364,282,19140,6,0,B|258:266|307:327|176:311,1,170,2|2,0:0|0:0,0:0:0:0:
71,158,19640,2,0,P|84:214|85:270,1,85,10|2,0:0|0:0,0:0:0:0:
219,100,19974,1,2,1:2:0:0:
65,46,20140,1,2,0:0:0:0:
166,194,20307,2,0,P|213:208|268:191,1,85,10|0,0:0|0:0,0:0:0:0:
405,70,20640,6,0,P|358:56|303:73,1,85,2|2,1:2|0:0,0:0:0:0:
276,79,20890,1,2,0:0:0:0:
276,79,20974,2,0,P|245:85|216:84,3,42.5,10|2|2|2,0:0|0:0|0:0|0:0,0:0:0:0:
347,152,21307,2,0,P|378:158|407:157,3,42.5,2|2|2|2,1:2|0:0|0:0|0:0,0:0:0:0:
285,222,21640,2,0,P|263:223|243:228,1,42.5,10|2,0:0|0:0,0:0:0:0:
118,351,21807,6,0,B|89:254|160:290|111:162,1,170,6|2,1:2|1:2,0:0:0:0:
41,56,22307,5,10,0:0:0:0:
41,56,22474,1,2,1:2:0:0:
224,143,22640,5,2,1:2:0:0:
224,143,22807,1,2,1:2:0:0:
42,223,22974,5,10,0:0:0:0:
130,93,23140,1,2,0:0:0:0:
242,291,23307,6,0,P|289:314|331:311,1,76.4999976654053,6|2,1:2|0:0,0:0:0:0:
420,212,23640,1,10,0:0:0:0:
420,212,23807,1,2,1:2:0:0:
285,144,23974,2,0,P|291:200|294:248,1,76.4999976654053,2|2,0:0|1:2,0:0:0:0:
381,78,24307,1,10,0:0:0:0:
381,78,24474,1,2,0:0:0:0:
203,160,24640,5,2,1:2:0:0:
203,160,24807,2,0,P|163:146|111:142,1,76.4999976654053,2|8,0:0|0:0,0:0:0:0:
175,268,25140,2,0,B|271:286|226:225|351:244,1,152.999995330811,2|0,1:2|1:2,0:0:0:0:
437,323,25640,2,0,P|388:327|348:306,1,76.4999976654053,8|0,0:0|0:0,0:0:0:0:
417,132,25974,6,0,P|408:177|405:231,1,76.4999976654053,2|0,1:2|0:0,0:0:0:0:
325,96,26307,2,0,P|321:57|313:20,1,76.4999976654053,10|2,0:0|1:2,0:0:0:0:
250,160,26640,2,0,P|241:205|238:259,1,76.4999976654053,2|0,0:0|1:2,0:0:0:0:
167,116,26973,2,0,P|163:77|155:40,1,76.4999976654053,10|0,0:0|0:0,0:0:0:0:
104,217,27307,5,0,1:2:0:0:
177,321,27474,2,0,P|217:338|267:336,2,76.4999976654053,2|10|2,0:0|0:0|1:2,0:0:0:0:
310,197,27974,2,0,P|350:180|400:182,1,76.4999976654053,2|0,0:0|1:2,0:0:0:0:
380,350,28307,2,0,P|375:288|369:263,1,76.4999976654053,10|0,0:0|0:0,0:0:0:0:
329,98,28640,5,2,1:2:0:0:
329,98,28807,1,2,0:0:0:0:
229,185,28974,2,0,P|222:222|221:261,1,76.4999976654053,10|2,0:0|1:2,0:0:0:0:
104,105,29307,1,2,0:0:0:0:
46,296,29474,1,14,0:0:0:0:
46,296,29557,1,0,1:2:0:0:
46,296,29640,2,0,P|86:325|168:303,1,114.749996498108,12|0,0:0|0:0,0:0:0:0:
266,250,29974,5,2,1:2:0:0:
266,250,30140,1,2,0:0:0:0:
63,176,30307,2,0,P|103:162|160:162,1,76.4999976654053,10|2,0:0|1:2,0:0:0:0:
286,88,30640,1,2,0:0:0:0:
168,19,30807,1,14,0:0:0:0:
168,19,30890,1,0,1:2:0:0:
168,19,30974,2,0,P|178:71|176:159,1,114.749996498108,12|0,0:0|0:0,0:0:0:0:
158,173,31307,5,4,1:2:0:0:
158,173,31640,2,0,P|154:217|163:260,1,76.4999976654053,10|0,0:0|1:2,0:0:0:0:
297,340,31974,2,0,P|302:302|298:264,1,76.4999976654053,2|0,0:0|1:2,0:0:0:0:
376,148,32307,1,8,0:0:0:0:
450,247,32474,1,2,0:0:0:0:
248,167,32640,6,0,P|190:148|151:153,1,76.4999976654053,10|2,0:0|1:2,0:0:0:0:
88,217,32974,1,2,1:2:0:0:
245,276,33140,2,0,P|282:272|317:257,1,76.4999976654053,10|2,0:0|1:2,0:0:0:0:
388,158,33474,1,2,1:2:0:0:
235,91,33640,2,0,P|245:145|248:181,1,76.4999976654053,10|0,0:0|1:2,0:0:0:0:
411,262,33974,6,0,P|415:224|423:186,1,76.4999976654053,6|2,1:2|0:0,0:0:0:0:
196,262,34307,2,0,P|206:316|209:352,1,76.4999976654053,10|2,0:0|0:0,0:0:0:0:
328,217,34640,1,2,1:2:0:0:
166,153,34807,1,2,0:0:0:0:
278,302,34974,2,0,P|324:316|367:308,1,76.4999976654053,10|2,0:0|0:0,0:0:0:0:
477,123,35307,5,2,1:2:0:0:
477,123,35474,2,0,P|467:176|462:214,1,76.4999976654053,2|8,0:0|0:0,0:0:0:0:
328,138,35807,1,2,0:0:0:0:
424,284,35974,2,0,B|332:260|371:325|258:297,1,152.999995330811,0|8,1:2|0:0,0:0:0:0:
132,213,36474,1,0,0:0:0:0:
132,213,36640,6,0,P|149:269|154:313,1,76.4999976654053,2|0,1:2|0:0,0:0:0:0:
242,144,36974,2,0,P|249:106|261:70,1,76.4999976654053,10|0,0:0|0:0,0:0:0:0:
340,196,37307,2,0,P|323:252|318:296,1,76.4999976654053,2|0,1:2|0:0,0:0:0:0:
230,127,37641,2,0,P|222:89|210:53,1,76.4999976654053,10|0,0:0|0:0,0:0:0:0:
39,208,37974,6,0,P|77:243|181:222,1,152.999995330811,2|8,1:2|0:0,0:0:0:0:
271,313,38474,1,2,0:0:0:0:
271,313,38640,2,0,P|279:259|291:224,1,76.4999976654053,2|0,1:2|0:0,0:0:0:0:
422,174,38974,2,0,P|432:210|436:248,1,76.4999976654053,8|0,0:0|0:0,0:0:0:0:
390,349,39307,5,2,1:2:0:0:
390,349,39474,1,2,0:0:0:0:
301,251,39640,2,0,P|256:234|216:232,1,76.4999976654053,10|2,0:0|0:0,0:0:0:0:
412,157,39974,1,2,1:2:0:0:
310,47,40140,1,14,0:0:0:0:
310,47,40307,2,0,P|299:109|324:185,1,114.749996498108,12|0,0:0|0:0,0:0:0:0:
348,238,40640,5,2,1:2:0:0:
348,238,40807,1,2,0:0:0:0:
239,305,40974,2,0,P|194:322|154:324,1,76.4999976654053,10|2,0:0|0:0,0:0:0:0:
48,230,41307,1,2,1:2:0:0:
149,97,41474,1,14,0:0:0:0:
149,97,41640,2,0,P|160:159|135:235,1,114.749996498108,12|0,0:0|0:0,0:0:0:0:
106,283,41974,5,6,1:2:0:0:
106,283,42140,1,8,0:0:0:0:
201,349,42307,2,0,P|247:347|288:326,1,76.4999976654053,10|0,0:0|0:0,0:0:0:0:
375,238,42640,5,10,0:0:0:0:
375,238,42807,1,8,0:0:0:0:
288,155,42974,1,10,0:0:0:0:
208,238,43140,1,6,1:2:0:0:
208,238,43474,5,2,1:2:0:0:
189,99,43641,1,10,0:0:0:0:
305,265,43807,1,2,1:2:0:0:
324,87,43974,1,10,0:0:0:0:
215,246,44140,1,8,0:0:0:0:
215,246,44224,1,8,0:0:0:0:
215,246,44307,2,0,P|167:241|135:221,1,76.4999976654053,2|2,1:2|1:2,0:0:0:0:
59,47,44640,6,0,P|71:105|79:177,1,118.999996368408,6|2,1:2|0:0,0:0:0:0:
66,308,45140,1,0,1:2:0:0:
66,308,45307,2,0,P|71:251|77:224,1,59.4999981842042,10|0,0:0|0:0,0:0:0:0:
170,161,45640,1,2,1:2:0:0:
170,161,45807,1,0,1:2:0:0:
234,267,45974,6,0,P|279:299|353:297,1,118.999996368408,2|0,1:2|0:0,0:0:0:0:
413,232,46474,1,2,1:2:0:0:
413,232,46640,2,0,P|405:182|394:113,1,118.999996368408,8|0,0:0|1:2,0:0:0:0:
315,37,47140,1,2,1:2:0:0:
315,37,47307,6,0,P|270:72|196:65,1,118.999996368408,0|2,1:2|0:0,0:0:0:0:
103,153,47807,1,2,1:2:0:0:
103,153,47974,2,0,P|141:158|171:163,1,59.4999981842042,10|2,0:0|0:0,0:0:0:0:
260,252,48307,2,0,P|222:257|192:262,1,59.4999981842042,2|2,1:2|1:2,0:0:0:0:
104,313,48640,5,2,1:2:0:0:
64,228,48807,2,0,L|70:162,1,59.4999981842042,2|0,0:0|0:0,0:0:0:0:
161,49,49140,2,0,L|170:153,1,89.2499972763062,2|0,1:2|0:0,0:0:0:0:
174,178,49474,1,12,0:0:0:0:
286,214,49640,2,0,L|334:204,3,29.7499990921021,12|0|2|2,0:0|0:0|0:0|0:0,0:0:0:0:
391,243,49974,5,6,1:2:0:0:
391,243,50140,1,0,1:2:0:0:
315,139,50307,2,0,P|309:92|303:52,1,76.4999976654053,10|0,0:0|1:2,0:0:0:0:
224,214,50640,2,0,P|218:251|213:289,1,76.4999976654053,2|0,0:0|1:2,0:0:0:0:
141,142,50974,1,8,0:0:0:0:
302,270,51140,6,0,P|359:259|411:252,1,76.4999976654053,2|0,0:0|1:2,0:0:0:0:
487,171,51474,1,2,1:2:0:0:
452,343,51640,2,0,P|460:297|468:247,1,76.4999976654053,10|2,0:0|1:2,0:0:0:0:
367,93,51974,2,0,P|373:130|379:168,1,76.4999976654053,2|0,0:0|1:2,0:0:0:0:
318,273,52307,1,10,0:0:0:0:
318,273,52474,1,0,0:0:0:0:
192,162,52640,6,0,P|153:146|99:146,1,76.4999976654053,2|0,1:2|1:2,0:0:0:0:
14,292,52974,2,0,P|51:288|86:273,1,76.4999976654053,10|0,0:0|1:2,0:0:0:0:
179,172,53307,1,2,0:0:0:0:
201,336,53474,2,0,P|194:278|188:243,1,76.4999976654053,2|8,1:2|0:0,0:0:0:0:
297,117,53807,6,0,B|270:205|330:175|298:283,1,152.999995330811,2|0,0:0|1:2,0:0:0:0:
382,345,54307,2,0,P|438:343|470:317,1,76.4999976654053,10|0,0:0|1:2,0:0:0:0:
458,199,54640,2,0,P|423:183|385:187,1,76.4999976654053,2|0,0:0|1:2,0:0:0:0:
284,277,54974,1,10,0:0:0:0:
284,277,55057,1,8,0:0:0:0:
284,277,55140,1,8,0:0:0:0:
149,217,55307,6,0,P|146:145|132:57,1,152.999995330811,6|8,1:2|0:0,0:0:0:0:
66,151,55807,1,2,0:0:0:0:
209,52,55974,2,0,P|262:33|350:78,1,152.999995330811,2|8,1:2|0:0,0:0:0:0:
430,186,56474,1,0,0:0:0:0:
443,14,56640,6,0,P|433:63|427:101,1,76.4999976654053,0|0,1:2|0:0,0:0:0:0:
313,243,56974,2,0,P|306:205|298:167,1,76.4999976654053,8|0,0:0|0:0,0:0:0:0:
157,51,57307,1,0,1:2:0:0:
333,98,57474,1,0,1:2:0:0:
162,179,57640,1,8,0:0:0:0:
162,179,57724,1,8,0:0:0:0:
162,179,57807,1,8,0:0:0:0:
394,231,57974,5,6,1:2:0:0:
88,272,59140,6,0,B|131:268|162:296|162:296|177:255|236:241,1,152.999995330811,6|2,1:2|1:2,0:0:0:0:
305,165,59640,1,2,1:2:0:0:
242,333,59807,1,2,1:2:0:0:
146,178,59974,1,2,1:2:0:0:
323,263,60140,1,0,1:2:0:0:
323,263,60224,1,0,1:2:0:0:
323,263,60307,1,12,0:0:0:0:
122,347,60640,6,0,P|117:276|100:154,1,187.000005706787,6|10,1:2|0:0,0:0:0:0:
239,39,61140,2,0,P|287:60|336:62,1,93.5000028533936,2|0,0:0|1:2,0:0:0:0:
189,137,61474,2,0,P|142:141|100:160,1,93.5000028533936,2|8,0:0|0:0,0:0:0:0:
320,264,61807,6,0,B|354:145|284:187|319:69,1,187.000005706787,2|2,0:0|0:0,0:0:0:0:
236,217,62307,1,10,0:0:0:0:
406,123,62474,1,2,0:0:0:0:
307,302,62640,1,2,1:2:0:0:
228,116,62807,1,4,1:2:0:0:
393,250,62974,2,0,P|342:208|245:221,1,140.25000428009,12|0,0:0|0:0,0:0:0:0:
229,236,63307,6,0,P|180:252|118:230,1,93.5000028533936,6|0,1:2|0:0,0:0:0:0:
283,319,63640,1,10,0:0:0:0:
180,171,63807,2,0,P|167:117|177:71,1,93.5000028533936,2|0,0:0|1:2,0:0:0:0:
322,218,64140,2,0,P|328:264|315:308,1,93.5000028533936,2|8,0:0|0:0,0:0:0:0:
249,118,64474,6,0,B|367:96|322:170|467:145,1,187.000005706787,6|2,1:2|1:2,0:0:0:0:
290,226,64974,1,10,0:0:0:0:
382,60,65140,1,2,1:2:0:0:
396,246,65307,2,0,P|413:297|441:329,1,93.5000028533936,2|0,1:2|0:0,0:0:0:0:
250,103,65640,1,10,0:0:0:0:
219,272,65807,5,8,0:0:0:0:
219,272,65890,1,8,0:0:0:0:
219,272,65974,2,0,P|172:326|37:314,1,187.000005706787,6|10,1:2|0:0,0:0:0:0:
89,142,66474,2,0,P|105:203|109:252,1,93.5000028533936,2|0,0:0|1:2,0:0:0:0:
231,109,66807,2,0,P|237:62|250:17,1,93.5000028533936,2|8,0:0|0:0,0:0:0:0:
444,167,67140,6,0,B|332:144|374:217|248:194,1,187.000005706787,2|2,0:0|0:0,0:0:0:0:
407,268,67640,1,10,0:0:0:0:
307,106,67807,1,2,0:0:0:0:
232,221,67974,2,0,P|222:281|234:329,1,93.5000028533936,2|12,1:2|0:0,0:0:0:0:
390,161,68307,2,0,P|395:114|385:69,1,93.5000028533936,10|0,0:0|0:0,0:0:0:0:
123,152,68640,5,6,1:2:0:0:
307,106,68807,1,2,1:2:0:0:
152,46,68974,1,10,0:0:0:0:
219,174,69140,2,0,P|235:227|236:277,1,93.5000028533936,6|0,1:2|0:0,0:0:0:0:
326,119,69474,2,0,P|329:72|343:28,1,93.5000028533936,2|8,1:2|0:0,0:0:0:0:
426,176,69807,6,0,P|370:227|254:211,1,187.000005706787,6|2,1:2|1:2,0:0:0:0:
133,143,70307,1,10,0:0:0:0:
188,302,70474,1,2,0:0:0:0:
249,106,70640,1,2,1:2:0:0:
161,226,70807,1,0,1:2:0:0:
161,226,70890,1,0,1:2:0:0:
161,226,70974,2,0,P|128:231|97:235,3,46.7500014266968,8|8|8|8,0:0|0:0|0:0|0:0,0:0:0:0:
247,296,71307,6,0,B|356:277|317:347|444:324,1,187.000005706787,6|10,1:2|0:0,0:0:0:0:
420,143,71807,2,0,P|400:195|395:248,1,93.5000028533936,2|0,0:0|1:2,0:0:0:0:
261,30,72140,2,0,P|281:82|286:135,1,93.5000028533936,2|8,0:0|0:0,0:0:0:0:
156,318,72474,6,0,P|165:235|175:119,1,187.000005706787,2|2,0:0|0:0,0:0:0:0:
258,245,72974,1,10,0:0:0:0:
258,245,73140,1,2,0:0:0:0:
88,147,73307,1,2,1:2:0:0:
268,111,73474,1,14,0:0:0:0:
104,235,73640,2,0,P|47:231|2:193,1,93.5000028533936,14|0,0:0|0:0,0:0:0:0:
170,87,73974,6,0,B|153:198|216:151|191:279,1,187.000005706787,6|10,1:2|0:0,0:0:0:0:
276,98,74474,2,0,P|317:73|380:82,1,93.5000028533936,2|0,0:0|1:2,0:0:0:0:
456,255,74807,2,0,P|409:255|370:230,1,93.5000028533936,2|8,0:0|0:0,0:0:0:0:
395,45,75140,6,0,P|383:137|368:243,1,187.000005706787,6|2,1:2|1:2,0:0:0:0:
211,104,75640,1,10,0:0:0:0:
270,226,75807,1,10,0:0:0:0:
270,226,75890,1,8,0:0:0:0:
270,226,75974,2,0,P|283:296|282:341,1,93.5000028533936,2|0,1:2|0:0,0:0:0:0:
386,218,76307,2,0,P|388:171|399:125,1,93.5000028533936,10|0,0:0|0:0,0:0:0:0:
464,342,76640,6,0,B|347:363|401:294|255:322,1,187.000005706787,6|10,1:2|0:0,0:0:0:0:
114,382,77140,2,0,P|176:379|211:354,1,93.5000028533936,2|0,0:0|1:2,0:0:0:0:
271,205,77474,2,0,P|229:184|183:186,1,93.5000028533936,2|8,0:0|0:0,0:0:0:0:
67,302,77807,6,0,P|81:239|40:102,1,187.000005706787,2|2,0:0|0:0,0:0:0:0:
224,77,78307,1,10,0:0:0:0:
55,172,78474,1,2,0:0:0:0:
234,216,78640,1,2,1:2:0:0:
128,87,78807,1,12,0:0:0:0:
169,268,78974,2,0,P|223:296|268:290,1,93.5000028533936,14|0,0:0|0:0,0:0:0:0:
432,127,79307,5,6,1:2:0:0:
391,279,79474,1,2,1:2:0:0:
330,101,79640,1,10,0:0:0:0:
464,225,79807,2,0,P|477:269|463:335,1,93.5000028533936,6|0,1:2|0:0,0:0:0:0:
292,206,80140,2,0,P|286:159|299:115,1,93.5000028533936,2|8,1:2|0:0,0:0:0:0:
391,277,80474,6,0,B|286:253|326:321|202:295,1,187.000005706787,6|2,1:2|1:2,0:0:0:0:
92,196,80974,1,10,0:0:0:0:
122,340,81140,1,2,0:0:0:0:
194,194,81307,2,0,P|259:172|307:171,1,93.5000028533936,2|0,1:2|1:2,0:0:0:0:
462,266,81640,2,0,P|415:259|372:241,1,93.5000028533936,10|0,0:0|0:0,0:0:0:0:
264,186,81974,5,6,1:2:0:0:
310,213,83807,6,0,P|338:203|371:200,3,46.7500014266968,2|0|2|0,0:0|0:0|0:0|0:0,0:0:0:0:
421,122,84140,1,2,1:2:0:0:
421,122,84224,1,0,1:2:0:0:
421,122,84307,1,10,0:0:0:0:
458,237,84640,6,0,P|448:173|441:125,1,93.5000028533936,6|0,1:2|0:0,0:0:0:0:
344,58,84974,1,10,0:0:0:0:
344,58,85140,2,0,P|337:104|329:150,1,93.5000028533936,2|0,0:0|1:2,0:0:0:0:
247,254,85474,2,0,P|198:276|155:269,1,93.5000028533936,2|8,0:0|0:0,0:0:0:0:
24,139,85807,6,0,P|93:135|146:246,1,187.000005706787,2|2,0:0|0:0,0:0:0:0:
85,366,86307,2,0,P|98:316|153:293,1,93.5000028533936,10|2,0:0|0:0,0:0:0:0:
341,335,86640,2,0,B|224:314|279:383|151:364,1,187.000005706787,2|8,1:2|0:0,0:0:0:0:
70,206,87307,6,0,P|129:214|178:221,1,93.5000028533936,2|2,1:2|0:0,0:0:0:0:
236,174,87557,1,2,0:0:0:0:
236,174,87640,2,0,P|278:168|302:163,3,46.7500014266968,10|2|2|2,0:0|0:0|0:0|0:0,0:0:0:0:
162,125,87974,2,0,P|120:119|96:114,3,46.7500014266968,2|2|2|2,1:2|0:0|0:0|0:0,0:0:0:0:
234,74,88307,2,0,P|276:68|301:64,1,46.7500014266968,10|2,0:0|0:0,0:0:0:0:
384,122,88474,6,0,B|357:231|429:185|396:320,1,187.000005706787,6|2,1:2|1:2,0:0:0:0:
264,166,88974,1,10,0:0:0:0:
264,166,89140,1,2,0:0:0:0:
470,101,89307,1,2,1:2:0:0:
470,101,89474,1,2,0:0:0:0:
373,263,89640,2,0,L|368:207,3,46.7500014266968,10|8|10|8,0:0|0:0|0:0|0:0,0:0:0:0:
360,128,89974,5,6,1:2:0:0:
182,55,95307,6,0,P|141:80|106:82,1,68,6|2,1:2|0:0,0:0:0:0:
258,128,95640,2,0,P|299:153|334:155,1,68,2|2,1:2|0:0,0:0:0:0:
323,70,95974,1,2,1:2:0:0:
174,174,96140,2,0,L|167:236,2,34,2|0|12,1:2|1:2|0:0,0:0:0:0:
393,338,96640,6,0,P|434:313|469:311,1,68,2|2,1:2|0:0,0:0:0:0:
317,265,96973,2,0,P|276:240|241:238,1,68,2|2,1:2|0:0,0:0:0:0:
252,323,97307,1,2,1:2:0:0:
401,219,97473,2,0,L|408:157,2,34,2|0|12,1:2|1:2|0:0,0:0:0:0:
138,207,97974,6,0,B|163:111|105:147|136:37,2,152.999995330811,4|10|2,1:2|0:0|1:2,0:0:0:0:
221,84,98807,1,0,0:0:0:0:
110,198,98974,2,0,P|76:215|33:213,1,76.4999976654053,8|2,0:0|0:0,0:0:0:0:
201,304,99307,6,0,P|247:331|302:323,1,85,10|0,0:0|0:0,0:0:0:0:
342,298,99557,1,8,0:0:0:0:
342,298,99640,2,0,P|348:258|353:232,1,46.7500014266968,2|0,0:0|0:0,0:0:0:0:
292,192,99807,2,0,P|286:152|281:126,1,46.7500014266968,10|0,0:0|0:0,0:0:0:0:
334,78,99974,1,8,0:0:0:0:
405,197,100140,1,10,0:0:0:0:
238,127,100307,1,8,0:0:0:0:
411,40,100474,1,8,0:0:0:0:
411,40,100557,1,8,0:0:0:0:
411,40,100640,6,0,P|415:95|426:140,1,76.4999976654053,6|2,1:2|0:0,0:0:0:0:
309,242,100974,2,0,P|305:187|294:142,1,76.4999976654053,10|2,0:0|0:0,0:0:0:0:
205,56,101307,1,2,1:2:0:0:
366,96,101474,1,2,0:0:0:0:
224,205,101640,2,0,P|182:215|135:203,1,76.4999976654053,10|2,0:0|0:0,0:0:0:0:
116,201,101890,1,8,0:0:0:0:
116,201,101974,1,2,1:2:0:0:
59,46,102140,6,0,P|73:97|77:134,1,76.4999976654053,2|8,0:0|0:0,0:0:0:0:
13,277,102474,1,2,0:0:0:0:
13,277,102640,2,0,P|19:239|30:202,1,76.4999976654053,0|0,1:2|0:0,0:0:0:0:
138,119,102974,1,8,0:0:0:0:
205,287,103140,6,0,P|237:301|261:307,1,38.2499988327027,0|8,0:0|0:0,0:0:0:0:
308,355,103307,2,0,P|340:341|364:336,1,46.7500014266968,2|0,1:2|0:0,0:0:0:0:
423,282,103474,1,0,1:2:0:0:
423,282,103557,1,0,1:2:0:0:
423,282,103640,2,0,P|433:233|415:168,1,93.5000028533936,14|0,0:0|0:0,0:0:0:0:
325,39,103974,6,0,P|318:82|314:107,1,50.9999984436036,2|0,1:2|0:0,0:0:0:0:
254,178,104140,1,0,1:2:0:0:
254,178,104224,1,0,1:2:0:0:
254,178,104307,2,0,P|263:240|267:284,1,101.999996887207,14|0,0:0|0:0,0:0:0:0:
78,370,104640,6,0,P|82:325|85:304,1,50.9999984436036,2|0,1:2|1:2,0:0:0:0:
131,227,104807,1,0,1:2:0:0:
131,227,104890,1,0,1:2:0:0:
131,227,104974,2,0,P|124:166|115:113,1,101.999996887207,12|2,0:0|0:0,0:0:0:0:
226,68,105307,6,0,B|339:98|286:19|430:62,2,165.749992412568,14|12|12,0:0|0:0|0:0,0:0:0:0:
23,132,105974,6,0,P|72:126|118:152,1,76.4999976654053,2|2,1:2|1:2,0:0:0:0:
159,182,106224,1,0,1:2:0:0:
159,182,106307,2,0,P|208:188|254:162,1,76.4999976654053,14|2,0:0|0:0,0:0:0:0:
351,78,106640,1,2,1:2:0:0:
321,271,106807,1,14,0:0:0:0:
321,271,106974,2,0,P|329:219|307:142,1,114.749996498108,12|0,0:0|0:0,0:0:0:0:
242,70,107307,6,0,P|210:58|160:58,1,76.4999976654053,2|2,1:2|0:0,0:0:0:0:
345,175,107640,2,0,P|383:174|418:161,1,76.4999976654053,10|2,0:0|0:0,0:0:0:0:
190,245,107974,1,2,1:2:0:0:
266,117,108140,1,14,0:0:0:0:
266,117,108307,2,0,P|255:180|277:244,1,114.749996498108,12|0,0:0|0:0,0:0:0:0:
327,293,108640,5,6,1:2:0:0:
327,293,108807,1,0,1:2:0:0:
401,216,108974,2,0,P|407:169|413:120,1,76.4999976654053,10|0,0:0|0:0,0:0:0:0:
462,314,109307,1,2,1:2:0:0:
462,314,109474,1,0,1:2:0:0:
359,222,109640,1,10,0:0:0:0:
180,306,109807,6,0,B|277:287|234:347|351:323,1,152.999995330811,6|2,1:2|1:2,0:0:0:0:
426,211,110307,1,10,0:0:0:0:
276,130,110474,1,2,1:2:0:0:
276,130,110557,1,0,1:2:0:0:
276,130,110640,2,0,P|282:182|285:227,1,76.4999976654053,2|0,1:2|1:2,0:0:0:0:
358,73,110974,2,0,P|324:45|238:46,1,114.749996498108,10|0,0:0|0:0,0:0:0:0:
216,74,111307,6,0,B|127:58|156:123|46:97,1,152.999995330811,6|2,1:2|0:0,0:0:0:0:
29,190,111807,1,0,1:2:0:0:
29,190,111974,2,0,P|32:232|28:266,1,59.4999981842042,10|0,0:0|0:0,0:0:0:0:
115,339,112307,1,2,1:2:0:0:
115,339,112474,1,0,1:2:0:0:
180,215,112640,6,0,P|232:195|304:227,1,118.999996368408,2|0,1:2|0:0,0:0:0:0:
371,302,113140,1,2,1:2:0:0:
371,302,113307,2,0,P|376:253|375:224,1,59.4999981842042,8|0,0:0|0:0,0:0:0:0:
471,148,113640,1,0,1:2:0:0:
471,148,113807,1,2,0:0:0:0:
382,59,113974,6,0,P|343:45|264:89,1,118.999996368408,0|2,1:2|0:0,0:0:0:0:
202,144,114474,1,2,1:2:0:0:
202,144,114640,2,0,P|197:102|192:74,1,59.4999981842042,10|2,0:0|0:0,0:0:0:0:
297,236,114974,2,0,P|302:194|307:166,1,59.4999981842042,2|2,1:2|1:2,0:0:0:0:
212,303,115307,5,2,1:2:0:0:
212,303,115474,2,0,P|179:293|145:286,1,59.4999981842042,2|2,0:0|0:0,0:0:0:0:
61,211,115807,1,2,1:2:0:0:
61,211,115974,1,0,1:2:0:0:
212,150,116140,1,10,0:0:0:0:
145,304,116307,2,0,L|138:263,3,29.7499990921021,10|0|2|2,0:0|0:0|0:0|0:0,0:0:0:0:
98,205,116640,6,0,P|102:156|106:100,1,76.4999976654053,4|0,1:2|0:0,0:0:0:0:
199,270,116974,1,10,0:0:0:0:
199,270,117140,1,8,0:0:0:0:
282,164,117307,2,0,P|278:115|274:59,1,76.4999976654053,2|0,1:2|0:0,0:0:0:0:
348,245,117640,2,0,P|345:283|341:321,1,76.4999976654053,8|2,0:0|0:0,0:0:0:0:
496,178,117974,6,0,P|462:168|413:174,1,76.4999976654053,0|2,1:2|0:0,0:0:0:0:
348,245,118307,1,10,0:0:0:0:
348,245,118474,1,10,0:0:0:0:
252,154,118640,2,0,P|243:106|245:66,1,76.4999976654053,2|0,1:2|0:0,0:0:0:0:
187,228,118974,2,0,P|186:266|178:303,1,76.4999976654053,10|0,0:0|0:0,0:0:0:0:
124,142,119307,6,0,P|77:122|35:127,1,76.4999976654053,2|0,1:2|0:0,0:0:0:0:
237,249,119640,2,0,P|274:246|308:229,1,76.4999976654053,10|8,0:0|0:0,0:0:0:0:
421,126,119974,1,2,1:2:0:0:
397,300,120140,2,0,P|401:240|408:205,1,76.4999976654053,2|8,0:0|0:0,0:0:0:0:
295,51,120474,6,0,P|307:128|312:213,1,152.999995330811,2|0,0:0|0:0,0:0:0:0:
236,284,120974,2,0,P|200:303|153:307,1,76.4999976654053,10|8,0:0|0:0,0:0:0:0:
326,232,121307,2,0,P|362:251|409:255,1,76.4999976654053,2|0,1:2|0:0,0:0:0:0:
216,147,121640,1,10,0:0:0:0:
347,80,121807,1,8,0:0:0:0:
347,80,121890,1,8,0:0:0:0:
347,80,121974,6,0,P|338:144|324:245,1,152.999995330811,6|10,1:2|0:0,0:0:0:0:
437,168,122474,1,2,0:0:0:0:
318,268,122640,2,0,P|260:295|163:253,1,152.999995330811,0|8,1:2|0:0,0:0:0:0:
49,172,123140,1,0,0:0:0:0:
94,337,123307,6,0,P|97:283|103:240,1,76.4999976654053,0|0,1:2|0:0,0:0:0:0:
211,97,123640,2,0,P|215:135|216:173,1,76.4999976654053,8|0,0:0|0:0,0:0:0:0:
321,306,123974,1,0,1:2:0:0:
370,116,124140,1,0,1:2:0:0:
235,271,124307,1,8,0:0:0:0:
235,271,124390,1,8,0:0:0:0:
235,271,124474,1,8,0:0:0:0:
186,65,124640,5,6,1:2:0:0:
426,332,125807,6,0,P|429:292|432:232,1,76.4999976654053,6|0,1:2|0:0,0:0:0:0:
308,142,126140,1,2,1:2:0:0:
308,142,126224,1,0,1:2:0:0:
308,142,126307,2,0,P|310:180|313:218,1,76.4999976654053,10|2,0:0|1:2,0:0:0:0:
413,110,126640,1,2,1:2:0:0:
219,183,126807,1,2,0:0:0:0:
445,232,126974,1,10,0:0:0:0:
292,93,127140,1,2,0:0:0:0:
158,289,127307,6,0,P|218:275|254:269,1,76.4999976654053,2|2,1:2|0:0,0:0:0:0:
384,210,127640,2,0,P|346:202|309:193,1,76.4999976654053,10|2,0:0|0:0,0:0:0:0:
182,91,127974,1,2,1:2:0:0:
252,283,128140,1,2,0:0:0:0:
332,91,128307,1,10,0:0:0:0:
188,222,128474,6,0,P|141:240|63:172,1,152.999995330811,6|0,1:2|1:2,0:0:0:0:
55,153,128890,1,0,1:2:0:0:
55,153,128974,2,0,P|51:93|47:52,1,76.4999976654053,8|8,3:0|3:0,0:0:0:0:
198,18,129307,1,4,3:0:0:0:
151,150,129474,1,0,1:2:0:0:
151,150,129557,1,0,1:2:0:0:
151,150,129640,1,8,0:0:0:0:
414,56,129974,6,0,B|382:167|453:126|416:243,1,187.000005706787,6|10,1:2|0:0,0:0:0:0:
277,357,130474,2,0,P|229:335|180:332,1,93.5000028533936,2|0,0:0|1:2,0:0:0:0:
328,260,130808,2,0,P|375:257|418:238,1,93.5000028533936,2|8,0:0|0:0,0:0:0:0:
167,145,131140,6,0,P|180:238|189:339,1,187.000005706787,2|2,0:0|0:0,0:0:0:0:
283,179,131640,1,10,0:0:0:0:
111,270,131807,1,2,0:0:0:0:
213,93,131974,1,2,1:2:0:0:
289,280,132140,1,12,0:0:0:0:
126,143,132307,2,0,P|177:186|274:175,1,140.25000428009,12|0,0:0|0:0,0:0:0:0:
290,160,132640,6,0,P|339:145|401:168,1,93.5000028533936,2|0,1:2|0:0,0:0:0:0:
238,76,132974,1,10,0:0:0:0:
338,226,133140,2,0,P|350:280|339:326,1,93.5000028533936,2|0,0:0|1:2,0:0:0:0:
197,176,133474,2,0,P|192:130|205:87,1,93.5000028533936,2|8,0:0|0:0,0:0:0:0:
266,276,133807,6,0,B|162:258|198:324|81:299,1,187.000005706787,6|2,1:2|1:2,0:0:0:0:
216,174,134307,1,10,0:0:0:0:
238,369,134474,1,2,1:2:0:0:
114,222,134640,2,0,P|106:176|116:130,1,93.5000028533936,2|0,1:2|1:2,0:0:0:0:
278,297,134974,1,8,0:0:0:0:
301,124,135140,5,8,0:0:0:0:
301,124,135224,1,8,0:0:0:0:
301,124,135307,2,0,P|349:71|483:85,1,187.000005706787,6|10,1:2|0:0,0:0:0:0:
410,243,135807,2,0,P|402:184|411:127,1,93.5000028533936,2|0,0:0|1:2,0:0:0:0:
285,275,136140,2,0,P|293:334|284:391,1,93.5000028533936,2|8,0:0|0:0,0:0:0:0:
74,225,136474,6,0,B|185:250|145:177|270:202,1,187.000005706787,2|2,0:0|0:0,0:0:0:0:
113,125,136974,1,10,0:0:0:0:
210,289,137140,1,2,0:0:0:0:
287,175,137307,2,0,P|298:115|287:67,1,93.5000028533936,2|12,1:2|0:0,0:0:0:0:
128,232,137640,2,0,P|122:279|131:324,1,93.5000028533936,14|0,0:0|0:0,0:0:0:0:
395,246,137974,5,6,1:2:0:0:
395,246,138140,1,2,1:2:0:0:
240,351,138307,1,10,0:0:0:0:
295,205,138474,2,0,P|303:152|312:92,1,93.5000028533936,6|0,1:2|0:0,0:0:0:0:
196,274,138807,2,0,P|201:321|205:367,1,93.5000028533936,2|8,1:2|0:0,0:0:0:0:
92,217,139140,6,0,P|149:167|265:185,1,187.000005706787,6|2,1:2|1:2,0:0:0:0:
373,261,139640,1,10,0:0:0:0:
332,95,139807,1,2,0:0:0:0:
264,293,139974,1,2,1:2:0:0:
217,119,140140,1,0,1:2:0:0:
357,176,140307,2,0,P|387:180|426:184,3,46.7500014266968,8|8|8|8,0:0|0:0|0:0|0:0,0:0:0:0:
273,100,140640,6,0,B|164:117|204:48|77:68,1,187.000005706787,6|10,1:2|0:0,0:0:0:0:
122,246,141140,2,0,P|124:199|125:152,1,93.5000028533936,2|0,0:0|1:2,0:0:0:0:
231,268,141474,2,0,P|230:333|232:370,1,93.5000028533936,2|8,0:0|0:0,0:0:0:0:
364,79,141807,6,0,P|354:162|340:277,1,187.000005706787,2|2,0:0|0:0,0:0:0:0:
261,151,142308,1,10,0:0:0:0:
261,151,142474,1,2,0:0:0:0:
437,250,142640,1,2,1:2:0:0:
253,301,142807,1,14,0:0:0:0:
415,163,142974,2,0,P|472:168|516:207,1,93.5000028533936,12|0,0:0|0:0,0:0:0:0:
346,310,143307,6,0,B|365:199|302:245|329:118,1,187.000005706787,6|10,1:2|0:0,0:0:0:0:
241,297,143807,2,0,P|199:322|136:311,1,93.5000028533936,2|0,0:0|1:2,0:0:0:0:
63,137,144140,2,0,P|110:138|149:164,1,93.5000028533936,2|8,0:0|0:0,0:0:0:0:
121,348,144474,6,0,P|134:256|151:151,1,187.000005706787,6|2,1:2|1:2,0:0:0:0:
306,292,144974,1,10,0:0:0:0:
248,186,145140,1,10,0:0:0:0:
248,186,145224,1,8,0:0:0:0:
248,186,145307,2,0,P|236:116|238:71,1,93.5000028533936,2|0,1:2|0:0,0:0:0:0:
133,175,145640,2,0,P|130:222|118:268,1,93.5000028533936,10|0,0:0|0:0,0:0:0:0:
56,67,145974,6,0,B|173:48|118:116|264:91,1,187.000005706787,6|10,1:2|0:0,0:0:0:0:
393,15,146474,2,0,P|331:17|295:41,1,93.5000028533936,2|0,0:0|1:2,0:0:0:0:
304,150,146807,2,0,P|346:171|392:170,1,93.5000028533936,2|8,0:0|0:0,0:0:0:0:
497,58,147140,6,0,P|482:121|521:258,1,187.000005706787,2|2,0:0|0:0,0:0:0:0:
309,310,147640,1,10,0:0:0:0:
480,218,147807,1,2,0:0:0:0:
293,174,147974,1,2,1:2:0:0:
405,302,148140,1,12,0:0:0:0:
359,123,148307,2,0,P|305:94|260:99,1,93.5000028533936,14|0,0:0|0:0,0:0:0:0:
85,266,148640,5,6,1:2:0:0:
129,114,148807,1,2,1:2:0:0:
187,293,148974,1,10,0:0:0:0:
55,167,149140,2,0,P|43:123|58:57,1,93.5000028533936,6|0,1:2|0:0,0:0:0:0:
227,189,149474,2,0,P|232:236|218:280,1,93.5000028533936,2|8,1:2|0:0,0:0:0:0:
129,116,149807,6,0,B|233:142|195:73|318:102,1,187.000005706787,6|2,1:2|1:2,0:0:0:0:
426,202,150307,1,10,0:0:0:0:
399,58,150474,1,2,1:2:0:0:
310,222,150640,2,0,P|304:278|294:335,1,93.5000028533936,2|0,1:2|1:2,0:0:0:0:
225,153,150974,2,0,P|219:106|214:60,1,93.5000028533936,8|0,3:0|0:0,0:0:0:0:
162,253,151307,5,6,1:2:0:0:
72,124,151474,1,2,1:2:0:0:
122,329,151640,1,10,0:0:0:0:
191,174,151807,2,0,P|237:148|294:146,1,93.5000028533936,6|0,1:2|0:0,0:0:0:0:
433,268,152140,2,0,P|387:259|348:233,1,93.5000028533936,2|8,1:2|0:0,0:0:0:0:
372,49,152474,6,0,P|359:152|347:245,1,187.000005706787,6|2,1:2|1:2,0:0:0:0:
269,137,152974,1,10,0:0:0:0:
290,309,153140,1,2,0:0:0:0:
435,183,153307,1,2,1:2:0:0:
399,360,153474,1,0,1:2:0:0:
399,360,153557,1,0,1:2:0:0:
399,360,153640,1,8,0:0:0:0:
228,245,153974,6,0,P|183:235|131:232,1,76.4999976654053,4|0,1:2|0:0,0:0:0:0:
37,142,154307,2,0,P|75:137|112:129,1,76.4999976654053,0|0,0:0|1:2,0:0:0:0:
221,39,154640,1,8,0:0:0:0:
221,39,154807,1,0,0:0:0:0:
173,200,154974,1,0,0:0:0:0:
81,51,155140,6,0,P|156:32|213:78,1,152.999995330811,8|8,0:0|0:0,0:0:0:0:
287,208,155640,1,0,1:2:0:0:
385,100,155807,1,0,1:2:0:0:
307,221,155974,2,0,P|302:275|299:326,1,76.4999976654053,8|0,0:0|0:0,0:0:0:0:
195,127,156307,1,0,1:2:0:0:
333,224,156474,1,8,0:0:0:0:
200,344,156640,6,0,P|157:351|108:333,1,76.4999976654053,0|0,1:2|0:0,0:0:0:0:
5,231,156974,2,0,P|48:238|97:220,1,76.4999976654053,0|0,0:0|1:2,0:0:0:0:
198,129,157307,1,8,0:0:0:0:
198,129,157474,1,0,0:0:0:0:
161,269,157640,1,0,0:0:0:0:
46,133,157807,6,0,P|103:111|195:149,1,152.999995330811,8|8,0:0|0:0,0:0:0:0:
303,267,158307,2,0,P|297:204|293:171,1,76.4999976654053,0|0,1:2|1:2,0:0:0:0:
412,65,158640,2,0,P|407:103|404:141,1,76.4999976654053,8|0,0:0|0:0,0:0:0:0:
401,186,158890,1,0,0:0:0:0:
401,186,158974,1,8,0:0:0:0:
312,67,159140,1,8,0:0:0:0:
231,152,159307,6,0,P|187:162|144:173,1,76.4999976654053,6|2,1:2|0:0,0:0:0:0:
293,248,159640,2,0,P|337:258|380:269,1,76.4999976654053,2|2,0:0|1:2,0:0:0:0:
204,343,159974,1,10,0:0:0:0:
204,343,160140,1,2,0:0:0:0:
274,213,160307,1,2,0:0:0:0:
421,351,160474,6,0,P|425:295|430:253,1,76.4999976654053,10|0,0:0|0:0,0:0:0:0:
358,176,160807,1,10,0:0:0:0:
358,176,160974,2,0,P|354:120|349:78,1,76.4999976654053,2|2,1:2|1:2,0:0:0:0:
259,250,161307,1,10,0:0:0:0:
259,250,161474,1,2,0:0:0:0:
166,99,161640,2,0,P|162:137|159:175,1,76.4999976654053,2|8,0:0|0:0,0:0:0:0:
148,327,161974,6,0,P|107:341|69:338,1,76.4999976654053,2|0,1:2|0:0,0:0:0:0:
229,236,162307,1,2,0:0:0:0:
229,236,162474,1,2,1:2:0:0:
111,170,162640,1,8,0:0:0:0:
244,333,162807,2,0,P|242:274|248:236,1,76.4999976654053,2|0,0:0|1:2,0:0:0:0:
376,171,163140,2,0,P|378:209|375:247,1,76.4999976654053,10|2,0:0|0:0,0:0:0:0:
254,90,163474,5,10,0:0:0:0:
254,90,163557,1,2,0:0:0:0:
254,90,163640,2,0,P|209:81|197:80,3,38.2499988327027,2|2|2|2,1:2|0:0|1:2|1:2,0:0:0:0:
339,155,163974,2,0,P|384:146|396:145,3,38.2499988327027,10|2|2|2,0:0|0:0|0:0|0:0,0:0:0:0:
263,227,164307,1,2,0:0:0:0:
235,235,164390,1,2,0:0:0:0:
207,236,164473,1,10,0:0:0:0:
179,227,164557,1,0,0:0:0:0:
156,211,164640,5,6,1:2:0:0:
86,284,164807,2,0,P|92:342|98:371,1,76.4999976654053,2|0,0:0|1:2,0:0:0:0:
235,235,165140,2,0,P|229:293|223:322,1,76.4999976654053,2|0,0:0|1:2,0:0:0:0:
65,129,165474,1,2,0:0:0:0:
111,289,165640,1,2,1:2:0:0:
214,158,165807,1,2,0:0:0:0:
287,305,165974,6,0,P|328:351|418:343,1,152.999995330811,2|2,1:2|1:2,0:0:0:0:
385,166,166474,2,0,P|375:213|370:260,1,76.4999976654053,2|0,0:0|1:2,0:0:0:0:
265,74,166807,1,8,0:0:0:0:
332,221,166974,1,0,1:2:0:0:
408,77,167140,1,8,0:0:0:0:
223,172,167307,6,0,P|182:187|141:189,1,76.4999976654053,2|2,1:2|0:0,0:0:0:0:
297,294,167640,2,0,P|334:297|370:311,1,76.4999976654053,2|2,1:2|0:0,0:0:0:0:
180,327,167974,1,2,1:2:0:0:
297,191,168140,1,2,0:0:0:0:
188,356,168307,1,2,1:2:0:0:
274,170,168474,1,2,0:0:0:0:
300,352,168640,5,2,1:2:0:0:
191,218,168807,2,0,P|185:171|175:117,1,76.4999976654053,2|0,0:0|1:2,0:0:0:0:
108,276,169140,2,0,P|152:320|250:303,1,152.999995330811,2|10,0:0|0:0,0:0:0:0:
369,217,169640,1,2,1:2:0:0:
388,201,169974,6,0,P|384:263|381:297,1,76.4999976654053,6|2,1:2|0:0,0:0:0:0:
376,384,170307,1,2,1:2:0:0:
280,238,170474,2,0,P|277:199|274:161,1,76.4999976654053,2|0,0:0|1:2,0:0:0:0:
143,296,170807,2,0,B|239:289|192:342|295:334,1,152.999995330811,2|2,0:0|0:0,0:0:0:0:
427,198,171307,5,2,1:2:0:0:
427,198,171474,1,10,0:0:0:0:
266,129,171640,1,2,1:2:0:0:
324,266,171807,2,0,P|330:202|334:162,1,76.4999976654053,2|0,0:0|1:2,0:0:0:0:
356,51,172140,1,8,0:0:0:0:
228,179,172307,2,0,L|181:169,3,38.2499988327027,0|0|4|4,1:2|0:0|3:0|3:0,0:0:0:0:
331,189,172640,6,0,P|273:198|232:206,1,76.4999976654053,6|2,1:2|0:0,0:0:0:0:
134,284,172974,1,10,0:0:0:0:
313,318,173140,1,10,0:0:0:0:
110,299,173307,1,10,0:0:0:0:
335,293,173474,1,8,0:0:0:0:
151,195,173640,1,8,0:0:0:0:
221,365,173807,1,10,0:0:0:0:
254,189,173974,6,0,P|261:142|270:97,1,76.4999976654053,6|0,1:2|0:0,0:0:0:0:
409,251,174307,2,0,P|415:288|421:326,1,76.4999976654053,6|0,1:2|0:0,0:0:0:0:
247,188,174640,2,0,P|254:141|263:96,1,76.4999976654053,6|0,1:2|0:0,0:0:0:0:
416,250,174974,2,0,P|422:287|428:325,1,76.4999976654053,6|0,1:2|0:0,0:0:0:0:
278,259,175307,5,0,1:2:0:0:
379,161,175474,1,0,1:2:0:0:
309,346,175640,1,8,0:0:0:0:
236,173,175807,1,8,0:0:0:0:
236,173,175890,1,8,0:0:0:0:
236,173,175974,2,0,P|182:164|118:248,1,152.999995330811,2|8,1:2|0:0,0:0:0:0:
363,346,176640,6,0,P|364:293|374:243,1,85,6|0,1:2|0:0,0:0:0:0:
430,100,176974,1,8,0:0:0:0:
305,185,177140,2,0,P|254:203|189:190,1,85,0|0,0:0|1:2,0:0:0:0:
431,84,177474,2,0,P|473:84|512:100,1,85,0|8,0:0|0:0,0:0:0:0:
469,262,177807,6,0,P|462:213|470:157,1,85,2|2,0:0|1:2,0:0:0:0:
344,53,178140,1,2,0:0:0:0:
344,53,178307,2,0,P|346:95|339:137,1,85,10|2,0:0|0:0,0:0:0:0:
224,210,178640,2,0,P|174:214|126:222,1,85,2|2,1:2|0:0,0:0:0:0:
290,295,178974,2,0,P|332:301|374:304,1,85,10|2,0:0|0:0,0:0:0:0:
161,184,179307,5,2,1:2:0:0:
161,184,179474,1,2,0:0:0:0:
215,335,179640,1,10,0:0:0:0:
215,335,179807,1,2,0:0:0:0:
260,167,179974,1,2,1:2:0:0:
134,291,180140,1,2,0:0:0:0:
105,109,180307,1,10,0:0:0:0:
207,228,180474,1,2,0:0:0:0:
292,52,180640,5,2,1:2:0:0:
292,52,180807,1,2,0:0:0:0:
87,134,180974,1,10,0:0:0:0:
305,223,181140,1,2,0:0:0:0:
305,223,181224,1,2,0:0:0:0:
305,223,181307,2,0,P|301:169|299:125,1,85,2|2,1:2|0:0,0:0:0:0:
203,338,181640,1,8,0:0:0:0:
95,220,181807,5,8,0:0:0:0:
95,220,181890,1,8,0:0:0:0:
95,220,181974,2,0,P|100:159|101:116,1,85,6|2,1:2|0:0,0:0:0:0:
214,307,182307,1,10,0:0:0:0:
309,188,182474,2,0,P|359:173|414:182,1,85,2|0,0:0|1:2,0:0:0:0:
259,105,182807,1,2,0:0:0:0:
259,105,182974,1,10,0:0:0:0:
362,259,183140,6,0,P|369:313|372:362,1,85,2|0,0:0|1:2,0:0:0:0:
443,168,183474,1,2,0:0:0:0:
443,168,183640,1,10,0:0:0:0:
284,306,183807,2,0,P|241:306|201:293,1,85,2|0,0:0|1:2,0:0:0:0:
71,189,184140,1,0,0:0:0:0:
126,342,184307,1,8,0:0:0:0:
204,191,184474,1,0,0:0:0:0:
204,191,184557,1,0,0:0:0:0:
204,191,184640,6,0,L|196:128,1,42.5,10|2,0:0|0:0,0:0:0:0:
264,78,184807,2,0,L|272:15,3,42.5,10|2|2|2,0:0|0:0|0:0|0:0,0:0:0:0:
173,175,185140,6,0,L|165:112,1,42.5,10|2,0:0|0:0,0:0:0:0:
291,104,185307,2,0,L|299:41,3,42.5,10|2|2|2,0:0|0:0|0:0|0:0,0:0:0:0:
145,150,185640,6,0,L|137:87,1,42.5,10|2,0:0|0:0,0:0:0:0:
319,141,185807,2,0,L|327:78,3,42.5,10|2|2|2,0:0|0:0|0:0|0:0,0:0:0:0:
119,122,186140,6,0,L|111:59,1,42.5,10|2,0:0|0:0,0:0:0:0:
345,173,186307,2,0,L|353:110,3,42.5,10|2|2|2,0:0|0:0|0:0|0:0,0:0:0:0:
178,286,186640,6,0,L|183:328,3,42.5,10|2|2|2,0:0|0:0|0:0|0:0,0:0:0:0:
276,374,186974,1,10,0:0:0:0:
316,384,187057,1,2,0:0:0:0:
357,374,187140,1,2,0:0:0:0:
388,345,187224,1,2,0:0:0:0:
402,306,187307,5,6,1:2:0:0:
134,72,188307,1,0,1:2:0:0:
134,72,188474,1,0,1:2:0:0:
79,160,188640,5,4,1:2:0:0:
317,249,189307,2,0,L|324:184,2,39.6666654561361,8|8|8,0:0|0:0|0:0,0:0:0:0:
252,314,189640,2,0,L|256:353,2,39.6666654561361,0|0|0,1:2|1:2|1:2,0:0:0:0:
197,243,189974,5,4,1:2:0:0:
396,83,190807,1,0,1:2:0:0:
396,83,190974,2,0,P|345:58|273:97,1,118.999996368408,0|4,1:2|1:2,0:0:0:0:
424,332,191974,6,0,L|417:391,3,34,8|8|8|8,0:0|0:0|0:0|0:0,0:0:0:0:
374,260,192307,2,0,L|369:226,3,34,10|10|10|10,0:0|0:0|0:0|0:0,0:0:0:0:
291,333,192640,6,0,P|249:352|212:355,1,76.4999976654053,6|0,1:2|0:0,0:0:0:0:
91,243,192974,2,0,P|123:275|157:290,1,76.4999976654053,10|0,0:0|0:0,0:0:0:0:
277,195,193307,1,2,1:2:0:0:
277,195,193474,2,0,P|257:236|230:262,1,76.4999976654053,2|8,0:0|0:0,0:0:0:0:
225,109,193807,6,0,P|292:95|371:173,1,152.999995330811,2|0,0:0|0:0,0:0:0:0:
411,303,194307,2,0,P|421:232|428:200,1,76.4999976654053,10|0,0:0|0:0,0:0:0:0:
347,64,194640,2,0,P|353:101|357:139,1,76.4999976654053,2|0,1:2|0:0,0:0:0:0:
323,250,194974,1,10,0:0:0:0:
323,250,195140,1,0,0:0:0:0:
223,136,195307,5,6,1:2:0:0:
223,136,195474,1,0,1:2:0:0:
417,225,195640,1,8,0:0:0:0:
249,368,195807,2,0,P|237:312|248:209,1,152.999995330811,2|0,1:2|1:2,0:0:0:0:
296,95,196307,1,8,0:0:0:0:
255,248,196474,6,0,P|210:290|93:268,1,152.999995330811,4|0,1:2|1:2,0:0:0:0:
60,133,196974,2,0,P|113:131|150:162,1,76.4999976654053,8|0,0:0|0:0,0:0:0:0:
194,278,197307,1,4,1:2:0:0:
194,278,197974,6,0,P|231:302|294:299,1,101.999996887207,2|0,0:0|0:0,0:0:0:0:
387,126,198640,2,0,P|336:123|293:149,1,101.999996887207,0|0,0:0|0:0,0:0:0:0:
252,228,199140,1,2,0:0:0:0:
252,228,199224,1,2,0:0:0:0:
252,228,199307,2,0,P|242:170|230:108,1,101.999996887207,2|0,0:0|0:0,0:0:0:0:
136,41,199807,2,0,P|131:80|127:114,1,50.9999984436036,0|0,0:0|0:0,0:0:0:0:
122,196,200140,2,0,L|127:242,2,25.4999992218018,0|0|8,1:2|1:2|0:0,0:0:0:0:
232,44,200640,5,6,0:0:0:0:
341,58,204640,5,8,3:0:0:0:
412,169,205140,5,0,1:2:0:0:
321,272,205640,5,4,3:0:0:0:
233,153,205974,6,0,P|226:109|227:69,1,68,4|0,1:2|0:0,0:0:0:0:
112,26,206307,1,2,1:2:0:0:
112,26,206474,2,0,P|111:60|105:94,1,68,2|0,0:0|1:2,0:0:0:0:
42,218,206807,2,0,P|91:198|134:194,1,68,2|0,0:0|1:2,0:0:0:0:
212,274,207140,6,0,P|241:313|344:313,1,136,2|2,0:0|0:0,0:0:0:0:
414,260,207640,2,0,P|421:206|425:175,1,68,2|2,1:2|0:0,0:0:0:0:
295,52,207974,1,2,1:2:0:0:
298,77,208057,1,0,1:2:0:0:
301,102,208140,1,0,1:2:0:0:
305,127,208224,1,0,1:2:0:0:
309,152,208307,2,0,P|304:185|300:219,1,68,10|0,0:0|0:0,0:0:0:0:
160,342,208640,5,6,1:2:0:0:
123,177,208807,1,2,1:2:0:0:
147,364,208974,1,10,0:0:0:0:
209,224,209140,2,0,P|258:204|349:296,1,170,6|2,1:2|1:2,0:0:0:0:
382,367,209640,1,8,0:0:0:0:
320,252,209807,6,0,P|330:180|344:75,1,170,6|0,1:2|1:2,0:0:0:0:
252,46,210307,1,8,0:0:0:0:
374,192,210474,1,0,1:2:0:0:
183,110,210640,1,0,1:2:0:0:
359,46,210807,1,0,1:2:0:0:
359,46,210890,1,0,1:2:0:0:
359,46,210974,2,0,P|352:104|347:152,1,85,8|0,0:0|0:0,0:0:0:0:
273,328,211307,5,2,1:2:0:0:
150,130,211474,1,0,1:2:0:0:
150,130,211557,1,0,1:2:0:0:
150,130,211640,1,6,1:2:0:0:
287,235,211807,2,0,P|333:253|389:248,1,93.5000028533936,2|0,0:0|1:2,0:0:0:0:
180,291,212140,2,0,P|133:290|90:307,1,93.5000028533936,2|8,0:0|0:0,0:0:0:0:
213,156,212474,6,0,P|182:217|225:328,1,187.000005706787,2|2,0:0|0:0,0:0:0:0:
357,155,212974,1,10,0:0:0:0:
323,316,213140,1,2,0:0:0:0:
286,127,213307,1,2,1:2:0:0:
415,311,213474,1,14,0:0:0:0:
268,217,213640,2,0,P|218:202|163:217,1,93.5000028533936,12|0,0:0|0:0,0:0:0:0:
411,117,213974,6,0,P|398:178|394:233,1,93.5000028533936,6|0,1:2|0:0,0:0:0:0:
419,336,214307,1,10,0:0:0:0:
251,125,214474,2,0,P|261:170|267:216,1,93.5000028533936,2|0,0:0|1:2,0:0:0:0:
221,358,214807,1,2,0:0:0:0:
358,253,214974,1,8,0:0:0:0:
117,258,215140,6,0,B|240:243|181:314|317:300,1,187.000005706787,6|2,1:2|1:2,0:0:0:0:
470,198,215640,1,10,0:0:0:0:
268,107,215807,1,2,0:0:0:0:
268,107,215890,1,0,0:0:0:0:
268,107,215974,2,0,P|275:170|279:220,1,93.5000028533936,2|0,1:2|0:0,0:0:0:0:
418,100,216307,1,10,0:0:0:0:
301,14,216474,5,8,0:0:0:0:
301,14,216557,1,8,0:0:0:0:
301,14,216640,2,0,P|240:10|169:121,1,187.000005706787,6|10,1:2|0:0,0:0:0:0:
287,221,217140,2,0,P|339:217|380:188,1,93.5000028533936,2|0,0:0|1:2,0:0:0:0:
212,93,217474,2,0,P|165:95|125:118,1,93.5000028533936,2|8,0:0|0:0,0:0:0:0:
207,356,217807,6,0,P|199:270|187:164,1,187.000005706787,2|2,0:0|0:0,0:0:0:0:
108,318,218307,1,10,0:0:0:0:
285,226,218474,1,2,0:0:0:0:
84,127,218640,2,0,P|95:190|100:243,1,93.5000028533936,2|12,1:2|0:0,0:0:0:0:
192,67,218974,2,0,P|239:68|283:107,1,93.5000028533936,14|0,0:0|0:0,0:0:0:0:
361,260,219307,5,6,1:2:0:0:
205,176,219474,1,2,1:2:0:0:
399,114,219640,1,10,0:0:0:0:
280,321,219807,2,0,P|275:262|268:207,1,93.5000028533936,6|0,1:2|0:0,0:0:0:0:
192,67,220140,1,2,1:2:0:0:
374,156,220307,1,8,0:0:0:0:
162,203,220474,6,0,B|278:227|232:156|361:184,1,187.000005706787,6|2,1:2|1:2,0:0:0:0:
190,294,220974,1,10,0:0:0:0:
216,117,221140,1,2,0:0:0:0:
314,309,221307,1,10,0:0:0:0:
123,221,221474,1,0,1:2:0:0:
341,180,221640,2,0,L|328:262,3,46.7500014266968,10|8|8|8,0:0|0:0|0:0|0:0,0:0:0:0:
224,358,221974,6,0,B|242:244|169:289|196:153,1,187.000005706787,6|10,1:2|0:0,0:0:0:0:
343,60,222474,2,0,P|301:94|249:103,1,93.5000028533936,2|0,0:0|1:2,0:0:0:0:
70,79,222807,2,0,P|131:70|182:97,1,93.5000028533936,2|8,0:0|0:0,0:0:0:0:
145,291,223140,6,0,P|159:209|180:84,1,187.000005706787,2|2,0:0|0:0,0:0:0:0:
258,290,223640,1,10,0:0:0:0:
80,128,223807,1,2,0:0:0:0:
283,218,223974,1,2,1:2:0:0:
43,199,224140,1,14,0:0:0:0:
255,118,224307,2,0,P|311:114|363:144,1,93.5000028533936,14|0,0:0|0:0,0:0:0:0:
182,311,224640,6,0,P|176:253|167:193,1,93.5000028533936,6|0,1:2|0:0,0:0:0:0:
260,95,224974,1,10,0:0:0:0:
347,321,225140,2,0,P|351:274|357:228,1,93.5000028533936,2|0,0:0|1:2,0:0:0:0:
221,108,225474,1,2,0:0:0:0:
255,289,225640,1,8,0:0:0:0:
435,183,225807,6,0,P|388:149|267:190,1,187.000005706787,6|2,1:2|1:2,0:0:0:0:
193,327,226307,1,10,0:0:0:0:
72,134,226474,1,10,0:0:0:0:
72,134,226557,1,8,0:0:0:0:
72,134,226640,2,0,P|89:196|95:248,1,93.5000028533936,2|0,1:2|0:0,0:0:0:0:
212,109,226974,2,0,P|219:62|233:18,1,93.5000028533936,10|0,0:0|0:0,0:0:0:0:
357,190,227307,6,0,B|256:160|283:242|160:203,1,187.000005706787,6|10,1:2|0:0,0:0:0:0:
53,103,227807,2,0,P|116:106|159:139,1,93.5000028533936,2|0,0:0|1:2,0:0:0:0:
152,293,228140,2,0,P|109:312|63:310,1,93.5000028533936,2|8,0:0|0:0,0:0:0:0:
297,104,228474,6,0,P|280:180|268:303,1,187.000005706787,2|2,0:0|0:0,0:0:0:0:
214,110,228974,1,10,0:0:0:0:
365,254,229140,1,2,0:0:0:0:
182,142,229307,1,2,1:2:0:0:
237,329,229474,1,12,0:0:0:0:
331,168,229640,2,0,P|341:115|336:63,1,93.5000028533936,14|0,0:0|0:0,0:0:0:0:
316,321,229974,5,6,1:2:0:0:
215,143,230140,1,2,1:2:0:0:
181,349,230307,1,10,0:0:0:0:
301,187,230474,2,0,P|350:174|398:186,1,93.5000028533936,6|0,1:2|0:0,0:0:0:0:
191,259,230807,2,0,P|142:272|94:260,1,93.5000028533936,2|8,1:2|0:0,0:0:0:0:
65,87,231140,6,0,B|116:101|132:152|132:152|161:108|224:105,1,187.000005706787,6|2,1:2|1:2,0:0:0:0:
353,71,231640,1,10,0:0:0:0:
214,200,231807,1,2,0:0:0:0:
191,28,231974,2,0,P|247:40|280:84,1,93.5000028533936,10|8,0:0|0:0,0:0:0:0:
145,228,232307,2,0,P|89:216|56:172,1,93.5000028533936,10|0,0:0|0:0,0:0:0:0:
133,151,232640,5,6,1:2:0:0:
140,156,234474,6,0,P|163:153|184:145,3,46.7500014266968,2|0|2|0,0:0|0:0|0:0|0:0,0:0:0:0:
233,53,234807,1,0,1:2:0:0:
233,53,234890,1,0,1:2:0:0:
233,53,234974,1,8,0:0:0:0:
51,74,235307,6,0,B|168:96|118:34|247:55,1,187.000005706787,6|10,1:2|0:0,0:0:0:0:
338,85,235807,2,0,P|342:128|365:182,1,93.5000028533936,2|0,0:0|1:2,0:0:0:0:
219,266,236140,2,0,P|231:224|233:167,1,93.5000028533936,2|8,0:0|0:0,0:0:0:0:
127,289,236474,6,0,P|180:351|287:338,1,187.000005706787,2|2,0:0|0:0,0:0:0:0:
235,183,236974,1,10,0:0:0:0:
235,183,237141,2,0,P|287:198|344:200,1,93.5000028533936,2|0,0:0|1:2,0:0:0:0:
180,48,237474,1,2,0:0:0:0:
180,48,237641,2,0,P|138:53|71:74,1,93.5000028533936,10|0,0:0|0:0,0:0:0:0:
97,276,237974,6,0,P|108:208|109:144,1,93.5000028533936,2|0,1:2|0:0,0:0:0:0:
259,267,238307,1,10,0:0:0:0:
205,57,238474,2,0,P|208:109|222:165,1,93.5000028533936,2|0,0:0|1:2,0:0:0:0:
344,296,238807,2,0,P|352:254|355:201,1,93.5000028533936,2|8,0:0|0:0,0:0:0:0:
461,86,239140,6,0,B|350:56|392:124|271:95,1,187.000005706787,6|0,1:2|1:2,0:0:0:0:
170,146,239640,2,0,P|180:200|186:249,1,93.5000028533936,10|2,0:0|1:2,0:0:0:0:
199,289,239891,1,8,0:0:0:0:
199,289,239974,2,0,P|189:343|183:392,1,93.5000028533936,0|2,1:2|0:0,0:0:0:0:
57,267,240307,1,10,0:0:0:0:
50,243,240390,1,8,0:0:0:0:
49,218,240474,1,8,0:0:0:0:
53,193,240557,1,8,0:0:0:0:
64,166,240640,6,0,B|178:143|136:205|257:187,1,187.000005706787,6|10,1:2|0:0,0:0:0:0:
233,356,241141,2,0,P|225:309|238:248,1,93.5000028533936,2|0,0:0|1:2,0:0:0:0:
339,147,241474,2,0,P|347:194|329:258,1,93.5000028533936,2|8,0:0|0:0,0:0:0:0:
188,96,241807,6,0,B|300:113|255:44|365:58,1,187.000005706787,2|2,0:0|0:0,0:0:0:0:
477,144,242307,2,0,P|485:200|472:248,1,93.5000028533936,10|2,0:0|0:0,0:0:0:0:
387,334,242641,1,2,1:2:0:0:
387,334,242807,1,0,0:0:0:0:
296,195,242974,2,0,P|242:177|187:194,1,93.5000028533936,8|0,0:0|0:0,0:0:0:0:
77,338,243307,6,0,P|126:355|183:337,1,93.5000028533936,2|2,1:2|0:0,0:0:0:0:
236,305,243557,1,2,0:0:0:0:
236,305,243640,2,0,P|244:253|246:244,3,46.7500014266968,10|2|2|2,0:0|0:0|0:0|0:0,0:0:0:0:
152,199,243974,2,0,P|144:147|142:138,3,46.7500014266968,2|2|2|2,1:2|0:0|0:0|0:0,0:0:0:0:
231,81,244307,1,10,0:0:0:0:
409,121,244474,6,0,B|356:122|328:162|328:162|311:108|246:95,1,187.000005706787,6|2,1:2|1:2,0:0:0:0:
96,291,244974,5,10,0:0:0:0:
61,59,245140,1,2,1:2:0:0:
189,260,245307,5,2,1:2:0:0:
183,71,245474,1,2,1:2:0:0:
294,260,245640,5,10,0:0:0:0:
306,116,245807,1,2,0:0:0:0:
414,247,245974,5,6,1:2:0:0:
414,247,246140,1,2,1:2:0:0:
256,174,246307,1,8,0:0:0:0:
386,70,246474,2,0,B|354:156|417:126|374:249,1,152.999995330811,6|6,1:2|1:2,0:0:0:0:
266,61,246974,1,8,0:0:0:0:
119,198,247140,6,0,P|190:243|279:202,1,152.999995330811,4|4,1:2|1:2,0:0:0:0:
370,133,247640,1,8,0:0:0:0:
289,320,247807,1,2,1:2:0:0:
262,149,247974,2,0,P|254:94|250:58,1,76.4999976654053,6|0,1:2|1:2,0:0:0:0:
180,202,248224,1,0,1:2:0:0:
180,202,248307,2,0,P|127:235|63:210,1,101.999996887207,10|0,0:0|1:2,0:0:0:0:
52,217,248557,1,0,1:2:0:0:
52,217,248640,5,6,1:2:0:0:
256,192,248724,12,0,250307,0:0:0:0:
