osu file format v14

[General]
AudioFilename: audio.mp3
AudioLeadIn: 0
PreviewTime: 55426
Countdown: 0
SampleSet: Soft
StackLeniency: 0.7
Mode: 3
LetterboxInBreaks: 0
SpecialStyle: 0
WidescreenStoryboard: 1

[Editor]
DistanceSpacing: 0.4
BeatDivisor: 8
GridSize: 16
TimelineZoom: 2.599999

[Metadata]
Title:Clear Morning
TitleUnicode:Clear Morning
Artist:Ogura Yui
ArtistUnicode:小倉唯
Creator:Rosemi
Version:Easy
Source:ブルーアーカイブ -Blue Archive-
Tags:Electronic Blue Archive Japanese Video Game Pop JPop J-Pop Theme Song Yostar NET Games NEXON mobile op opening
BeatmapID:3329133
BeatmapSetID:1630781

[Difficulty]
HPDrainRate:6
CircleSize:4
OverallDifficulty:6
ApproachRate:5
SliderMultiplier:1.4
SliderTickRate:1

[Events]
//Background and Video events
0,0,"wp8652576-blue-archive-wallpapers.jpg",0,0
Video,25,"bga.mp4"
//Break Periods
//Storyboard Layer 0 (Background)
//Storyboard Layer 1 (Fail)
//Storyboard Layer 2 (Pass)
//Storyboard Layer 3 (Foreground)
//Storyboard Layer 4 (Overlay)
//Storyboard Sound Samples

[TimingPoints]
160,582.52427184466,4,2,1,15,1,0
9480,-100,4,2,1,15,0,1
16470,-100,4,2,1,15,0,0
56082,-100,4,2,1,15,0,1
65111,-100,4,2,1,15,0,0
65402,-100,4,2,1,15,0,1
74140,-100,4,2,1,15,0,0
74723,-100,4,2,1,15,0,1
84043,-100,4,2,1,15,0,0

[HitObjects]
448,192,160,5,0,0:0:0:0:
320,192,451,1,0,0:0:0:0:
192,192,596,1,0,0:0:0:0:
64,192,888,1,0,0:0:0:0:
192,192,1033,1,0,0:0:0:0:
320,192,1616,1,0,0:0:0:0:
320,192,2053,1,0,0:0:0:0:
64,192,2490,1,0,0:0:0:0:
192,192,2781,1,0,0:0:0:0:
320,192,2926,1,0,0:0:0:0:
320,192,3218,1,0,0:0:0:0:
448,192,3363,1,0,0:0:0:0:
320,192,3509,1,0,0:0:0:0:
192,192,3946,1,0,0:0:0:0:
64,192,4383,1,0,0:0:0:0:
192,192,4820,1,0,0:0:0:0:
320,192,5111,1,0,0:0:0:0:
192,192,5257,1,0,0:0:0:0:
192,192,5548,1,0,0:0:0:0:
320,192,5693,1,0,0:0:0:0:
64,192,5839,1,0,0:0:0:0:
448,192,6276,1,0,0:0:0:0:
448,192,6713,1,0,0:0:0:0:
64,192,7150,128,0,7441:0:0:0:0:
192,192,7587,128,0,7878:0:0:0:0:
448,192,8024,128,0,8315:0:0:0:0:
64,192,8315,128,0,8606:0:0:0:0:
320,192,8606,1,0,0:0:0:0:
192,192,8897,1,0,0:0:0:0:
320,192,9043,1,0,0:0:0:0:
448,192,9043,1,0,0:0:0:0:
64,192,9480,5,0,0:0:0:0:
448,192,9480,1,0,0:0:0:0:
320,192,9771,1,0,0:0:0:0:
192,192,9917,1,0,0:0:0:0:
320,192,10208,1,0,0:0:0:0:
192,192,10354,1,0,0:0:0:0:
320,192,10499,1,0,0:0:0:0:
448,192,10936,1,0,0:0:0:0:
64,192,10936,1,0,0:0:0:0:
64,192,11373,1,0,0:0:0:0:
192,192,11373,1,0,0:0:0:0:
64,192,11810,1,0,0:0:0:0:
448,192,11810,1,0,0:0:0:0:
192,192,12101,1,0,0:0:0:0:
320,192,12247,1,0,0:0:0:0:
192,192,12538,1,0,0:0:0:0:
320,192,12684,1,0,0:0:0:0:
192,192,12829,1,0,0:0:0:0:
64,192,13266,1,0,0:0:0:0:
448,192,13266,1,0,0:0:0:0:
448,192,13703,1,0,0:0:0:0:
320,192,13703,1,0,0:0:0:0:
64,192,14140,1,0,0:0:0:0:
448,192,14140,1,0,0:0:0:0:
320,192,14431,1,0,0:0:0:0:
192,192,14577,1,0,0:0:0:0:
320,192,14868,1,0,0:0:0:0:
192,192,15014,1,0,0:0:0:0:
320,192,15159,1,0,0:0:0:0:
64,192,15596,1,0,0:0:0:0:
448,192,15596,1,0,0:0:0:0:
64,192,16033,1,0,0:0:0:0:
448,192,16033,1,0,0:0:0:0:
448,192,16470,128,0,16834:0:0:0:0:
320,192,16907,128,0,17271:0:0:0:0:
192,192,17344,128,0,17854:0:0:0:0:
448,192,17926,128,0,18800:0:0:0:0:
320,192,18363,128,0,18800:0:0:0:0:
64,192,18800,1,0,0:0:0:0:
448,192,19383,1,0,0:0:0:0:
320,192,19528,1,0,0:0:0:0:
320,192,19820,1,0,0:0:0:0:
192,192,20257,1,0,0:0:0:0:
64,192,20548,1,0,0:0:0:0:
320,192,21130,1,0,0:0:0:0:
320,192,21422,1,0,0:0:0:0:
448,192,21567,1,0,0:0:0:0:
448,192,21859,1,0,0:0:0:0:
320,192,22004,1,0,0:0:0:0:
192,192,22587,1,0,0:0:0:0:
192,192,22878,1,0,0:0:0:0:
64,192,23024,1,0,0:0:0:0:
320,192,23460,1,0,0:0:0:0:
448,192,23460,1,0,0:0:0:0:
192,192,24043,1,0,0:0:0:0:
448,192,24189,1,0,0:0:0:0:
320,192,24480,1,0,0:0:0:0:
64,192,24917,1,0,0:0:0:0:
192,192,25208,1,0,0:0:0:0:
320,192,25791,1,0,0:0:0:0:
192,192,26082,1,0,0:0:0:0:
448,192,26227,1,0,0:0:0:0:
320,192,26519,1,0,0:0:0:0:
192,192,26664,1,0,0:0:0:0:
320,192,27247,1,0,0:0:0:0:
448,192,27393,1,0,0:0:0:0:
320,192,27538,1,0,0:0:0:0:
64,192,27538,1,0,0:0:0:0:
64,192,28121,1,0,0:0:0:0:
448,192,28121,1,0,0:0:0:0:
448,192,28703,1,0,0:0:0:0:
64,192,28703,1,0,0:0:0:0:
192,192,28849,1,0,0:0:0:0:
320,192,29140,1,0,0:0:0:0:
64,192,29577,1,0,0:0:0:0:
192,192,29868,1,0,0:0:0:0:
448,192,29868,1,0,0:0:0:0:
320,192,30451,1,0,0:0:0:0:
64,192,30451,1,0,0:0:0:0:
192,192,30742,1,0,0:0:0:0:
448,192,30888,1,0,0:0:0:0:
192,192,31179,1,0,0:0:0:0:
320,192,31325,1,0,0:0:0:0:
64,192,31907,1,0,0:0:0:0:
320,192,32198,1,0,0:0:0:0:
448,192,32198,1,0,0:0:0:0:
192,192,32344,1,0,0:0:0:0:
64,192,32781,1,0,0:0:0:0:
448,192,32781,1,0,0:0:0:0:
192,192,33218,1,0,0:0:0:0:
320,192,33655,1,0,0:0:0:0:
64,192,33946,1,0,0:0:0:0:
448,192,33946,1,0,0:0:0:0:
320,192,34237,1,0,0:0:0:0:
448,192,34528,1,0,0:0:0:0:
192,192,34528,1,0,0:0:0:0:
64,192,34674,1,0,0:0:0:0:
448,192,35111,1,0,0:0:0:0:
192,192,35111,1,0,0:0:0:0:
320,192,35548,1,0,0:0:0:0:
192,192,35985,1,0,0:0:0:0:
448,192,36859,1,0,0:0:0:0:
448,192,37441,128,0,38315:0:0:0:0:
320,192,38315,128,0,39189:0:0:0:0:
64,192,39189,1,0,0:0:0:0:
192,192,39334,1,0,0:0:0:0:
320,192,39480,1,0,0:0:0:0:
448,192,39771,128,0,40062:0:0:0:0:
320,192,40062,1,0,0:0:0:0:
64,192,40208,128,0,40499:0:0:0:0:
192,192,40499,1,0,0:0:0:0:
320,192,40645,128,0,41519:0:0:0:0:
64,192,42101,128,0,42975:0:0:0:0:
192,192,42975,128,0,43558:0:0:0:0:
320,192,43558,128,0,43849:0:0:0:0:
448,192,43994,128,0,44359:0:0:0:0:
64,192,43994,128,0,44359:0:0:0:0:
320,192,44431,128,0,44723:0:0:0:0:
192,192,44723,1,0,0:0:0:0:
64,192,44868,128,0,45159:0:0:0:0:
320,192,45159,1,0,0:0:0:0:
192,192,45305,128,0,45888:0:0:0:0:
320,192,46179,1,0,0:0:0:0:
64,192,46179,1,0,0:0:0:0:
192,192,46325,1,0,0:0:0:0:
320,192,46470,1,0,0:0:0:0:
448,192,46761,1,0,0:0:0:0:
64,192,46761,1,0,0:0:0:0:
192,192,47198,1,0,0:0:0:0:
320,192,47635,1,0,0:0:0:0:
64,192,47635,1,0,0:0:0:0:
448,192,48218,1,0,0:0:0:0:
320,192,48509,1,0,0:0:0:0:
64,192,48655,1,0,0:0:0:0:
192,192,48800,1,0,0:0:0:0:
448,192,49092,1,0,0:0:0:0:
64,192,49092,1,0,0:0:0:0:
320,192,49383,1,0,0:0:0:0:
192,192,49528,1,0,0:0:0:0:
320,192,49820,1,0,0:0:0:0:
448,192,49965,1,0,0:0:0:0:
64,192,49965,1,0,0:0:0:0:
320,192,50839,1,0,0:0:0:0:
448,192,50839,1,0,0:0:0:0:
192,192,50985,1,0,0:0:0:0:
320,192,51130,1,0,0:0:0:0:
192,192,51422,1,0,0:0:0:0:
64,192,51422,128,0,52004:0:0:0:0:
192,192,52587,128,0,52951:0:0:0:0:
320,192,53024,128,0,53388:0:0:0:0:
448,192,53460,128,0,54917:0:0:0:0:
320,192,53752,128,0,54917:0:0:0:0:
448,192,55499,5,0,0:0:0:0:
192,192,55645,1,0,0:0:0:0:
320,192,55791,1,0,0:0:0:0:
64,192,56082,5,0,0:0:0:0:
448,192,56082,1,0,0:0:0:0:
448,192,56664,1,0,0:0:0:0:
64,192,56664,1,0,0:0:0:0:
320,192,56956,1,0,0:0:0:0:
192,192,56956,1,0,0:0:0:0:
448,192,57538,1,0,0:0:0:0:
320,192,57538,1,0,0:0:0:0:
320,192,57975,1,0,0:0:0:0:
192,192,57975,1,0,0:0:0:0:
64,192,58412,1,0,0:0:0:0:
448,192,58412,1,0,0:0:0:0:
192,192,58849,1,0,0:0:0:0:
320,192,58849,1,0,0:0:0:0:
320,192,59286,1,0,0:0:0:0:
64,192,59286,1,0,0:0:0:0:
192,192,59868,1,0,0:0:0:0:
448,192,59868,1,0,0:0:0:0:
64,192,60159,1,0,0:0:0:0:
448,192,60159,1,0,0:0:0:0:
192,192,60305,128,0,60742:0:0:0:0:
320,192,60742,1,0,0:0:0:0:
448,192,60742,1,0,0:0:0:0:
448,192,61179,1,0,0:0:0:0:
192,192,61179,1,0,0:0:0:0:
320,192,61616,1,0,0:0:0:0:
64,192,61616,1,0,0:0:0:0:
64,192,62198,1,0,0:0:0:0:
192,192,62198,1,0,0:0:0:0:
64,192,62635,1,0,0:0:0:0:
448,192,62635,1,0,0:0:0:0:
64,192,63072,1,0,0:0:0:0:
192,192,63072,1,0,0:0:0:0:
192,192,63509,1,0,0:0:0:0:
320,192,63509,1,0,0:0:0:0:
192,192,63946,1,0,0:0:0:0:
448,192,63946,1,0,0:0:0:0:
64,192,64528,1,0,0:0:0:0:
448,192,64820,1,0,0:0:0:0:
320,192,64820,1,0,0:0:0:0:
192,192,64965,1,0,0:0:0:0:
320,192,65111,128,0,65402:0:0:0:0:
64,192,65402,5,0,0:0:0:0:
448,192,65402,1,0,0:0:0:0:
64,192,65985,1,0,0:0:0:0:
192,192,65985,1,0,0:0:0:0:
448,192,66276,1,0,0:0:0:0:
192,192,66276,1,0,0:0:0:0:
64,192,66859,1,0,0:0:0:0:
320,192,66859,1,0,0:0:0:0:
192,192,67295,1,0,0:0:0:0:
64,192,67295,1,0,0:0:0:0:
320,192,67732,1,0,0:0:0:0:
448,192,67732,1,0,0:0:0:0:
320,192,68169,1,0,0:0:0:0:
192,192,68169,1,0,0:0:0:0:
64,192,68606,1,0,0:0:0:0:
320,192,68606,1,0,0:0:0:0:
320,192,69189,1,0,0:0:0:0:
448,192,69189,1,0,0:0:0:0:
64,192,69480,1,0,0:0:0:0:
192,192,69480,1,0,0:0:0:0:
320,192,69626,128,0,70062:0:0:0:0:
192,192,70062,1,0,0:0:0:0:
64,192,70062,1,0,0:0:0:0:
64,192,70499,1,0,0:0:0:0:
448,192,70499,1,0,0:0:0:0:
192,192,70936,1,0,0:0:0:0:
320,192,70936,1,0,0:0:0:0:
448,192,71519,1,0,0:0:0:0:
64,192,71519,1,0,0:0:0:0:
448,192,71956,1,0,0:0:0:0:
192,192,71956,1,0,0:0:0:0:
448,192,72393,1,0,0:0:0:0:
192,192,72393,1,0,0:0:0:0:
320,192,72829,1,0,0:0:0:0:
64,192,72829,1,0,0:0:0:0:
448,192,73266,1,0,0:0:0:0:
192,192,73266,1,0,0:0:0:0:
320,192,73558,128,0,73849:0:0:0:0:
192,192,73849,1,0,0:0:0:0:
320,192,73994,1,0,0:0:0:0:
64,192,74140,1,0,0:0:0:0:
448,192,74140,1,0,0:0:0:0:
320,192,74286,128,0,74723:0:0:0:0:
64,192,74723,5,0,0:0:0:0:
192,192,74723,1,0,0:0:0:0:
320,192,75014,1,0,0:0:0:0:
192,192,75159,1,0,0:0:0:0:
320,192,75451,1,0,0:0:0:0:
192,192,75596,1,0,0:0:0:0:
320,192,75742,1,0,0:0:0:0:
64,192,76179,1,0,0:0:0:0:
192,192,76179,1,0,0:0:0:0:
448,192,76470,1,0,0:0:0:0:
64,192,76616,1,0,0:0:0:0:
192,192,76616,1,0,0:0:0:0:
448,192,77053,1,0,0:0:0:0:
64,192,77053,1,0,0:0:0:0:
192,192,77344,1,0,0:0:0:0:
320,192,77490,1,0,0:0:0:0:
192,192,77781,1,0,0:0:0:0:
320,192,77926,1,0,0:0:0:0:
192,192,78072,1,0,0:0:0:0:
448,192,78509,1,0,0:0:0:0:
320,192,78509,1,0,0:0:0:0:
192,192,78800,1,0,0:0:0:0:
320,192,78946,1,0,0:0:0:0:
448,192,78946,1,0,0:0:0:0:
448,192,79383,1,0,0:0:0:0:
192,192,79383,1,0,0:0:0:0:
320,192,79674,1,0,0:0:0:0:
192,192,79820,1,0,0:0:0:0:
320,192,80111,1,0,0:0:0:0:
192,192,80257,1,0,0:0:0:0:
320,192,80402,1,0,0:0:0:0:
64,192,80839,1,0,0:0:0:0:
192,192,80839,1,0,0:0:0:0:
448,192,81130,1,0,0:0:0:0:
64,192,81276,1,0,0:0:0:0:
192,192,81276,1,0,0:0:0:0:
64,192,81713,1,0,0:0:0:0:
448,192,81713,1,0,0:0:0:0:
320,192,82150,1,0,0:0:0:0:
192,192,82150,1,0,0:0:0:0:
64,192,82587,1,0,0:0:0:0:
192,192,82587,1,0,0:0:0:0:
64,192,83169,1,0,0:0:0:0:
448,192,83169,1,0,0:0:0:0:
320,192,83460,1,0,0:0:0:0:
192,192,83606,1,0,0:0:0:0:
64,192,83606,1,0,0:0:0:0:
320,192,84043,1,0,0:0:0:0:
192,192,84334,1,0,0:0:0:0:
320,192,84480,1,0,0:0:0:0:
192,192,84771,1,0,0:0:0:0:
320,192,84917,1,0,0:0:0:0:
192,192,85062,1,0,0:0:0:0:
320,192,85499,1,0,0:0:0:0:
320,192,85936,1,0,0:0:0:0:
448,192,86373,1,0,0:0:0:0:
320,192,86664,1,0,0:0:0:0:
192,192,86810,1,0,0:0:0:0:
64,192,87101,1,0,0:0:0:0:
192,192,87247,1,0,0:0:0:0:
320,192,87393,1,0,0:0:0:0:
64,192,87829,1,0,0:0:0:0:
192,192,88266,1,0,0:0:0:0:
448,192,88703,1,0,0:0:0:0:
320,192,88994,1,0,0:0:0:0:
192,192,89140,1,0,0:0:0:0:
192,192,89431,1,0,0:0:0:0:
320,192,89577,1,0,0:0:0:0:
448,192,89723,1,0,0:0:0:0:
320,192,90159,1,0,0:0:0:0:
320,192,90596,1,0,0:0:0:0:
448,192,91033,1,0,0:0:0:0:
64,192,91033,1,0,0:0:0:0:
320,192,91470,1,0,0:0:0:0:
64,192,91470,1,0,0:0:0:0:
192,192,91907,1,0,0:0:0:0:
64,192,91907,128,0,95693:0:0:0:0:
