osu file format v14

[General]
AudioFilename: audio.mp3
AudioLeadIn: 0
PreviewTime: 55494
Countdown: 0
SampleSet: Normal
StackLeniency: 0.7
Mode: 1
LetterboxInBreaks: 0
WidescreenStoryboard: 0

[Editor]
Bookmarks: 9475,18795,28116,35106,37436,46756,65397,74718
DistanceSpacing: 0.4
BeatDivisor: 4
GridSize: 16
TimelineZoom: 1.3

[Metadata]
Title:Clear Morning
TitleUnicode:Clear Morning
Artist:Ogura Yui
ArtistUnicode:小倉唯
Creator:-Kazuha
Version:Inner Oni
Source:ブルーアーカイブ -Blue Archive-
Tags:electronic japanese anime blue archive videogame video game jpop pop j-pop theme song op opening ブルアカ buruaka buru aka yostar nat games nexon フルVer. full version ver. pv 磯谷佳江 isogai yoshie 小野貴光 ano takamitsu 玉木千尋 tamaki chihiro 砂狼シロコ Sunaookami Shiroko
BeatmapID:4366259
BeatmapSetID:2084489

[Difficulty]
HPDrainRate:6
CircleSize:5
OverallDifficulty:6
ApproachRate:5
SliderMultiplier:1.4
SliderTickRate:1

[Events]
//Background and Video events
0,0,"ba_shiroko.jpg",0,110
Video,0,"output.mp4"
//Break Periods
2,35306,36236
//Storyboard Layer 0 (Background)
//Storyboard Layer 1 (Fail)
//Storyboard Layer 2 (Pass)
//Storyboard Layer 3 (Foreground)
//Storyboard Layer 4 (Overlay)
//Storyboard Sound Samples

[TimingPoints]
155,582.52427184466,4,1,0,40,1,0
155,-66.6666666666667,4,1,0,40,0,0
1606,-60.6060606060606,4,1,0,40,0,0
2193,-66.6666666666667,4,1,0,40,0,0
3936,-60.6060606060606,4,1,0,40,0,0
4523,-66.6666666666667,4,1,0,40,0,0
6266,-60.6060606060606,4,1,0,40,0,0
6854,-66.6666666666667,4,1,0,40,0,0
8887,-66.6666666666667,4,1,0,40,0,0
9470,-58.8235294117647,4,1,0,55,0,0
9475,-52.6315789473684,4,1,0,85,0,1
16460,-52.6315789473684,4,1,0,85,0,1
16465,-52.6315789473684,4,1,0,55,0,0
16897,-61.7283950617284,4,1,0,55,0,0
16899,-55.5555555555556,4,1,0,55,0,0
17334,-64.5161290322581,4,1,0,55,0,0
17336,-58.8235294117647,4,1,0,55,0,0
17625,-62.5,4,1,0,55,0,0
18790,-66.6666666666667,4,1,0,40,0,0
28111,-62.5,4,1,0,50,0,0
35252,-66.6666666666667,4,1,0,40,0,0
46756,-62.5,4,1,0,40,0,0
53747,-62.5,4,1,0,55,0,0
55052,-66.6666666666667,4,1,0,30,0,0
56077,-51.2820512820513,4,1,0,85,0,1
64815,-51.2820512820513,4,1,0,85,0,0
65397,-51.2820512820513,4,1,0,85,0,1
74135,-51.2820512820513,4,1,0,85,0,0
74718,-52.6315789473684,4,1,0,85,0,1
83601,-66.6666666666667,4,1,0,85,0,1
84038,-66.6666666666667,4,1,0,50,0,0
85484,-60.6060606060606,4,1,0,50,0,0
86077,-66.6666666666667,4,1,0,50,0,0
87819,-60.6060606060606,4,1,0,50,0,0
88407,-66.6666666666667,4,1,0,50,0,0
90149,-60.6060606060606,4,1,0,50,0,0
90737,-66.6666666666667,4,1,0,50,0,0
91023,-66.6666666666667,4,1,0,50,0,0
91460,-70.4225352112676,4,1,0,50,0,0
91897,-74.0740740740741,4,1,0,50,0,0
92188,-78.125,4,1,0,50,0,0

[HitObjects]
258,212,155,5,0,0:0:0:0:
258,212,446,1,8,0:0:0:0:
258,212,591,1,0,0:0:0:0:
248,110,883,1,0,0:0:0:0:
248,110,1028,1,0,0:0:0:0:
248,110,1611,1,8,0:0:0:0:
248,110,2048,1,8,0:0:0:0:
227,105,2485,1,0,0:0:0:0:
227,105,2776,1,8,0:0:0:0:
227,105,2921,1,0,0:0:0:0:
227,105,3213,1,8,0:0:0:0:
227,105,3358,1,0,0:0:0:0:
227,105,3504,1,8,0:0:0:0:
271,123,3941,1,0,0:0:0:0:
271,123,4378,1,8,0:0:0:0:
271,123,4815,1,0,0:0:0:0:
271,123,5106,1,8,0:0:0:0:
271,123,5252,1,0,0:0:0:0:
271,123,5543,1,8,0:0:0:0:
271,123,5688,1,8,0:0:0:0:
271,123,5834,1,0,0:0:0:0:
271,123,6271,1,8,0:0:0:0:
271,123,6708,1,8,0:0:0:0:
248,87,7145,1,0,0:0:0:0:
247,104,7436,1,8,0:0:0:0:
248,87,7582,1,0,0:0:0:0:
247,104,8019,1,8,0:0:0:0:
147,85,8310,2,0,L|238:87,2,52.5000020027161
185,101,8892,5,4,0:0:0:0:
361,203,9475,1,0,0:0:0:0:
361,203,9621,1,8,0:0:0:0:
315,117,9693,1,8,0:0:0:0:
361,203,9766,1,8,0:0:0:0:
282,127,9912,1,0,0:0:0:0:
282,127,10057,1,8,0:0:0:0:
332,143,10349,1,8,0:0:0:0:
282,120,10494,1,8,0:0:0:0:
282,120,10640,1,0,0:0:0:0:
305,126,10931,1,8,0:0:0:0:
227,143,11077,1,0,0:0:0:0:
227,143,11150,1,0,0:0:0:0:
282,120,11222,1,8,0:0:0:0:
305,126,11368,1,0,0:0:0:0:
201,147,11659,1,0,0:0:0:0:
282,120,11805,1,8,0:0:0:0:
282,120,11878,1,0,0:0:0:0:
448,130,11951,1,8,0:0:0:0:
282,120,12023,1,8,0:0:0:0:
240,126,12096,1,0,0:0:0:0:
244,145,12242,1,0,0:0:0:0:
244,145,12388,1,8,0:0:0:0:
259,142,12679,1,0,0:0:0:0:
259,142,12970,1,0,0:0:0:0:
259,142,13116,1,8,0:0:0:0:
259,142,13188,1,8,0:0:0:0:
259,142,13261,1,0,0:0:0:0:
259,142,13407,1,0,0:0:0:0:
259,142,13553,1,8,0:0:0:0:
259,142,13698,1,0,0:0:0:0:
259,142,14135,1,0,0:0:0:0:
271,141,14281,1,0,0:0:0:0:
271,141,14354,1,0,0:0:0:0:
259,142,14426,1,8,0:0:0:0:
259,142,14572,1,0,0:0:0:0:
259,142,14718,1,8,0:0:0:0:
259,142,15009,1,0,0:0:0:0:
259,142,15154,1,8,0:0:0:0:
227,143,15300,1,0,0:0:0:0:
227,143,15591,1,8,0:0:0:0:
227,143,15737,1,0,0:0:0:0:
227,143,15810,1,0,0:0:0:0:
227,143,15883,1,8,0:0:0:0:
227,143,16028,1,0,0:0:0:0:
436,231,16465,1,8,0:0:0:0:
436,231,16902,1,8,0:0:0:0:
436,231,17339,1,8,0:0:0:0:
256,192,17630,12,0,18503,0:0:0:0:
244,136,18795,5,0,0:0:0:0:
244,136,19378,1,8,0:0:0:0:
317,237,19523,1,8,0:0:0:0:
317,237,19815,1,0,0:0:0:0:
317,237,20252,1,8,0:0:0:0:
317,237,20543,1,0,0:0:0:0:
310,217,21125,1,8,0:0:0:0:
310,217,21417,1,0,0:0:0:0:
310,217,21562,1,8,0:0:0:0:
310,217,21854,1,8,0:0:0:0:
310,217,21999,1,0,0:0:0:0:
310,217,22582,1,0,0:0:0:0:
310,217,22873,1,8,0:0:0:0:
310,217,23019,1,8,0:0:0:0:
310,217,23455,1,0,0:0:0:0:
310,217,24038,1,0,0:0:0:0:
310,217,24184,1,0,0:0:0:0:
310,217,24475,1,8,0:0:0:0:
310,217,24912,1,8,0:0:0:0:
310,217,25203,1,0,0:0:0:0:
310,217,25786,1,8,0:0:0:0:
310,217,26077,1,0,0:0:0:0:
310,217,26222,1,8,0:0:0:0:
310,217,26514,1,0,0:0:0:0:
310,217,26659,1,8,0:0:0:0:
310,217,27242,1,0,0:0:0:0:
310,217,27388,1,0,0:0:0:0:
310,217,27533,1,12,0:0:0:0:
357,286,28116,1,0,0:0:0:0:
360,281,28552,1,0,0:0:0:0:
360,281,28698,1,8,0:0:0:0:
360,281,28844,1,8,0:0:0:0:
360,281,29135,1,8,0:0:0:0:
360,281,29281,1,0,0:0:0:0:
212,48,29572,1,8,0:0:0:0:
212,48,29718,1,0,0:0:0:0:
212,48,29863,1,8,0:0:0:0:
212,48,30446,1,0,0:0:0:0:
286,114,30737,1,8,0:0:0:0:
286,114,30883,1,0,0:0:0:0:
219,59,31028,1,8,0:0:0:0:
286,114,31174,1,8,0:0:0:0:
286,114,31320,1,0,0:0:0:0:
286,114,31611,1,8,0:0:0:0:
286,114,31902,1,0,0:0:0:0:
286,114,32193,1,8,0:0:0:0:
286,114,32339,1,0,0:0:0:0:
272,173,32776,1,8,0:0:0:0:
272,173,32921,1,0,0:0:0:0:
272,173,33067,1,0,0:0:0:0:
272,173,33213,1,8,0:0:0:0:
272,173,33358,1,8,0:0:0:0:
272,173,33650,1,8,0:0:0:0:
272,173,33941,1,0,0:0:0:0:
272,173,34232,1,8,0:0:0:0:
272,173,34378,1,8,0:0:0:0:
272,173,34523,1,0,0:0:0:0:
137,82,34669,1,8,0:0:0:0:
189,83,35106,1,0,0:0:0:0:
370,230,37436,5,12,0:0:0:0:
370,230,38310,1,4,0:0:0:0:
370,230,39184,1,0,0:0:0:0:
370,230,39329,1,0,0:0:0:0:
370,230,39475,1,8,0:0:0:0:
370,230,39766,1,4,0:0:0:0:
370,230,40057,1,0,0:0:0:0:
370,230,40203,1,8,0:0:0:0:
370,230,40494,1,8,0:0:0:0:
370,230,40640,1,0,0:0:0:0:
456,281,40931,1,8,0:0:0:0:
456,281,41077,1,0,0:0:0:0:
456,281,41222,1,0,0:0:0:0:
456,281,41368,1,0,0:0:0:0:
456,281,41514,1,12,0:0:0:0:
478,296,42096,1,4,0:0:0:0:
478,296,42970,1,4,0:0:0:0:
478,296,43553,1,8,0:0:0:0:
478,296,43989,1,8,0:0:0:0:
478,296,44426,1,4,0:0:0:0:
478,296,44718,1,0,0:0:0:0:
478,296,44863,1,8,0:0:0:0:
478,296,45154,1,8,0:0:0:0:
478,296,45300,1,0,0:0:0:0:
478,296,45591,1,8,0:0:0:0:
478,296,45737,1,8,0:0:0:0:
478,296,45883,1,0,0:0:0:0:
478,296,46028,1,0,0:0:0:0:
478,296,46174,1,12,0:0:0:0:
319,260,46756,1,4,0:0:0:0:
319,260,47048,1,0,0:0:0:0:
319,260,47193,1,0,0:0:0:0:
319,260,47339,1,8,0:0:0:0:
319,260,47630,1,4,0:0:0:0:
201,112,48067,1,0,0:0:0:0:
210,120,48213,1,8,0:0:0:0:
213,72,48358,1,0,0:0:0:0:
210,120,48504,1,8,0:0:0:0:
210,120,48650,1,8,0:0:0:0:
210,120,48795,1,8,0:0:0:0:
223,105,49087,1,4,0:0:0:0:
289,135,49378,1,8,0:0:0:0:
289,135,49523,1,0,0:0:0:0:
289,135,49669,1,8,0:0:0:0:
289,135,49960,1,4,0:0:0:0:
289,135,50397,1,8,0:0:0:0:
289,135,50543,1,0,0:0:0:0:
289,135,50688,1,0,0:0:0:0:
289,135,50834,1,12,0:0:0:0:
289,135,51417,1,4,0:0:0:0:
256,192,51708,12,0,53455,0:0:0:0:
256,192,53747,12,0,54912,0:0:0:0:
356,237,56077,5,4,0:0:0:0:
235,114,56222,1,8,0:0:0:0:
235,114,56295,1,8,0:0:0:0:
235,114,56368,1,0,0:0:0:0:
248,99,56514,1,0,0:0:0:0:
248,99,56659,1,8,0:0:0:0:
248,99,56951,1,0,0:0:0:0:
248,99,57096,1,8,0:0:0:0:
248,99,57242,1,0,0:0:0:0:
248,99,57388,1,8,0:0:0:0:
248,99,57533,1,0,0:0:0:0:
248,99,57679,1,0,0:0:0:0:
248,99,57752,1,0,0:0:0:0:
248,99,57824,1,8,0:0:0:0:
248,99,57970,1,0,0:0:0:0:
341,184,58261,1,0,0:0:0:0:
248,99,58407,1,8,0:0:0:0:
248,99,58480,1,0,0:0:0:0:
248,99,58553,1,8,0:0:0:0:
248,99,58625,1,8,0:0:0:0:
248,99,58698,1,0,0:0:0:0:
248,99,58844,1,0,0:0:0:0:
248,99,58989,1,8,0:0:0:0:
248,99,59281,1,0,0:0:0:0:
248,99,59426,1,0,0:0:0:0:
248,99,59572,1,8,0:0:0:0:
248,99,59718,1,0,0:0:0:0:
248,99,59790,1,8,0:0:0:0:
248,99,59863,1,0,0:0:0:0:
248,99,60009,1,0,0:0:0:0:
248,99,60154,1,8,0:0:0:0:
248,99,60300,1,0,0:0:0:0:
248,99,60446,1,8,0:0:0:0:
248,99,60519,1,8,0:0:0:0:
248,99,60591,1,8,0:0:0:0:
248,99,60737,1,0,0:0:0:0:
248,99,60883,1,8,0:0:0:0:
248,99,60955,1,8,0:0:0:0:
248,99,61028,1,0,0:0:0:0:
248,99,61174,1,0,0:0:0:0:
248,99,61320,1,8,0:0:0:0:
248,99,61611,1,0,0:0:0:0:
248,99,61756,1,8,0:0:0:0:
248,99,61902,1,8,0:0:0:0:
248,99,62048,1,8,0:0:0:0:
248,99,62193,1,0,0:0:0:0:
248,99,62339,1,0,0:0:0:0:
248,99,62412,1,0,0:0:0:0:
248,99,62484,1,8,0:0:0:0:
248,99,62630,1,0,0:0:0:0:
352,189,62921,1,0,0:0:0:0:
162,62,63067,1,8,0:0:0:0:
162,62,63140,1,8,0:0:0:0:
162,62,63213,1,8,0:0:0:0:
162,62,63286,1,8,0:0:0:0:
162,62,63358,1,0,0:0:0:0:
162,62,63504,1,0,0:0:0:0:
162,62,63650,1,8,0:0:0:0:
187,90,63795,1,0,0:0:0:0:
479,81,63868,1,0,0:0:0:0:
162,62,63941,1,8,0:0:0:0:
162,62,64087,1,0,0:0:0:0:
162,62,64232,1,8,0:0:0:0:
162,62,64378,1,0,0:0:0:0:
162,62,64523,1,8,0:0:0:0:
162,62,64596,1,0,0:0:0:0:
162,62,64669,1,0,0:0:0:0:
162,62,64742,1,0,0:0:0:0:
162,62,64815,1,12,0:0:0:0:
356,237,65397,5,4,0:0:0:0:
235,114,65542,1,0,0:0:0:0:
235,114,65615,1,8,0:0:0:0:
235,114,65688,1,0,0:0:0:0:
248,99,65834,1,0,0:0:0:0:
248,99,65979,1,8,0:0:0:0:
248,99,66271,1,0,0:0:0:0:
248,99,66417,1,0,0:0:0:0:
248,99,66562,1,8,0:0:0:0:
248,99,66708,1,8,0:0:0:0:
248,99,66853,1,0,0:0:0:0:
248,99,66999,1,0,0:0:0:0:
248,99,67072,1,0,0:0:0:0:
248,99,67144,1,8,0:0:0:0:
248,99,67290,1,0,0:0:0:0:
218,116,67582,1,0,0:0:0:0:
248,99,67727,1,8,0:0:0:0:
248,99,67800,1,0,0:0:0:0:
248,99,67873,1,0,0:0:0:0:
248,99,67945,1,8,0:0:0:0:
248,99,68018,1,0,0:0:0:0:
248,99,68164,1,0,0:0:0:0:
248,99,68309,1,8,0:0:0:0:
248,99,68601,1,0,0:0:0:0:
248,99,68746,1,8,0:0:0:0:
248,99,68892,1,0,0:0:0:0:
248,99,69038,1,8,0:0:0:0:
248,99,69110,1,8,0:0:0:0:
248,99,69183,1,0,0:0:0:0:
248,99,69329,1,0,0:0:0:0:
248,99,69474,1,8,0:0:0:0:
248,99,69620,1,0,0:0:0:0:
248,99,69766,1,8,0:0:0:0:
248,99,69839,1,8,0:0:0:0:
248,99,69911,1,8,0:0:0:0:
248,99,70057,1,0,0:0:0:0:
248,99,70203,1,8,0:0:0:0:
248,99,70275,1,8,0:0:0:0:
248,99,70348,1,0,0:0:0:0:
248,99,70494,1,0,0:0:0:0:
248,99,70640,1,8,0:0:0:0:
248,99,70931,1,0,0:0:0:0:
248,99,71076,1,8,0:0:0:0:
248,99,71222,1,8,0:0:0:0:
248,99,71368,1,8,0:0:0:0:
248,99,71513,1,0,0:0:0:0:
248,99,71659,1,0,0:0:0:0:
248,99,71732,1,0,0:0:0:0:
248,99,71804,1,8,0:0:0:0:
248,99,71950,1,0,0:0:0:0:
383,94,72242,1,0,0:0:0:0:
162,62,72387,1,8,0:0:0:0:
162,62,72460,1,8,0:0:0:0:
162,62,72533,1,0,0:0:0:0:
162,62,72606,1,8,0:0:0:0:
162,62,72678,1,0,0:0:0:0:
162,62,72824,1,0,0:0:0:0:
162,62,72970,1,8,0:0:0:0:
162,62,73116,1,0,0:0:0:0:
162,62,73189,1,0,0:0:0:0:
162,62,73261,1,8,0:0:0:0:
162,62,73407,1,0,0:0:0:0:
162,62,73552,1,8,0:0:0:0:
162,62,73625,1,8,0:0:0:0:
162,62,73698,1,8,0:0:0:0:
162,62,73771,1,8,0:0:0:0:
162,62,73843,1,0,0:0:0:0:
162,62,73989,1,0,0:0:0:0:
162,62,74135,1,12,0:0:0:0:
361,203,74718,1,0,0:0:0:0:
361,203,74864,1,8,0:0:0:0:
315,117,74936,1,8,0:0:0:0:
361,203,75009,1,8,0:0:0:0:
282,127,75155,1,0,0:0:0:0:
282,127,75300,1,8,0:0:0:0:
332,143,75592,1,0,0:0:0:0:
282,120,75737,1,8,0:0:0:0:
282,120,75883,1,0,0:0:0:0:
305,126,76174,1,8,0:0:0:0:
282,120,76320,1,0,0:0:0:0:
282,120,76393,1,0,0:0:0:0:
282,120,76465,1,8,0:0:0:0:
305,126,76611,1,0,0:0:0:0:
331,281,76902,1,0,0:0:0:0:
282,120,77048,1,8,0:0:0:0:
282,120,77121,1,0,0:0:0:0:
448,130,77194,1,8,0:0:0:0:
282,120,77266,1,8,0:0:0:0:
240,126,77339,1,0,0:0:0:0:
244,145,77485,1,0,0:0:0:0:
244,145,77631,1,8,0:0:0:0:
259,142,77922,1,0,0:0:0:0:
259,142,78213,1,0,0:0:0:0:
259,142,78359,1,8,0:0:0:0:
259,142,78431,1,8,0:0:0:0:
259,142,78504,1,0,0:0:0:0:
259,142,78650,1,0,0:0:0:0:
259,142,78796,1,8,0:0:0:0:
259,142,78941,1,0,0:0:0:0:
259,142,79378,1,0,0:0:0:0:
271,141,79524,1,0,0:0:0:0:
271,141,79597,1,0,0:0:0:0:
259,142,79669,1,8,0:0:0:0:
259,142,79815,1,0,0:0:0:0:
259,142,79961,1,8,0:0:0:0:
259,142,80252,1,8,0:0:0:0:
259,142,80397,1,8,0:0:0:0:
227,143,80543,1,0,0:0:0:0:
227,143,80834,1,8,0:0:0:0:
227,143,80980,1,0,0:0:0:0:
227,143,81053,1,0,0:0:0:0:
227,143,81126,1,8,0:0:0:0:
227,143,81271,1,0,0:0:0:0:
233,102,81562,1,0,0:0:0:0:
436,231,81708,1,8,0:0:0:0:
250,156,81781,1,8,0:0:0:0:
138,44,81854,1,8,0:0:0:0:
214,68,81926,1,8,0:0:0:0:
214,68,81999,1,0,0:0:0:0:
436,231,82145,1,0,0:0:0:0:
165,43,82290,1,8,0:0:0:0:
436,231,82582,1,0,0:0:0:0:
203,51,82727,1,8,0:0:0:0:
203,51,82873,1,8,0:0:0:0:
170,53,83019,1,0,0:0:0:0:
170,53,83164,1,8,0:0:0:0:
170,53,83237,1,8,0:0:0:0:
170,53,83310,1,0,0:0:0:0:
170,53,83455,1,12,0:0:0:0:
392,281,84038,5,4,0:0:0:0:
384,222,84329,1,8,0:0:0:0:
392,281,84475,1,0,0:0:0:0:
358,223,84766,1,8,0:0:0:0:
358,223,84912,1,0,0:0:0:0:
358,223,85057,1,0,0:0:0:0:
178,43,85494,1,8,0:0:0:0:
358,223,85931,5,8,0:0:0:0:
358,223,86368,1,0,0:0:0:0:
358,223,86659,1,8,0:0:0:0:
368,146,86805,1,0,0:0:0:0:
358,223,87096,1,0,0:0:0:0:
358,223,87242,1,0,0:0:0:0:
358,223,87388,1,8,0:0:0:0:
358,223,87824,1,0,0:0:0:0:
358,223,88261,1,8,0:0:0:0:
358,223,88698,1,0,0:0:0:0:
358,223,88989,1,8,0:0:0:0:
358,223,89135,1,0,0:0:0:0:
358,223,89426,1,8,0:0:0:0:
358,223,89572,1,8,0:0:0:0:
358,223,89718,1,0,0:0:0:0:
358,223,90154,1,8,0:0:0:0:
358,223,90591,1,8,0:0:0:0:
358,223,91028,1,0,0:0:0:0:
358,223,91465,1,0,0:0:0:0:
358,223,91902,1,0,0:0:0:0:
256,192,92193,12,0,95688,0:0:0:0:
