osu file format v14

[General]
AudioFilename: audio.mp3
AudioLeadIn: 0
PreviewTime: 36904
Countdown: 0
SampleSet: None
StackLeniency: 0.7
Mode: 0
LetterboxInBreaks: 0
WidescreenStoryboard: 0

[Editor]
Bookmarks: 44519,48212,58365,61827,198442
DistanceSpacing: 0.8
BeatDivisor: 4
GridSize: 32
TimelineZoom: 3.399999

[Metadata]
Title:Brand-New-Road
TitleUnicode:Brand-New-Road
Artist:Ogura Yui
ArtistUnicode:小倉唯
Creator:Yuuma
Version:Melancholy
Source:
Tags:hop step apple
BeatmapID:1978901
BeatmapSetID:947485

[Difficulty]
HPDrainRate:4
CircleSize:4
OverallDifficulty:8
ApproachRate:9.6
SliderMultiplier:2
SliderTickRate:2

[Events]
//Background and Video events
0,0,"716171.jpg",0,0
//Break Periods
2,66873,72904
2,133335,147395
//Storyboard Layer 0 (Background)
//Storyboard Layer 1 (Fail)
//Storyboard Layer 2 (Pass)
//Storyboard Layer 3 (Foreground)
//Storyboard Sound Samples

[TimingPoints]
212,461.538461538462,4,2,1,100,1,0
212,-200,4,2,2,40,0,0
442,-200,4,2,2,5,0,0
558,-200,4,2,2,40,0,0
788,-200,4,2,2,5,0,0
904,-200,4,2,2,40,0,0
7596,-166.666666666667,4,2,2,50,0,0
22365,-125,4,2,1,50,0,0
33442,-100,4,2,1,50,0,0
35288,-166.666666666667,4,2,1,50,0,0
36673,-166.666666666667,4,2,22,50,0,0
37135,-133.333333333333,4,2,24,65,0,0
37596,-133.333333333333,4,2,2,65,0,0
44519,-133.333333333333,4,2,1,70,0,0
51442,-57.1428571428571,4,2,1,70,0,0
51904,-79.9999999999999,4,2,24,80,0,1
52365,-79.9999999999999,4,2,1,80,0,1
54904,-40,4,2,1,80,0,1
55019,-40,4,2,1,5,0,1
55135,-40,4,2,1,80,0,1
55250,-40,4,2,1,5,0,1
55365,-40,4,2,1,80,0,1
55481,-40,4,2,1,5,0,1
55596,-80,4,2,1,80,0,1
66673,-100,4,2,1,40,0,0
74058,-166.666666666667,4,2,2,50,0,0
88827,-125,4,2,1,50,0,0
99904,-100,4,2,1,50,0,0
101750,-166.666666666667,4,2,1,50,0,0
103135,-166.666666666667,4,2,22,50,0,0
103596,-133.333333333333,4,2,24,65,0,0
104058,-133.333333333333,4,2,2,65,0,0
110981,-133.333333333333,4,2,1,70,0,0
117904,-57.1428571428571,4,2,1,70,0,0
118365,-79.9999999999999,4,2,24,80,0,1
118827,-79.9999999999999,4,2,1,80,0,1
121365,-40,4,2,1,80,0,1
121481,-40,4,2,1,5,0,1
121596,-40,4,2,1,80,0,1
121712,-40,4,2,1,5,0,1
121827,-40,4,2,1,80,0,1
121942,-40,4,2,1,5,0,1
122058,-79.9999999999999,4,2,1,80,0,1
133135,-100,4,2,1,40,0,0
147904,-111.111111111111,4,2,1,50,0,0
158981,-100,4,2,1,50,0,0
160827,-166.666666666667,4,2,1,50,0,0
162212,-166.666666666667,4,2,22,50,0,0
162673,-125,4,2,24,65,0,0
163135,-125,4,2,2,65,0,0
170058,-125,4,2,1,70,0,0
174904,-83.3333333333333,4,2,1,70,0,0
175135,-71.4285714285714,4,2,1,70,0,0
176981,-50,4,2,1,70,0,0
177442,-66.6666666666667,4,2,24,80,0,1
177904,-66.6666666666667,4,2,1,80,0,1
180442,-57.1428571428571,4,2,1,80,0,1
180558,-57.1428571428571,4,2,1,5,0,1
180673,-50,4,2,1,80,0,1
180788,-50,4,2,1,5,0,1
180904,-44.4444444444445,4,2,1,80,0,1
181019,-44.4444444444445,4,2,1,5,0,1
181135,-66.6666666666667,4,2,1,80,0,1
190365,-79.9999999999999,4,2,1,80,0,1
192212,-200,4,2,2,40,0,0

[HitObjects]
134,132,212,6,0,P|146:153|150:178,1,50,2|0,0:0|0:0,0:0:0:0:
151,254,558,2,0,P|175:250|197:237,1,50,2|0,0:0|0:0,0:0:0:0:
257,192,904,1,2,0:0:0:0:
257,192,1365,1,2,0:0:0:0:
151,254,1596,2,0,L|150:277,1,12.5,2|2,0:0|0:0,0:0:0:0:
364,118,2750,5,2,0:0:0:0:
364,118,2865,1,2,0:0:0:0:
364,118,2981,1,2,0:0:0:0:
375,215,3212,1,2,0:0:0:0:
444,58,3442,1,2,0:0:0:0:
273,76,3673,1,2,0:0:0:0:
455,160,3904,5,2,0:0:0:0:
272,177,4250,2,0,L|284:175,1,12.5,2|2,0:0|0:0,0:0:0:0:
472,158,4596,1,2,0:0:0:0:
42,226,5519,1,2,0:0:0:0:
29,228,5634,1,2,0:0:0:0:
17,230,5749,5,2,0:0:0:0:
200,247,6096,1,2,0:0:0:0:
0,234,6442,1,2,0:0:0:0:
416,306,7596,5,2,0:0:0:0:
349,204,7827,2,0,P|342:176|345:146,2,59.9999981689454
436,168,8519,1,2,0:0:0:0:
368,67,8750,2,0,P|339:64|310:73,1,59.9999981689454
206,187,9212,1,0,0:0:0:0:
345,146,9442,5,2,0:0:0:0:
170,124,9673,1,0,0:0:0:0:
343,176,9903,1,0,0:0:0:0:
177,253,10135,1,0,0:0:0:0:
348,204,10365,2,0,P|376:196|406:199,1,59.9999981689454,2|0,0:0|0:0,0:0:0:0:
384,290,10827,1,2,0:0:0:0:
384,290,10942,1,2,0:0:0:0:
384,290,11058,1,2,0:0:0:0:
242,256,11288,6,0,L|257:136,1,119.999996337891,2|0,0:0|0:0,0:0:0:0:
270,47,11981,1,0,0:0:0:0:
174,158,12212,2,0,L|166:98,1,59.9999981689454,2|0,0:0|0:0,0:0:0:0:
80,198,12673,2,0,L|88:139,1,59.9999981689454
160,260,13135,6,0,P|118:300|59:304,1,119.999996337891,2|0,0:0|0:0,0:0:0:0:
256,320,13827,1,0,0:0:0:0:
451,304,14058,2,0,P|392:300|350:260,1,119.999996337891,2|0,0:0|0:0,0:0:0:0:
256,64,14981,5,2,0:0:0:0:
227,195,15212,2,0,P|256:200|286:195,2,59.9999981689454
94,129,15904,2,0,P|123:124|153:130,1,59.9999981689454,2|0,0:0|0:0,0:0:0:0:
285,195,16365,1,0,0:0:0:0:
124,212,16596,1,0,0:0:0:0:
256,64,16827,6,0,P|261:93|255:122,2,59.9999981689454,2|0|0,0:0|0:0|0:0,0:0:0:0:
369,23,17519,1,0,0:0:0:0:
356,156,17750,2,0,P|350:126|355:97,1,59.9999981689454,2|0,0:0|0:0,0:0:0:0:
446,127,18212,1,2,0:0:0:0:
446,127,18327,1,2,0:0:0:0:
446,127,18442,1,2,0:0:0:0:
429,229,18673,6,0,P|379:258|320:255,1,119.999996337891,2|0,0:0|0:0,0:0:0:0:
263,178,19365,1,0,0:0:0:0:
356,156,19596,1,2,0:0:0:0:
227,277,19827,1,0,0:0:0:0:
320,255,20058,1,0,0:0:0:0:
159,196,20288,1,0,0:0:0:0:
292,345,20519,6,0,P|321:348|352:343,1,59.9999981689454,2|0,0:0|0:0,0:0:0:0:
227,277,20981,2,0,P|197:271|167:274,1,59.9999981689454
35,295,21442,1,2,0:0:0:0:
35,295,21904,1,2,0:0:0:0:
44,274,22019,1,2,0:0:0:0:
49,252,22134,1,2,0:0:0:0:
50,230,22250,1,2,0:0:0:0:
48,207,22365,6,0,P|34:150|48:92,1,120,2|0,0:0|0:0,0:0:0:0:
123,150,22827,2,0,P|162:158|201:149,1,80,8|0,0:0|0:0,0:0:0:0:
169,8,23288,1,2,0:0:0:0:
169,8,23404,2,0,P|162:27|163:47,1,40
281,191,23635,1,0,0:0:0:0:
281,191,23751,2,0,P|288:151|281:112,1,80,8|0,0:0|0:0,0:0:0:0:
229,267,24212,6,0,P|285:284|339:262,1,120,2|0,0:0|0:0,0:0:0:0:
417,214,24673,1,8,0:0:0:0:
205,173,24904,1,0,0:0:0:0:
170,191,25020,1,0,0:0:0:0:
146,223,25135,1,2,0:0:0:0:
133,260,25250,2,0,P|128:279|130:299,1,40
218,383,25481,1,0,0:0:0:0:
231,345,25596,2,0,P|237:305|228:266,1,80,8|0,0:0|0:0,0:0:0:0:
146,78,26058,6,0,P|140:117|149:156,1,80,2|0,0:0|0:0,0:0:0:0:
169,191,26404,2,0,P|172:200|173:210,2,20,0|0|8,0:0|0:0|0:0,0:0:0:0:
171,40,26750,1,0,0:0:0:0:
301,117,26981,1,2,0:0:0:0:
301,117,27096,2,0,L|340:109,1,40
304,41,27327,1,0,0:0:0:0:
304,41,27442,2,0,L|265:33,1,40,8|0,0:0|0:0,0:0:0:0:
410,67,27673,1,0,0:0:0:0:
429,71,27788,1,0,0:0:0:0:
449,75,27904,6,0,B|464:127|446:164|446:164|433:160|419:153,1,120,2|0,0:0|0:0,0:0:0:0:
340,108,28365,1,8,0:0:0:0:
428,243,28596,1,0,0:0:0:0:
428,243,28712,1,0,0:0:0:0:
428,243,28827,2,0,P|435:261|436:281,1,40,2|0,0:0|0:0,0:0:0:0:
336,368,29058,1,0,0:0:0:0:
336,368,29173,1,0,0:0:0:0:
336,368,29288,1,8,0:0:0:0:
327,349,29403,1,0,0:0:0:0:
322,330,29518,1,0,0:0:0:0:
322,310,29634,1,0,0:0:0:0:
326,291,29750,6,0,P|330:231|306:177,1,120,2|0,0:0|0:0,0:0:0:0:
242,247,30212,2,0,P|205:258|166:250,1,80,8|0,0:0|0:0,0:0:0:0:
192,128,30673,1,2,0:0:0:0:
192,128,30788,2,0,P|197:147|197:166,1,40
77,309,31019,1,0,0:0:0:0:
77,309,31134,2,0,P|63:271|66:231,1,80,8|0,0:0|0:0,0:0:0:0:
110,78,31596,6,0,P|52:66|-2:87,1,120,2|0,0:0|0:0,0:0:0:0:
60,160,32058,1,8,0:0:0:0:
188,29,32288,1,0,0:0:0:0:
208,18,32403,1,0,0:0:0:0:
231,11,32518,1,2,0:0:0:0:
255,8,32634,1,0,0:0:0:0:
279,11,32749,1,0,0:0:0:0:
302,18,32864,1,0,0:0:0:0:
323,29,32980,1,8,0:0:0:0:
341,45,33095,1,0,0:0:0:0:
356,64,33212,2,0,L|350:113,1,40
452,155,33442,5,2,0:0:0:0:
452,155,33558,1,0,0:0:0:0:
452,155,33673,1,0,0:0:0:0:
452,155,33788,1,0,0:0:0:0:
452,155,33904,2,0,L|458:204,1,50,8|0,0:0|0:0,0:0:0:0:
362,303,34135,2,0,L|368:253,1,50
272,155,34365,2,0,L|278:204,1,50,2|0,0:0|0:0,0:0:0:0:
182,302,34596,1,0,0:0:0:0:
161,317,34711,1,0,0:0:0:0:
138,325,34827,1,8,0:0:0:0:
102,313,34942,1,0,0:0:0:0:
74,289,35057,1,0,0:0:0:0:
57,256,35173,1,0,0:0:0:0:
56,219,35288,6,0,B|42:157|85:130|85:130|102:103|113:34|41:-1|-28:35|-37:97|6:138,1,359.999989013672,2|8,0:0|0:0,0:0:0:0:
146,202,37135,6,0,P|219:200|274:152,1,150.000005722046,2|8,0:0|0:0,0:0:0:0:
311,57,37827,2,0,P|237:59|182:107,1,150.000005722046
274,151,38519,1,8,0:0:0:0:
230,243,38750,1,0,0:0:0:0:
322,286,38981,2,0,P|377:287|420:253,1,112.500004291535
420,253,39442,1,8,0:0:0:0:
346,181,39673,1,0,0:0:0:0:
346,181,40135,1,0,0:0:0:0:
420,253,40365,1,8,0:0:0:0:
322,286,40596,1,0,0:0:0:0:
420,253,40827,6,0,P|460:193|435:125,1,150.000005722046,0|8,0:0|0:0,0:0:0:0:
361,53,41519,2,0,P|320:112|345:180,1,150.000005722046
435,125,42212,1,8,0:0:0:0:
360,52,42442,2,0,P|324:45|288:52,1,75.0000028610231
203,102,42904,1,0,0:0:0:0:
203,102,43135,1,8,0:0:0:0:
259,182,43365,2,0,P|283:249|243:309,1,150.000005722046
115,236,44058,2,0,P|152:229|188:236,1,75.0000028610231,8|0,0:0|0:0,0:0:0:0:
153,322,44519,5,0,0:0:0:0:
259,182,44750,1,0,0:0:0:0:
259,182,44865,1,0,0:0:0:0:
259,181,44981,2,0,P|266:145|259:108,1,75.0000028610231,8|0,0:0|0:0,0:0:0:0:
173,146,45442,1,0,0:0:0:0:
173,146,45558,1,0,0:0:0:0:
173,146,45673,1,0,0:0:0:0:
313,252,45904,1,8,0:0:0:0:
335,78,46135,1,0,0:0:0:0:
337,59,46250,1,0,0:0:0:0:
340,40,46365,6,0,P|376:47|412:38,1,75.0000028610231
449,26,46712,1,0,0:0:0:0:
449,26,46827,1,8,0:0:0:0:
324,165,47058,1,0,0:0:0:0:
507,204,47288,1,0,0:0:0:0:
507,204,47404,1,0,0:0:0:0:
507,204,47519,2,0,L|501:251,1,37.5000014305115
430,272,47750,2,0,L|425:234,1,37.5000014305115,8|0,0:0|0:0,0:0:0:0:
353,204,47981,2,0,L|348:241,1,37.5000014305115
275,272,48212,5,0,0:0:0:0:
256,292,48327,1,0,0:0:0:0:
231,305,48442,1,0,0:0:0:0:
204,308,48558,1,0,0:0:0:0:
175,301,48673,2,0,P|159:292|141:289,1,37.5000014305115,8|0,0:0|0:0,0:0:0:0:
61,302,48904,5,0,0:0:0:0:
39,271,49019,1,0,0:0:0:0:
28,235,49134,1,0,0:0:0:0:
32,198,49250,1,0,0:0:0:0:
46,164,49365,2,0,P|53:146|52:127,1,37.5000014305115
26,52,49596,5,8,0:0:0:0:
63,45,49711,1,0,0:0:0:0:
99,56,49826,1,0,0:0:0:0:
125,82,49942,1,0,0:0:0:0:
136,117,50058,5,0,0:0:0:0:
160,149,50173,1,0,0:0:0:0:
196,169,50288,1,0,0:0:0:0:
237,171,50404,1,0,0:0:0:0:
275,156,50519,5,8,0:0:0:0:
306,125,50634,1,0,0:0:0:0:
349,116,50749,1,0,0:0:0:0:
390,133,50865,1,0,0:0:0:0:
414,171,50980,1,0,0:0:0:0:
229,53,51212,1,0,0:0:0:0:
334,337,51442,2,0,B|214:389|215:257|74:353,1,262.500002503395
16,342,51904,6,0,P|104:279|143:380,1,250,4|8,0:0|0:0,0:0:0:0:
128,205,52596,2,0,P|124:142|109:82,1,125,0|2,0:0|0:0,0:0:0:0:
280,267,53058,1,0,0:0:0:0:
451,83,53288,1,8,0:0:0:0:
433,174,53404,1,0,0:0:0:0:
447,267,53519,1,0,0:0:0:0:
364,123,53750,6,0,P|308:96|247:107,1,125,2|0,0:0|0:0,0:0:0:0:
202,183,54096,1,0,0:0:0:0:
226,273,54212,2,0,P|277:238|298:180,1,125,8|0,0:0|0:0,0:0:0:0:
159,105,54673,1,2,0:0:0:0:
47,247,54904,6,0,L|67:381,1,125
78,369,55135,6,0,L|59:245,1,125,8|0,0:0|0:0,0:0:0:0:
73,244,55365,6,0,L|91:367,1,125
157,294,55596,6,0,P|205:255|265:262,1,125,2|0,0:0|0:0,0:0:0:0:
441,340,56058,1,8,0:0:0:0:
232,340,56288,2,0,P|292:347|339:308,1,125,0|2,0:0|0:0,0:0:0:0:
446,147,56750,2,0,P|385:140|338:179,1,125,0|8,0:0|0:0,0:0:0:0:
441,340,57212,2,0,P|448:279|409:232,1,125,0|2,0:0|0:0,0:0:0:0:
255,106,57673,1,0,0:0:0:0:
265,262,57904,1,8,0:0:0:0:
360,71,58135,1,0,0:0:0:0:
149,84,58365,5,10,0:0:0:0:
184,189,58481,1,0,0:0:0:0:
256,107,58596,1,0,0:0:0:0:
256,107,58827,5,8,0:0:0:0:
292,211,58943,1,0,0:0:0:0:
364,129,59058,1,0,0:0:0:0:
40,65,59288,5,2,0:0:0:0:
221,291,59519,1,0,0:0:0:0:
149,84,59750,1,8,0:0:0:0:
112,271,59981,1,0,0:0:0:0:
256,107,60212,1,2,0:0:0:0:
328,310,60442,2,0,P|269:327|221:291,1,125,0|8,0:0|0:0,0:0:0:0:
291,208,60904,5,0,0:0:0:0:
399,228,61135,2,0,B|505:248|505:248|467:271,1,125,2|0,0:0|0:0,0:0:0:0:
328,310,61596,1,8,0:0:0:0:
364,129,61827,2,0,L|386:6,1,125,0|2,0:0|0:0,0:0:0:0:
291,208,62288,1,0,0:0:0:0:
274,115,62404,1,0,0:0:0:0:
257,23,62519,2,0,L|199:46,1,62.5,8|0,0:0|0:0,0:0:0:0:
118,124,62750,2,0,L|176:146,1,62.5
97,15,62981,5,10,0:0:0:0:
25,70,63096,1,0,0:0:0:0:
14,160,63212,1,0,0:0:0:0:
71,231,63327,1,0,0:0:0:0:
163,234,63442,2,0,P|194:230|220:213,1,62.5,8|0,0:0|0:0,0:0:0:0:
281,115,63673,5,0,0:0:0:0:
336,43,63788,1,0,0:0:0:0:
426,32,63904,1,10,0:0:0:0:
497,89,64019,1,8,0:0:0:0:
500,181,64135,2,0,P|501:213|491:242,1,62.5
378,367,64365,5,8,0:0:0:0:
263,193,64596,1,0,0:0:0:0:
263,193,64712,1,0,0:0:0:0:
263,193,64827,6,0,P|320:170|380:186,1,125,2|0,0:0|0:0,0:0:0:0:
326,276,65173,1,0,0:0:0:0:
326,276,65288,2,0,P|268:298|209:282,1,125,8|0,0:0|0:0,0:0:0:0:
29,166,65750,5,8,3:2:0:0:
140,131,65865,1,0,3:0:0:0:
114,244,65981,1,0,3:0:0:0:
70,103,66096,5,0,3:0:0:0:
172,198,66211,1,8,3:2:0:0:
40,238,66327,1,0,3:0:0:0:
159,108,66442,5,0,3:0:0:0:
122,271,66557,1,0,3:0:0:0:
0,159,66673,1,0,3:0:0:0:
28,36,74058,5,2,0:0:0:0:
98,104,74288,2,0,P|103:133|98:163,2,59.9999981689454
12,135,74981,2,0,P|7:164|12:194,1,59.9999981689454,2|0,0:0|0:0,0:0:0:0:
184,195,75442,1,0,0:0:0:0:
98,163,75673,1,0,0:0:0:0:
114,254,75904,5,2,0:0:0:0:
169,105,76135,1,0,0:0:0:0:
201,286,76365,1,0,0:0:0:0:
254,137,76596,1,0,0:0:0:0:
338,289,76827,2,0,P|315:308|286:316,1,59.9999981689454,2|0,0:0|0:0,0:0:0:0:
272,226,77288,1,2,0:0:0:0:
272,226,77404,1,2,0:0:0:0:
272,226,77519,1,2,0:0:0:0:
431,289,77750,6,0,L|441:165,1,119.999996337891,2|0,0:0|0:0,0:0:0:0:
447,76,78442,1,0,0:0:0:0:
362,184,78673,2,0,L|357:124,1,59.9999981689454,2|0,0:0|0:0,0:0:0:0:
272,226,79135,2,0,L|276:166,1,59.9999981689454
286,68,79596,5,2,0:0:0:0:
362,184,79827,1,0,0:0:0:0:
195,107,80058,2,0,P|166:102|137:106,1,59.9999981689454
50,193,80519,2,0,P|106:212|163:195,2,119.999996337891,2|0|2,0:0|0:0|0:0,0:0:0:0:
113,70,81673,6,0,P|117:99|111:128,1,59.9999981689454
162,254,82135,2,0,P|157:224|163:195,1,59.9999981689454,0|2,0:0|0:0,0:0:0:0:
195,107,82596,1,0,0:0:0:0:
251,228,82827,2,0,P|256:198|252:169,1,59.9999981689454
196,48,83288,6,0,P|190:77|194:106,2,59.9999981689454,2|0|0,0:0|0:0|0:0,0:0:0:0:
283,80,83981,1,0,0:0:0:0:
312,166,84212,2,0,L|252:168,1,59.9999981689454,2|0,0:0|0:0,0:0:0:0:
371,163,84673,1,2,0:0:0:0:
400,161,84788,1,2,0:0:0:0:
430,160,84903,1,2,0:0:0:0:
405,258,85135,6,0,L|285:261,1,119.999996337891,2|0,0:0|0:0,0:0:0:0:
348,349,85827,1,0,0:0:0:0:
208,288,86058,2,0,P|201:258|208:229,1,59.9999981689454,2|0,0:0|0:0,0:0:0:0:
244,384,86519,2,0,P|214:390|185:384,1,59.9999981689454
75,318,86981,6,0,L|84:259,1,59.9999981689454,2|0,0:0|0:0,0:0:0:0:
199,170,87442,2,0,L|207:229,1,59.9999981689454
74,139,87904,1,2,0:0:0:0:
74,139,88365,1,2,0:0:0:0:
60,121,88480,1,2,0:0:0:0:
67,101,88595,1,2,0:0:0:0:
87,95,88711,1,2,0:0:0:0:
105,108,88827,6,0,P|163:113|207:76,1,120,2|0,0:0|0:0,0:0:0:0:
273,12,89288,2,0,P|311:3|350:12,1,80,8|0,0:0|0:0,0:0:0:0:
387,135,89750,2,0,P|348:143|309:134,1,80,2|0,0:0|0:0,0:0:0:0:
309,134,90096,1,0,0:0:0:0:
309,134,90212,1,8,0:0:0:0:
469,45,90442,1,0,0:0:0:0:
503,170,90673,6,0,P|511:208|502:247,1,80,2|0,0:0|0:0,0:0:0:0:
502,248,91019,1,0,0:0:0:0:
502,248,91135,1,8,0:0:0:0:
369,326,91365,1,0,0:0:0:0:
343,295,91480,1,0,0:0:0:0:
332,257,91595,1,2,0:0:0:0:
338,218,91712,2,0,P|345:199|358:186,1,40
466,250,91942,1,0,0:0:0:0:
466,250,92058,1,8,0:0:0:0:
466,250,92173,2,0,P|448:256|428:254,1,40
222,216,92519,6,0,P|183:208|144:217,1,80,2|0,0:0|0:0,0:0:0:0:
108,236,92865,2,0,L|106:255,2,20,0|0|8,0:0|0:0|0:0,0:0:0:0:
173,66,93212,1,0,0:0:0:0:
173,66,93327,1,0,0:0:0:0:
173,66,93442,1,2,0:0:0:0:
173,66,93558,2,0,L|175:105,1,40
282,158,93788,1,0,0:0:0:0:
282,158,93904,2,0,L|287:78,1,80,8|0,0:0|0:0,0:0:0:0:
463,135,94365,6,0,L|471:254,1,120,2|0,0:0|0:0,0:0:0:0:
478,345,94827,1,8,0:0:0:0:
387,202,95058,2,0,P|367:200|347:205,1,40
261,281,95288,1,2,0:0:0:0:
261,281,95404,2,0,P|280:286|300:284,1,40
213,201,95635,1,0,0:0:0:0:
213,201,95750,2,0,P|193:199|174:205,1,40,8|0,0:0|0:0,0:0:0:0:
87,280,95981,1,0,0:0:0:0:
160,85,96212,6,0,L|173:204,1,120,2|0,0:0|0:0,0:0:0:0:
85,178,96673,2,0,P|46:183|16:207,1,80,8|0,0:0|0:0,0:0:0:0:
82,319,97135,1,2,0:0:0:0:
82,319,97250,2,0,L|88:259,1,40
164,126,97481,1,0,0:0:0:0:
164,126,97596,2,0,L|172:205,1,80,8|0,0:0|0:0,0:0:0:0:
100,36,98058,6,0,L|87:155,1,120,2|0,0:0|0:0,0:0:0:0:
85,178,98519,1,8,0:0:0:0:
182,312,98750,1,0,0:0:0:0:
254,158,98981,1,2,0:0:0:0:
256,138,99096,1,0,0:0:0:0:
258,118,99211,1,0,0:0:0:0:
261,98,99327,1,0,0:0:0:0:
263,77,99442,1,8,0:0:0:0:
281,55,99557,1,0,0:0:0:0:
308,42,99672,1,0,0:0:0:0:
338,42,99788,1,0,0:0:0:0:
365,55,99904,6,0,L|415:59,1,50,2|0,0:0|0:0,0:0:0:0:
512,144,100135,1,0,0:0:0:0:
512,144,100250,1,0,0:0:0:0:
512,144,100365,1,8,0:0:0:0:
512,144,100481,1,0,0:0:0:0:
512,144,100596,2,0,L|462:147,1,50
366,232,100827,2,0,L|415:235,1,50,2|0,0:0|0:0,0:0:0:0:
512,320,101058,1,0,0:0:0:0:
487,320,101173,1,0,0:0:0:0:
462,320,101288,1,8,0:0:0:0:
437,321,101404,1,0,0:0:0:0:
412,321,101519,1,0,0:0:0:0:
387,322,101634,1,0,0:0:0:0:
362,322,101750,6,0,B|312:304|274:325|256:366|256:366|285:300|286:253|241:208|167:222|146:287,1,359.999989013672,2|8,0:0|0:0,0:0:0:0:
28,367,103596,6,0,P|-12:305|0:233,1,150.000005722046,2|8,0:0|0:0,0:0:0:0:
46,155,104288,2,0,P|86:216|74:288,1,150.000005722046
0,233,104981,1,8,0:0:0:0:
46,155,105212,1,0,0:0:0:0:
123,200,105442,6,0,P|176:216|228:197,1,112.500004291535
228,197,105904,1,8,0:0:0:0:
173,115,106135,1,0,0:0:0:0:
173,115,106596,1,0,0:0:0:0:
228,197,106827,1,8,0:0:0:0:
123,200,107058,1,0,0:0:0:0:
228,197,107288,6,0,P|293:166|359:197,1,150.000005722046,0|8,0:0|0:0,0:0:0:0:
425,262,107981,2,0,P|359:292|293:261,1,150.000005722046
359,197,108673,1,8,0:0:0:0:
425,262,108904,2,0,P|430:298|424:335,1,75.0000028610231
457,172,109365,1,0,0:0:0:0:
457,172,109596,1,8,0:0:0:0:
359,197,109827,2,0,P|330:129|360:63,1,150.000005722046
498,135,110519,2,0,P|461:140|424:134,1,75.0000028610231,8|0,0:0|0:0,0:0:0:0:
459,42,110981,5,2,0:0:0:0:
359,197,111212,1,0,0:0:0:0:
359,197,111327,1,0,0:0:0:0:
359,197,111442,2,0,P|322:202|285:196,1,75.0000028610231,8|0,0:0|0:0,0:0:0:0:
162,141,111904,1,2,0:0:0:0:
162,141,112019,1,0,0:0:0:0:
162,141,112135,2,0,P|180:137|199:136,1,37.5000014305115
188,224,112365,1,8,0:0:0:0:
41,181,112596,1,0,0:0:0:0:
41,181,112712,1,0,0:0:0:0:
41,181,112827,6,0,P|36:144|42:107,1,75.0000028610231,2|0,0:0|0:0,0:0:0:0:
61,26,113173,1,0,0:0:0:0:
61,26,113288,2,0,L|23:23,1,37.5000014305115,8|0,0:0|0:0,0:0:0:0:
124,143,113519,2,0,L|161:140,1,37.5000014305115
224,23,113750,1,2,0:0:0:0:
224,23,113865,1,0,0:0:0:0:
224,23,113981,1,0,0:0:0:0:
224,23,114096,1,0,0:0:0:0:
224,23,114212,2,0,L|261:25,1,37.5000014305115,8|0,0:0|0:0,0:0:0:0:
363,142,114442,2,0,L|325:144,1,37.5000014305115
423,22,114673,5,2,0:0:0:0:
456,39,114788,1,0,0:0:0:0:
480,68,114903,1,0,0:0:0:0:
491,103,115019,1,0,0:0:0:0:
489,140,115135,2,0,L|491:177,1,37.5000014305115,8|0,0:0|0:0,0:0:0:0:
350,249,115365,5,0,0:0:0:0:
350,249,115481,1,0,0:0:0:0:
350,249,115596,1,2,0:0:0:0:
350,249,115712,1,0,0:0:0:0:
350,249,115827,2,0,L|352:211,1,37.5000014305115
468,311,116058,5,8,0:0:0:0:
449,344,116173,1,0,0:0:0:0:
420,367,116288,1,0,0:0:0:0:
384,378,116404,1,0,0:0:0:0:
347,374,116519,5,2,0:0:0:0:
320,343,116634,1,0,0:0:0:0:
284,323,116749,1,0,0:0:0:0:
244,315,116865,1,0,0:0:0:0:
203,319,116981,5,8,0:0:0:0:
169,347,117096,1,0,0:0:0:0:
125,352,117211,1,0,0:0:0:0:
86,331,117327,1,0,0:0:0:0:
65,292,117442,1,2,0:0:0:0:
350,249,117673,1,0,0:0:0:0:
25,81,117904,2,0,B|163:123|133:9|276:69,1,262.500002503395,8|0,0:0|0:0,0:0:0:0:
335,36,118365,6,0,P|296:137|208:74,1,250,4|8,0:0|0:0,0:0:0:0:
454,129,119058,2,0,P|471:188|461:249,1,125,0|2,0:0|0:0,0:0:0:0:
275,68,119519,1,0,0:0:0:0:
100,274,119750,1,8,0:0:0:0:
72,187,119865,1,0,0:0:0:0:
100,99,119981,1,0,0:0:0:0:
227,270,120212,6,0,P|175:302|115:289,1,125,2|0,0:0|0:0,0:0:0:0:
161,206,120558,1,0,0:0:0:0:
250,181,120673,2,0,P|303:209|322:267,1,125,8|0,0:0|0:0,0:0:0:0:
184,117,121135,1,2,0:0:0:0:
397,346,121365,6,0,L|273:358,1,125
271,345,121596,6,0,L|396:334,1,125,8|0,0:0|0:0,0:0:0:0:
394,321,121827,6,0,L|269:332,1,125
322,267,122058,6,0,P|341:208|394:179,1,125,2|0,0:0|0:0,0:0:0:0:
512,290,122519,1,8,0:0:0:0:
512,290,122750,2,0,P|452:302|400:270,1,125,0|2,0:0|0:0,0:0:0:0:
435,103,123212,2,0,P|475:148|474:209,1,125,0|8,0:0|0:0,0:0:0:0:
322,267,123673,2,0,P|281:221|282:160,1,125,0|2,0:0|0:0,0:0:0:0:
382,186,124135,1,0,0:0:0:0:
185,223,124365,1,8,0:0:0:0:
48,100,124596,1,0,0:0:0:0:
223,43,124827,5,2,0:0:0:0:
256,144,124942,1,0,0:0:0:0:
152,122,125057,1,0,0:0:0:0:
152,122,125288,5,8,0:0:0:0:
185,223,125404,1,0,0:0:0:0:
81,201,125519,1,0,0:0:0:0:
223,43,125750,5,2,0:0:0:0:
290,246,125981,1,0,0:0:0:0:
119,21,126212,1,8,0:0:0:0:
185,224,126442,1,0,0:0:0:0:
326,64,126673,1,2,0:0:0:0:
150,122,126904,2,0,P|97:152|71:208,1,125,0|8,0:0|0:0,0:0:0:0:
211,328,127365,1,0,0:0:0:0:
361,122,127596,2,0,P|414:152|440:208,1,125,2|0,0:0|0:0,0:0:0:0:
301,328,128057,5,8,0:0:0:0:
232,211,128288,2,0,L|356:203,1,125,0|2,0:0|0:0,0:0:0:0:
505,297,128750,1,0,0:0:0:0:
505,297,128865,1,0,0:0:0:0:
505,297,128981,2,0,L|380:289,1,125,0|2,0:0|0:0,0:0:0:0:
206,261,129442,5,2,0:0:0:0:
131,313,129558,1,0,0:0:0:0:
43,289,129673,1,0,0:0:0:0:
6,207,129788,1,0,0:0:0:0:
45,125,129904,2,0,P|62:99|89:84,1,62.5,8|0,0:0|0:0,0:0:0:0:
224,31,130135,5,0,0:0:0:0:
308,0,130251,1,0,0:0:0:0:
387,46,130366,1,10,0:0:0:0:
401,135,130481,1,8,0:0:0:0:
343,204,130596,2,0,P|319:224|289:232,1,62.5
136,191,130827,5,8,0:0:0:0:
299,108,131058,1,0,0:0:0:0:
299,108,131173,1,0,0:0:0:0:
299,108,131288,6,0,P|357:86|418:98,1,125,2|0,0:0|0:0,0:0:0:0:
485,177,131635,1,0,0:0:0:0:
485,177,131750,2,0,P|427:198|366:186,1,125,8|0,0:0|0:0,0:0:0:0:
51,113,132212,5,8,3:2:0:0:
162,78,132327,1,0,3:0:0:0:
136,191,132443,1,0,3:0:0:0:
92,50,132558,5,0,3:0:0:0:
194,145,132673,1,8,3:2:0:0:
62,185,132789,1,0,3:0:0:0:
181,55,132904,5,0,3:0:0:0:
144,218,133019,1,0,3:0:0:0:
22,106,133135,1,0,3:0:0:0:
217,277,147904,6,0,P|204:234|209:189,1,89.9999972534181,2|0,0:0|0:0,0:0:0:0:
210,190,148250,1,0,0:0:0:0:
210,190,148365,1,8,0:0:0:0:
375,136,148596,2,0,P|387:178|382:223,1,89.9999972534181,0|2,0:0|0:0,0:0:0:0:
382,223,148942,1,0,0:0:0:0:
382,223,149057,1,0,0:0:0:0:
260,92,149288,2,0,P|293:34|355:14,1,134.999995880127,8|0,0:0|0:0,0:0:0:0:
426,66,149750,6,0,P|393:96|349:100,1,89.9999972534181,2|0,0:0|0:0,0:0:0:0:
184,40,150212,1,8,0:0:0:0:
140,44,150327,1,0,0:0:0:0:
107,74,150442,2,0,P|94:92|90:114,1,44.999998626709
192,231,150673,1,2,0:0:0:0:
209,190,150788,1,0,0:0:0:0:
200,147,150903,2,0,P|190:126|174:111,1,44.999998626709
38,189,151135,2,0,P|79:204|122:192,1,89.9999972534181,8|0,0:0|0:0,0:0:0:0:
375,136,151596,6,0,P|387:178|382:223,1,89.9999972534181,2|0,0:0|0:0,0:0:0:0:
382,223,151942,1,0,0:0:0:0:
382,223,152057,1,8,0:0:0:0:
215,277,152288,2,0,P|203:235|208:190,1,89.9999972534181,0|2,0:0|0:0,0:0:0:0:
282,145,152635,2,0,P|294:188|288:232,1,89.9999972534181
289,317,152981,1,8,0:0:0:0:
204,104,153212,1,0,0:0:0:0:
204,104,153327,1,0,0:0:0:0:
204,104,153442,6,0,P|161:116|129:148,1,89.9999972534181,2|0,0:0|0:0,0:0:0:0:
55,192,153788,1,0,0:0:0:0:
55,192,153904,2,0,L|62:102,1,89.9999972534181,8|0,0:0|0:0,0:0:0:0:
130,234,154365,1,2,0:0:0:0:
131,256,154480,1,0,0:0:0:0:
133,278,154595,1,0,0:0:0:0:
135,301,154711,1,0,0:0:0:0:
137,323,154827,2,0,L|139:345,4,22.4999993133545,8|0|0|0|0,0:0|0:0|0:0|0:0|0:0,0:0:0:0:
208,189,155288,6,0,P|251:177|283:145,1,89.9999972534181,2|0,0:0|0:0,0:0:0:0:
298,103,155635,1,0,0:0:0:0:
298,103,155750,1,8,0:0:0:0:
251,285,155981,1,0,0:0:0:0:
210,104,156212,1,2,0:0:0:0:
210,104,156327,1,0,0:0:0:0:
210,104,156442,1,0,0:0:0:0:
210,104,156558,1,0,0:0:0:0:
210,104,156673,2,0,P|221:61|253:29,1,89.9999972534181,8|0,0:0|0:0,0:0:0:0:
433,92,157135,6,0,L|343:99,1,89.9999972534181,2|0,0:0|0:0,0:0:0:0:
298,103,157481,1,0,0:0:0:0:
298,103,157596,1,8,0:0:0:0:
397,221,157827,1,0,0:0:0:0:
419,222,157942,1,0,0:0:0:0:
441,224,158058,1,2,0:0:0:0:
464,226,158173,1,0,0:0:0:0:
486,228,158288,1,0,0:0:0:0:
452,230,158404,1,0,0:0:0:0:
418,233,158519,1,8,0:0:0:0:
385,236,158635,1,0,0:0:0:0:
351,239,158750,2,0,L|359:288,1,50
237,332,158981,5,10,0:0:0:0:
237,332,159096,1,0,0:0:0:0:
237,332,159212,1,0,0:0:0:0:
237,332,159327,1,0,0:0:0:0:
237,332,159442,2,0,L|245:282,1,50,8|0,0:0|0:0,0:0:0:0:
123,239,159673,2,0,L|131:288,1,50
9,332,159904,2,0,L|17:282,1,50,10|0,0:0|0:0,0:0:0:0:
41,156,160135,1,0,0:0:0:0:
45,131,160250,1,0,0:0:0:0:
48,106,160365,1,8,0:0:0:0:
70,75,160481,1,8,0:0:0:0:
102,56,160596,1,8,0:0:0:0:
139,51,160712,1,8,0:0:0:0:
176,58,160827,6,0,B|236:71|238:137|238:137|267:89|309:86|344:105|344:105|354:149|340:186|308:205|270:210,1,359.999989013672,2|8,0:0|0:0,0:0:0:0:
88,293,162673,6,0,P|158:325|231:297,1,160,2|8,0:0|0:0,0:0:0:0:
161,218,163365,2,0,P|90:185|17:213,1,160
87,293,164058,1,8,0:0:0:0:
161,218,164288,1,0,0:0:0:0:
90,136,164519,2,0,P|70:80|88:23,1,120
87,24,164981,1,8,0:0:0:0:
183,79,165212,1,0,0:0:0:0:
183,79,165673,1,0,0:0:0:0:
89,24,165904,1,8,0:0:0:0:
90,136,166135,1,0,0:0:0:0:
183,78,166365,6,0,P|256:50|329:77,1,160,0|8,0:0|0:0,0:0:0:0:
402,153,167058,2,0,P|328:180|255:153,1,160
330,79,167750,1,8,0:0:0:0:
402,153,167981,2,0,P|408:192|401:231,1,80
363,323,168442,1,0,0:0:0:0:
363,323,168673,1,8,0:0:0:0:
302,244,168904,2,0,P|228:216|155:244,1,160
228,374,169596,2,0,P|235:335|229:295,1,80,8|0,0:0|0:0,0:0:0:0:
143,334,170058,5,2,0:0:0:0:
302,244,170288,1,0,0:0:0:0:
302,244,170404,1,0,0:0:0:0:
302,244,170519,2,0,P|309:205|303:165,1,80,8|0,0:0|0:0,0:0:0:0:
158,66,170981,1,2,0:0:0:0:
151,105,171096,1,0,0:0:0:0:
156,144,171211,1,0,0:0:0:0:
298,66,171442,1,8,0:0:0:0:
214,206,171673,1,0,0:0:0:0:
214,206,171788,1,0,0:0:0:0:
214,206,171904,6,0,P|180:224|140:227,1,80,2|0,0:0|0:0,0:0:0:0:
101,231,172250,1,0,0:0:0:0:
101,231,172365,2,0,L|93:291,1,40,8|0,0:0|0:0,0:0:0:0:
156,144,172596,1,0,0:0:0:0:
207,306,172827,1,2,0:0:0:0:
207,306,172942,1,0,0:0:0:0:
207,306,173058,2,0,L|215:366,1,40
140,227,173288,1,8,0:0:0:0:
82,384,173519,1,0,0:0:0:0:
238,207,173750,5,2,0:0:0:0:
276,195,173865,1,0,0:0:0:0:
315,199,173980,1,0,0:0:0:0:
351,217,174096,1,0,0:0:0:0:
377,247,174212,2,0,P|384:265|387:285,1,40,8|0,0:0|0:0,0:0:0:0:
459,244,174442,5,0,0:0:0:0:
437,209,174557,1,0,0:0:0:0:
431,170,174672,1,2,0:0:0:0:
439,131,174788,1,0,0:0:0:0:
460,97,174904,2,0,P|469:69|489:47,1,59.9999981689454,8|8,0:0|0:0,0:0:0:0:
354,124,175135,2,0,P|339:93|338:59,1,69.9999978637696,8|8,0:0|0:0,0:0:0:0:
299,219,175365,5,14,0:0:0:0:
58,69,176750,5,0,3:0:0:0:
58,86,176807,1,0,3:0:0:0:
59,103,176865,1,0,3:0:0:0:
59,121,176923,1,0,3:0:0:0:
60,138,176981,6,0,P|175:120|103:213,1,300,0|0,3:0|0:0,0:0:0:0:
34,285,177442,6,0,B|103:338|172:288|172:288|252:226|309:269,1,300.000011444092,4|8,0:0|0:0,0:0:0:0:
325,339,178135,2,0,P|239:249|359:220,1,300.000011444092
469,323,178827,1,8,0:0:0:0:
504,219,178942,1,0,0:0:0:0:
468,115,179058,1,0,0:0:0:0:
309,271,179288,6,0,P|243:301|176:273,1,150.000005722046,2|0,0:0|0:0,0:0:0:0:
105,192,179635,1,0,0:0:0:0:
105,192,179750,2,0,P|170:161|237:189,1,150.000005722046,8|0,0:0|0:0,0:0:0:0:
106,352,180212,1,2,0:0:0:0:
90,106,180442,6,0,L|105:192,1,87.500000834465
128,75,180673,6,0,L|114:174,1,100,8|0,0:0|0:0,0:0:0:0:
77,39,180904,6,0,L|99:150,1,112.500004291535
189,75,181135,6,0,P|255:46|320:78,1,150.000005722046,2|0,0:0|0:0,0:0:0:0:
387,161,181481,1,0,0:0:0:0:
387,161,181596,2,0,P|320:189|255:157,1,150.000005722046,8|0,0:0|0:0,0:0:0:0:
424,60,182058,1,2,0:0:0:0:
483,104,182173,1,0,0:0:0:0:
484,176,182288,2,0,L|475:250,1,75.0000028610231
395,339,182519,2,0,L|386:264,1,75.0000028610231,8|0,0:0|0:0,0:0:0:0:
306,176,182750,2,0,L|297:251,1,75.0000028610231
217,339,182981,5,2,0:0:0:0:
381,227,183212,1,0,0:0:0:0:
203,151,183442,2,0,P|166:142|130:150,1,75.0000028610231,8|0,0:0|0:0,0:0:0:0:
93,238,183673,2,0,P|129:246|165:238,1,75.0000028610231
306,176,183904,5,2,0:0:0:0:
303,157,183961,1,0,0:0:0:0:
301,138,184019,1,2,0:0:0:0:
299,120,184077,1,0,0:0:0:0:
297,101,184135,2,0,L|289:26,1,75.0000028610231,8|2,0:0|0:0,0:0:0:0:
408,74,184365,5,8,0:0:0:0:
405,92,184423,1,0,0:0:0:0:
403,111,184481,1,2,0:0:0:0:
401,129,184538,1,0,0:0:0:0:
399,149,184596,2,0,L|391:223,1,75.0000028610231,8|2,0:0|0:0,0:0:0:0:
296,345,184827,5,2,0:0:0:0:
203,151,185058,1,0,0:0:0:0:
128,322,185288,1,8,0:0:0:0:
203,151,185519,2,0,P|212:77|184:8,1,150.000005722046,0|2,0:0|0:0,0:0:0:0:
109,173,185981,2,0,P|99:246|127:315,1,150.000005722046,0|8,0:0|0:0,0:0:0:0:
253,228,186442,1,0,0:0:0:0:
122,85,186673,6,0,P|52:108|19:173,1,150.000005722046,2|0,0:0|0:0,0:0:0:0:
127,315,187135,1,8,0:0:0:0:
275,140,187365,2,0,P|238:139|203:150,1,75.0000028610231
253,228,187596,2,0,P|290:228|325:217,1,75.0000028610231,2|0,0:0|0:0,0:0:0:0:
408,146,187827,1,0,0:0:0:0:
436,249,187942,1,0,0:0:0:0:
355,319,188058,2,0,L|260:332,1,75.0000028610231,8|0,0:0|0:0,0:0:0:0:
436,249,188288,2,0,L|530:262,1,75.0000028610231
275,140,188519,5,10,0:0:0:0:
207,53,188635,1,0,0:0:0:0:
98,45,188750,1,0,0:0:0:0:
19,120,188865,1,0,0:0:0:0:
21,230,188981,2,0,P|30:266|58:290,1,75.0000028610231,8|0,0:0|0:0,0:0:0:0:
208,227,189212,5,0,0:0:0:0:
275,140,189328,1,0,0:0:0:0:
384,132,189443,1,10,0:0:0:0:
463,207,189558,1,8,0:0:0:0:
461,317,189674,2,0,P|452:352|424:377,1,75.0000028610231
183,384,189904,5,8,0:0:0:0:
337,231,190135,1,0,0:0:0:0:
337,231,190250,1,0,0:0:0:0:
337,231,190365,6,0,P|359:287|342:346,1,125,2|0,0:0|0:0,0:0:0:0:
261,299,190712,1,0,0:0:0:0:
261,299,190827,2,0,P|205:321|146:304,1,125,8|0,0:0|0:0,0:0:0:0:
246,163,191288,5,8,3:2:0:0:
293,245,191404,1,0,3:0:0:0:
200,245,191519,1,0,3:0:0:0:
339,163,191635,5,0,3:0:0:0:
247,327,191750,1,8,3:2:0:0:
151,164,191865,1,0,3:0:0:0:
435,326,191981,5,0,3:0:0:0:
59,328,192096,1,0,3:0:0:0:
243,0,192212,6,0,P|273:22|284:57,1,75,2|0,0:0|0:0,0:0:0:0:
286,91,192673,2,0,L|335:85,1,50,2|2,0:0|0:0,0:0:0:0:
205,78,193135,1,0,0:0:0:0:
205,78,193250,1,0,0:0:0:0:
205,78,193365,2,0,L|180:75,1,25,2|0,0:0|0:0,0:0:0:0:
115,116,193596,2,0,L|65:121,1,50,2|0,0:0|0:0,0:0:0:0:
187,156,194058,5,0,0:0:0:0:
100,242,194288,1,0,0:0:0:0:
65,121,194519,1,0,0:0:0:0:
180,238,194750,1,2,0:0:0:0:
180,238,194865,1,2,0:0:0:0:
180,238,194981,2,0,L|172:282,1,25,2|0,0:0|0:0,0:0:0:0:
267,232,195212,2,0,L|262:207,1,25,2|0,0:0|0:0,0:0:0:0:
242,309,195442,2,0,L|239:321,4,12.5,2|0|0|0|2,0:0|0:0|0:0|0:0|0:0,0:0:0:0:
283,124,195904,5,2,0:0:0:0:
353,296,196250,2,0,L|348:284,1,12.5,2|0,0:0|0:0,0:0:0:0:
277,108,196596,1,2,0:0:0:0:
159,296,197519,1,2,0:0:0:0:
154,307,197634,1,2,0:0:0:0:
150,319,197749,5,2,0:0:0:0:
229,124,198096,1,2,0:0:0:0:
256,354,198442,1,2,0:0:0:0:
