osu file format v14

[General]
AudioFilename: audio.mp3
AudioLeadIn: 2000
PreviewTime: 59436
Countdown: 0
SampleSet: Soft
StackLeniency: 0.7
Mode: 0
LetterboxInBreaks: 0
WidescreenStoryboard: 0

[Editor]
DistanceSpacing: 1.3
BeatDivisor: 2
GridSize: 4
TimelineZoom: 1.9

[Metadata]
Title:Baby Sweet Berry Love
TitleUnicode:Baby Sweet Berry Love
Artist:Ogura Yui
ArtistUnicode:小倉唯
Creator:sahuang
Version:Normal
Source:変態王子と笑わない猫。
Tags:Ending TV Size Short Version Ver. Hentai Ouji to Warawanai Neko. The "HENTAI" prince and the stony cat. Rumia- karen garden
BeatmapID:951141
BeatmapSetID:442263

[Difficulty]
HPDrainRate:4
CircleSize:3
OverallDifficulty:4
ApproachRate:5
SliderMultiplier:1
SliderTickRate:1

[Events]
//Background and Video events
Video,0,"optc.flv"
0,0,"bgsahuang.jpg",0,0
//Break Periods
//Storyboard Layer 0 (Background)
//Storyboard Layer 1 (Fail)
//Storyboard Layer 2 (Pass)
//Storyboard Layer 3 (Foreground)
//Storyboard Sound Samples

[TimingPoints]
760,352.941176470588,4,2,1,50,1,0
6407,-100,4,2,1,60,0,0
6759,-100,4,2,1,40,0,0
7112,-100,4,2,1,60,0,0
7465,-100,4,2,1,40,0,0
12054,-100,4,2,1,50,0,0
17701,-100,4,2,1,60,0,0
21936,-125,4,2,1,40,0,0
23348,-125,4,2,1,30,0,0
29701,-125,4,2,1,45,0,0
30407,-125,4,2,1,30,0,0
31112,-125,4,2,1,40,0,0
31818,-125,4,2,1,50,0,0
34642,-100,4,2,1,60,0,0
40289,-100,4,2,1,65,0,0
45936,-100,4,2,1,55,0,0
58465,-100,4,2,1,40,0,0
60054,-100,4,2,1,60,0,1
70642,-100,4,2,1,50,0,0
71348,-100,4,2,1,60,0,1
82642,-100,4,2,1,40,0,0
87583,-100,4,2,1,45,0,0
87759,-100,4,2,1,55,0,0
87936,-100,4,2,1,65,0,0

[Colours]
Combo1 : 242,204,102
Combo2 : 250,101,173
Combo3 : 249,51,56
Combo4 : 45,228,54

[HitObjects]
41,343,760,6,0,P|99:359|159:361,1,100,2|0,0:0|0:0,0:0:0:0:
187,241,1465,2,0,P|246:244|288:257,1,100,2|0,0:0|0:0,0:0:0:0:
340,291,1995,2,0,P|342:227|361:196,1,100,2|0,0:0|0:0,0:0:0:0:
410,155,2524,1,2,0:0:0:0:
410,155,2701,2,0,L|311:130,1,100,2|0,0:0|0:0,0:0:0:0:
182,126,3407,1,2,0:0:0:0:
182,126,3583,6,0,L|145:89,1,50,2|0,0:0|0:0,0:0:0:0:
115,33,3936,2,0,P|66:23|17:31,2,100,0|2|0,0:0|0:0|0:0,0:0:0:0:
241,65,4995,2,0,P|290:75|339:67,1,100,2|0,0:0|0:0,0:0:0:0:
407,178,5701,1,2,0:0:0:0:
330,283,6054,1,0,0:0:0:0:
204,307,6407,6,0,P|183:262|149:225,1,100,4|0,0:0|0:0,0:0:0:0:
169,96,7112,2,0,P|192:140|227:175,1,100,4|0,0:0|0:0,0:0:0:0:
348,137,7818,1,4,0:0:0:0:
461,201,8171,1,0,0:0:0:0:
437,328,8524,2,0,B|386:344|339:327,1,100,4|0,0:0|0:0,0:0:0:0:
212,296,9230,5,0,1:0:0:0:
122,201,9583,2,0,L|109:150,1,50,0|0,1:0|0:0,0:0:0:0:
126,89,9936,2,0,P|157:49|203:30,1,100,0|0,1:0|1:0,0:0:0:0:
331,24,10642,1,0,1:0:0:0:
449,76,10995,2,0,L|476:126,1,50,0|0,1:0|0:0,0:0:0:0:
471,184,11348,2,0,P|455:232|425:272,1,100,0|0,1:0|1:0,0:0:0:0:
315,202,12054,5,4,0:0:0:0:
289,329,12407,1,8,0:0:0:0:
184,252,12759,2,0,B|129:259|86:237,1,100,0|8,0:0|0:0,0:0:0:0:
9,132,13465,1,0,0:0:0:0:
82,25,13818,1,8,0:0:0:0:
171,122,14171,2,0,B|226:115|268:138,1,100,0|8,0:0|0:0,0:0:0:0:
377,212,14877,6,0,L|393:261,2,50,0|0|8,0:0|0:0|0:0,0:0:0:0:
294,312,15583,2,0,L|275:253,2,50,0|0|8,0:0|0:0|0:0,0:0:0:0:
163,321,16289,2,0,B|140:311|111:318|111:318|94:297|66:294,1,100,0|8,0:0|0:0,0:0:0:0:
84,165,16995,2,0,B|107:175|136:168|136:168|153:189|175:191,1,100,0|8,0:0|0:0,0:0:0:0:
281,259,17701,6,0,P|336:275|382:275,1,100,4|8,0:0|0:0,0:0:0:0:
427,318,18230,2,0,L|452:211,1,100,4|0,0:0|0:0,0:0:0:0:
447,155,18760,1,8,0:0:0:0:
359,58,19112,2,0,L|300:63,1,50,4|0,0:0|0:0,0:0:0:0:
246,79,19465,1,8,0:0:0:0:
195,120,19642,2,0,P|161:151|140:206,1,100,4|0,0:0|0:0,0:0:0:0:
138,266,20171,1,8,0:0:0:0:
138,266,20348,6,0,L|252:285,1,100,4|0,0:0|0:0,0:0:0:0:
301,281,20877,2,0,P|347:262|381:226,2,100,8|4|8,0:0|0:0|0:0,0:0:0:0:
293,176,21936,1,4,0:0:0:0:
256,192,22112,12,4,23348,0:0:0:0:
69,132,24054,6,0,L|152:114,1,80,0|8,0:0|0:1,0:0:0:0:
236,64,24759,2,0,P|239:34|229:6,2,60
236,116,25465,1,0,0:0:0:0:
339,102,25818,1,8,0:1:0:0:
422,164,26171,6,0,B|429:204|429:204|412:240,1,80,0|2,0:0|0:0,0:0:0:0:
326,298,26877,2,0,L|242:282,1,80,0|8,0:0|0:1,0:0:0:0:
145,296,27582,2,0,P|130:322|128:352,2,60
166,248,28288,1,0,0:0:0:0:
65,220,28641,1,8,0:1:0:0:
82,117,28995,6,0,P|121:114|160:103,1,80,0|2,0:0|0:0,0:0:0:0:
211,94,29524,2,0,P|251:109|299:111,1,80
339,119,30054,1,8,0:1:0:0:
403,200,30407,6,0,P|364:201|325:210,1,80,0|2,0:0|0:0,0:0:0:0:
295,253,30936,2,0,P|258:265|218:270,1,80
165,278,31465,1,8,0:1:0:0:
88,348,31818,5,0,0:0:0:0:
188,374,32171,1,2,0:0:0:0:
287,343,32524,2,0,P|326:337|365:344,1,80,0|8,0:0|0:1,0:0:0:0:
463,309,33230,2,0,L|462:225,1,80,0|8,0:0|0:1,0:0:0:0:
424,131,33936,2,0,P|386:120|348:129,1,80,0|8,0:0|0:1,0:0:0:0:
329,257,34642,5,4,0:0:0:0:
251,361,34995,1,8,0:0:0:0:
169,255,35348,2,0,P|120:265|71:255,1,100,0|8,0:0|0:0,0:0:0:0:
119,133,36054,2,0,P|71:123|22:132,2,100,0|8|0,0:0|0:0|0:0,0:0:0:0:
169,255,37112,1,8,0:0:0:0:
293,292,37465,5,0,0:0:0:0:
398,216,37818,1,8,0:0:0:0:
276,169,38171,2,0,P|227:177|178:170,1,100,0|8,0:0|0:0,0:0:0:0:
123,51,38877,2,0,P|74:44|25:52,2,100,0|8|0,0:0|0:0|0:0,0:0:0:0:
177,169,39936,1,8,0:0:0:0:
249,60,40289,6,0,P|303:51|353:61,1,100,0|8,0:0|0:0,0:0:0:0:
410,74,40818,1,2,0:0:0:0:
465,107,40995,2,0,L|501:43,2,50,0|2|8,0:0|0:0|0:0,0:0:0:0:
477,236,41701,2,0,P|427:247|378:237,1,100,0|8,0:0|0:0,0:0:0:0:
318,214,42230,1,2,0:0:0:0:
260,245,42407,2,0,L|246:315,2,50,0|2|8,0:0|0:0|0:0,0:0:0:0:
166,154,43112,5,4,0:0:0:0:
37,175,43465,1,8,0:0:0:0:
26,304,43818,1,0,0:0:0:0:
145,356,44171,1,8,0:0:0:0:
237,264,44524,2,0,B|283:247|283:247|308:202,1,100,4|8,0:0|0:0,0:0:0:0:
251,84,45230,2,0,B|205:101|205:101|180:146,1,100,0|8,0:0|0:0,0:0:0:0:
117,259,45936,5,4,0:0:0:0:
53,74,46465,1,2,0:0:0:0:
245,108,46995,1,4,0:0:0:0:
117,259,47524,2,0,L|56:248,2,50
168,299,48054,2,0,L|225:290,1,50
410,314,48759,5,4,0:0:0:0:
275,172,49289,1,2,0:0:0:0:
465,133,49818,1,4,0:0:0:0:
410,314,50348,2,0,L|469:321,2,50
350,340,50877,2,0,L|294:346,1,50
105,339,51583,6,0,P|85:326|71:305,1,50,4|0,0:0|0:0,0:0:0:0:
45,243,51936,1,8,0:0:0:0:
45,243,52112,2,0,B|47:188|47:188|70:146,1,100,2|2,0:0|0:0,0:0:0:0:
103,93,52642,1,8,0:0:0:0:
231,110,52995,2,0,P|251:123|265:144,1,50,4|0,0:0|0:0,0:0:0:0:
292,203,53348,1,8,0:0:0:0:
292,203,53524,2,0,B|343:201|343:201|400:172,1,100,2|2,0:0|0:0,0:0:0:0:
437,137,54054,1,8,0:0:0:0:
379,20,54407,5,4,0:0:0:0:
252,49,54759,1,8,0:0:0:0:
225,176,55112,2,0,P|181:202|131:202,1,100,8|8,0:0|0:0,0:0:0:0:
148,73,55818,1,0,1:0:0:0:
25,28,56171,1,0,1:0:0:0:
10,157,56524,2,0,L|1:270,1,100,0|0,1:0|1:0,0:0:0:0:
92,349,57230,6,0,P|139:364|188:358,1,100,0|8,1:0|0:0,0:0:0:0:
250,243,57936,2,0,P|202:227|153:233,1,100,0|8,1:0|0:0,0:0:0:0:
93,257,58465,1,4,0:0:0:0:
119,129,58818,2,0,L|63:116,2,50,8|8|4,0:3|0:3|0:3,0:0:0:0:
240,176,59524,2,0,P|230:152|229:127,1,50,0|0,1:0|1:0,0:0:0:0:
246,65,59877,1,0,0:0:0:0:
246,65,60054,6,0,L|349:55,1,100,4|8,0:0|0:0,0:0:0:0:
470,91,60759,2,0,P|458:139|458:190,1,100,0|8,0:0|0:0,0:0:0:0:
484,249,61289,2,0,P|495:300|473:353,1,100,2|2,0:0|0:0,0:0:0:0:
415,354,61818,1,8,0:0:0:0:
415,354,61995,2,0,P|360:346|266:364,1,150,0|8,0:0|0:0,0:0:0:0:
138,369,62877,5,0,1:0:0:0:
111,241,63230,2,0,L|69:268,1,50,8|0,1:2|0:0,0:0:0:0:
15,304,63583,1,0,0:0:0:0:
16,173,63936,2,0,L|76:133,1,50,8|0,1:2|0:0,0:0:0:0:
116,117,64289,2,0,P|162:97|212:96,1,100,0|8,0:0|0:0,0:0:0:0:
258,217,64995,2,0,P|308:215|354:196,1,100,0|8,0:0|0:0,0:0:0:0:
405,76,65701,5,4,0:0:0:0:
278,45,66054,1,8,0:0:0:0:
163,106,66407,2,0,P|136:148|136:204,1,100,0|8,0:0|0:0,0:0:0:0:
108,256,66936,2,0,L|207:266,1,100,2|2,0:0|0:0,0:0:0:0:
269,285,67465,1,8,0:0:0:0:
269,285,67642,2,0,B|266:228|287:187,1,100
345,160,68171,1,8,0:0:0:0:
322,31,68524,6,0,B|351:23|351:23|418:42,2,100,0|8|0,1:0|0:0|1:0,0:0:0:0:
345,160,69583,1,8,0:0:0:0:
243,241,69936,2,0,B|214:249|214:249|147:230,1,100,0|8,1:0|1:2,0:0:0:0:
30,171,70642,1,0,1:0:0:0:
32,300,70995,1,8,1:2:0:0:
147,360,71348,6,0,P|196:372|245:366,1,100,4|8,0:0|0:0,0:0:0:0:
253,235,72054,2,0,P|303:229|351:241,1,100,0|8,0:0|0:0,0:0:0:0:
399,284,72583,2,0,L|414:178,1,100,2|2,0:0|0:0,0:0:0:0:
459,138,73112,1,8,0:0:0:0:
459,138,73289,2,0,B|342:120|342:120|306:133,1,150,0|8,0:0|0:0,0:0:0:0:
261,250,74171,5,0,1:0:0:0:
140,200,74524,2,0,L|121:247,1,50,8|0,1:2|0:0,0:0:0:0:
94,305,74877,1,0,0:0:0:0:
7,208,75230,2,0,L|26:161,1,50,8|0,1:2|0:0,0:0:0:0:
59,106,75583,2,0,P|66:57|55:9,1,100,0|8,0:0|0:0,0:0:0:0:
169,70,76289,2,0,P|162:119|173:167,1,100,0|8,0:0|0:0,0:0:0:0:
302,182,76995,5,4,0:0:0:0:
324,53,77348,1,8,0:0:0:0:
441,103,77701,2,0,P|460:150|460:199,1,100,0|8,0:0|0:0,0:0:0:0:
487,257,78230,2,0,L|383:247,1,100,2|2,0:0|0:0,0:0:0:0:
322,241,78759,1,8,1:0:0:0:
322,241,78936,2,0,B|273:248|222:233,1,100
166,200,79465,1,8,0:0:0:0:
169,70,79818,6,0,B|143:62|126:40|126:40|99:42|79:35,2,100,0|8|0,1:0|1:2|1:0,0:0:0:0:
290,116,80877,1,8,1:2:0:0:
322,241,81230,2,0,B|347:248|364:270|364:270|391:268|411:275,2,100,0|8|0,1:0|1:2|1:0,0:0:0:0:
198,197,82289,1,8,1:2:0:0:
165,322,82642,6,0,P|120:301|83:259,1,100,2|0,0:0|0:0,0:0:0:0:
46,140,83348,1,2,0:0:0:0:
149,60,83701,1,0,0:0:0:0:
149,60,83877,2,0,P|194:81|231:123,1,100,4|0,0:0|1:0,0:0:0:0:
211,181,84407,1,0,1:0:0:0:
211,181,84583,2,0,B|283:158|363:181,1,150,4|0,1:2|0:0,0:0:0:0:
440,281,85465,6,0,L|384:300,1,50,0|0,1:0|0:0,0:0:0:0:
328,289,85818,2,0,B|273:286|282:308|228:306,1,100,8|0,1:2|1:0,0:0:0:0:
106,268,86524,2,0,L|100:212,1,50,8|0,1:2|0:0,0:0:0:0:
101,155,86877,2,0,P|112:107|151:77,1,100,4|8,0:0|1:2,0:0:0:0:
282,84,87583,2,0,L|354:99,2,50,0|0|2,0:0|0:0|0:0,0:0:0:0:
