osu file format v14

[General]
AudioFilename: audio.mp3
AudioLeadIn: 2000
PreviewTime: 59436
Countdown: 0
SampleSet: Soft
StackLeniency: 0.7
Mode: 0
LetterboxInBreaks: 0
WidescreenStoryboard: 0

[Editor]
DistanceSpacing: 1
BeatDivisor: 2
GridSize: 4
TimelineZoom: 1.3

[Metadata]
Title:Baby Sweet Berry Love
TitleUnicode:Baby Sweet Berry Love
Artist:Ogura Yui
ArtistUnicode:小倉唯
Creator:sahuang
Version:Easy
Source:変態王子と笑わない猫。
Tags:Ending TV Size Short Version Ver. Hentai Ouji to Warawanai Neko. The "HENTAI" prince and the stony cat. Rumia- karen garden
BeatmapID:951139
BeatmapSetID:442263

[Difficulty]
HPDrainRate:2
CircleSize:3
OverallDifficulty:2
ApproachRate:3
SliderMultiplier:0.8
SliderTickRate:1

[Events]
//Background and Video events
Video,0,"optc.flv"
0,0,"bgsahuang.jpg",0,0
//Break Periods
//Storyboard Layer 0 (Background)
//Storyboard Layer 1 (Fail)
//Storyboard Layer 2 (Pass)
//Storyboard Layer 3 (Foreground)
//Storyboard Sound Samples

[TimingPoints]
760,352.941176470588,4,2,1,50,1,0
6407,-100,4,2,1,60,0,0
6759,-100,4,2,1,40,0,0
7112,-100,4,2,1,60,0,0
7465,-100,4,2,1,40,0,0
12054,-100,4,2,1,50,0,0
17701,-100,4,2,1,60,0,0
21936,-100,4,2,1,40,0,0
23348,-100,4,2,1,30,0,0
29701,-100,4,2,1,45,0,0
30407,-100,4,2,1,30,0,0
31112,-100,4,2,1,40,0,0
31818,-100,4,2,1,50,0,0
34642,-100,4,2,1,60,0,0
40289,-100,4,2,1,65,0,0
45936,-100,4,2,1,55,0,0
58465,-100,4,2,1,40,0,0
60054,-100,4,2,1,60,0,1
70642,-100,4,2,1,50,0,0
71348,-100,4,2,1,60,0,1
82642,-100,4,2,1,40,0,0
84583,-100,4,2,1,40,0,0
87759,-100,4,2,1,45,0,0
87848,-100,4,2,1,55,0,0
87936,-100,4,2,1,65,0,0

[Colours]
Combo1 : 242,204,102
Combo2 : 250,101,173
Combo3 : 249,51,56
Combo4 : 45,228,54

[HitObjects]
279,215,760,6,0,L|196:203,1,80,4|0,0:0|0:0,0:0:0:0:
120,190,1465,2,0,P|48:224|8:291,2,160,2|0|0,0:0|0:0|0:0,0:0:0:0:
162,347,3583,6,0,P|205:349|246:340,1,80,2|2,0:0|0:0,0:0:0:0:
288,277,4289,2,0,P|327:269|366:272,1,80,2|0,0:0|0:0,0:0:0:0:
442,299,4995,2,0,L|433:398,2,80,2|2|2,0:0|0:0|0:0,0:0:0:0:
466,222,6054,1,2,0:0:0:0:
458,142,6407,6,0,P|408:63|334:37,1,160,4|4,0:0|0:0,0:0:0:0:
189,40,7818,2,0,P|152:55|129:87,2,80,4|0|4,0:0|0:0|0:0,0:0:0:0:
129,193,9230,6,0,P|151:225|187:241,1,80,0|0,1:0|1:0,0:0:0:0:
157,315,9936,2,0,P|195:322|232:307,1,80,0|0,1:0|1:0,0:0:0:0:
291,252,10642,1,0,1:0:0:0:
367,228,10995,2,0,L|447:206,2,80,0|0|0,1:0|1:0|1:0,0:0:0:0:
291,252,12054,6,0,P|212:256|137:231,1,160,4|0,0:0|0:0,0:0:0:0:
158,72,13465,2,0,P|237:67|312:92,1,160,0|0,0:0|0:0,0:0:0:0:
389,233,14878,5,0,0:0:0:0:
282,352,15583,1,0,0:0:0:0:
120,356,16289,2,0,B|121:295|159:252|159:252|147:228|147:202,1,160,0|0,0:0|0:0,0:0:0:0:
166,48,17701,6,0,P|112:46|54:79,2,120,4|4|8,0:0|0:0|0:0,0:0:0:0:
236,85,19112,2,0,P|295:87|346:57,1,120,4|4,0:0|0:0,0:0:0:0:
417,201,20348,6,0,B|417:266|364:305,1,120,4|8,0:0|0:0,0:0:0:0:
288,325,21230,1,4,0:0:0:0:
207,325,21583,1,4,0:0:0:0:
136,287,21936,2,0,P|103:222|118:137,1,160,8|0,0:0|0:0,0:0:0:0:
178,86,22995,1,0,0:0:0:0:
255,104,23348,6,0,P|340:78|421:94,1,160,4|0,0:0|0:0,0:0:0:0:
488,111,24407,1,8,0:1:0:0:
483,190,24759,2,0,B|446:251|485:305|485:305|476:347,1,160,0|0,0:0|0:0,0:0:0:0:
396,331,25818,1,8,0:1:0:0:
319,354,26171,6,0,P|232:363|153:349,1,160,0|0,0:0|0:0,0:0:0:0:
85,324,27230,1,8,0:1:0:0:
48,252,27583,2,0,B|56:196|12:143|12:143|27:87,1,160,0|0,0:0|0:0,0:0:0:0:
102,96,28642,1,8,0:1:0:0:
173,60,28995,6,0,P|229:43|287:58,2,120,0|0|8,0:0|0:0|0:1,0:0:0:0:
168,140,30407,2,0,P|153:197|170:254,2,120,0|0|8,0:0|0:0|0:1,0:0:0:0:
248,139,31818,22,0,B|287:129|287:129|341:144,1,80,0|2,0:0|0:0,0:0:0:0:
338,218,32524,2,0,B|376:228|376:228|415:218,1,80,0|8,0:0|0:1,0:0:0:0:
491,191,33230,1,0,0:0:0:0:
491,110,33583,2,0,L|490:22,2,80,8|0|8,0:1|0:0|0:1,0:0:0:0:
418,143,34642,6,0,P|377:147|339:136,1,80,4|8,0:0|0:0,0:0:0:0:
303,64,35348,2,0,P|264:53|225:57,1,80,0|8,0:0|0:0,0:0:0:0:
151,90,36054,2,0,B|116:123|116:123|99:240,1,160,0|0,0:0|0:0,0:0:0:0:
110,313,37112,1,8,0:0:0:0:
182,346,37465,6,0,P|223:350|261:339,1,80,0|8,0:0|0:0,0:0:0:0:
297,267,38171,2,0,P|335:256|374:260,1,80,0|8,0:0|0:0,0:0:0:0:
453,277,38877,2,0,B|488:244|488:244|477:121,1,160,0|0,0:0|0:0,0:0:0:0:
452,56,39935,1,8,0:0:0:0:
373,38,40289,6,0,B|316:64|257:39,2,120,0|2|8,0:0|0:0|0:0,0:0:0:0:
398,114,41701,2,0,B|424:171|399:229,2,120,0|2|8,0:0|0:0|0:0,0:0:0:0:
373,38,43112,6,0,L|294:27,1,80,4|8,0:0|0:0,0:0:0:0:
276,105,43818,2,0,L|197:115,1,80,0|0,0:0|0:0,0:0:0:0:
134,165,44524,2,0,P|93:229|110:306,1,160,4|0,0:0|0:0,0:0:0:0:
184,337,45583,1,0,0:0:0:0:
261,316,45936,6,0,B|322:297|380:317,2,120,4|2|2,0:0|0:0|0:0,0:0:0:0:
265,195,47524,2,0,B|185:220|109:187,1,160,2|2,0:0|0:0,0:0:0:0:
13,260,48759,6,0,B|-15:313|1:376,2,120,4|2|2,0:0|0:0|0:0,0:0:0:0:
127,213,50348,2,0,B|163:135|134:57,1,160,2|2,0:0|0:0,0:0:0:0:
254,58,51583,6,0,P|314:64|364:100,2,120,4|2|8,0:0|0:0|0:0,0:0:0:0:
188,105,52995,2,0,P|129:100|80:66,2,120,4|2|8,0:0|0:0|0:0,0:0:0:0:
256,192,54407,12,0,55818,1:0:0:0:
62,165,57230,5,0,1:0:0:0:
10,316,57936,2,0,B|65:337|127:311,1,120,0|4,1:0|0:0,0:0:0:0:
447,119,60054,6,0,P|370:136|292:122,1,160,4|0,0:0|0:0,0:0:0:0:
216,96,61112,1,8,0:0:0:0:
139,117,61465,2,0,P|100:123|67:145,1,80,0|8,0:0|0:0,0:0:0:0:
59,225,62171,2,0,P|94:247|137:253,1,80,0|8,0:0|0:0,0:0:0:0:
206,284,62878,6,0,P|288:260|371:263,1,160,0|0,1:0|0:0,0:0:0:0:
442,265,63936,1,8,1:2:0:0:
475,191,64289,2,0,B|475:149|447:121|447:121|391:115|372:68,1,160,0|0,0:0|0:0,0:0:0:0:
302,59,65348,1,8,0:0:0:0:
223,64,65701,6,0,P|184:70|150:90,1,80,4|8,0:0|0:0,0:0:0:0:
151,171,66407,2,0,P|185:192|224:198,1,80,0|8,0:0|0:0,0:0:0:0:
295,160,67112,2,0,P|375:160|442:201,1,160,0|0,0:0|0:0,0:0:0:0:
441,280,68171,1,8,0:0:0:0:
383,335,68524,6,0,P|347:351|307:348,1,80,0|8,1:0|0:0,0:0:0:0:
268,278,69230,2,0,P|237:255|197:256,1,80,0|8,0:0|0:0,0:0:0:0:
117,264,69936,1,0,1:0:0:0:
101,183,70289,1,8,1:2:0:0:
132,109,70642,2,0,P|173:101|211:107,1,80,0|8,1:0|1:2,0:0:0:0:
290,121,71348,6,0,P|315:197|293:276,1,160,4|0,0:0|0:0,0:0:0:0:
227,314,72407,1,8,0:0:0:0:
150,296,72759,2,0,P|115:277|92:246,1,80,0|8,0:0|0:0,0:0:0:0:
147,187,73465,2,0,P|184:206|207:239,1,80,0|8,0:0|0:0,0:0:0:0:
227,314,74171,6,0,P|299:347|378:341,1,160,0|0,1:0|0:0,0:0:0:0:
418,271,75230,1,8,1:2:0:0:
425,191,75583,2,0,P|354:157|275:163,1,160,0|0,0:0|0:0,0:0:0:0:
204,201,76642,1,8,0:0:0:0:
126,182,76995,6,0,B|91:200|91:200|65:230,1,80,4|8,0:0|0:0,0:0:0:0:
56,310,77701,2,0,B|82:340|82:340|117:358,1,80,0|8,0:0|0:0,0:0:0:0:
198,360,78407,2,0,P|272:332|360:343,1,160,0|0,0:0|0:0,0:0:0:0:
428,360,79465,1,8,0:0:0:0:
481,299,79818,6,0,P|486:256|468:219,1,80,0|8,1:0|1:2,0:0:0:0:
404,179,80524,2,0,L|319:180,1,80,0|8,0:0|1:2,0:0:0:0:
243,184,81230,2,0,P|167:202|123:267,1,160,0|0,1:0|1:0,0:0:0:0:
132,346,82289,1,8,1:2:0:0:
211,354,82642,6,0,L|306:342,2,80,2|0|2,0:0|0:0|0:0,0:0:0:0:
123,266,83877,2,0,L|42:255,2,80,4|0|4,0:0|1:0|1:2,0:0:0:0:
185,163,85112,1,0,1:0:0:0:
256,199,85466,6,0,B|337:220|416:193,1,160,0|0,1:0|1:0,0:0:0:0:
490,172,86524,1,8,1:2:0:0:
501,92,86877,2,0,L|506:-2,1,80,4|8,0:0|1:2,0:0:0:0:
425,18,87583,2,0,L|421:97,1,80,0|2,1:0|0:0,0:0:0:0:
