osu file format v14

[General]
AudioFilename: audio.mp3
AudioLeadIn: 0
PreviewTime: 59438
Countdown: 0
SampleSet: Soft
StackLeniency: 0.7
Mode: 0
LetterboxInBreaks: 0
WidescreenStoryboard: 1

[Editor]
DistanceSpacing: 1
BeatDivisor: 4
GridSize: 4
TimelineZoom: 2.1

[Metadata]
Title:Baby Sweet Berry Love
TitleUnicode:Baby Sweet Berry Love
Artist:Ogura Yui
ArtistUnicode:小倉唯
Creator:cococolaco
Version:Insane
Source:変態王子と笑わない猫。
Tags:hentai ouji to waranai neko anime ending tsukiko tsutsukakushi henneko prince and stony cat yahuri doj
BeatmapID:1549270
BeatmapSetID:683677

[Difficulty]
HPDrainRate:6
CircleSize:4
OverallDifficulty:8
ApproachRate:9
SliderMultiplier:1.76
SliderTickRate:1

[Events]
//Background and Video events
0,0,"SBvp1vc.jpg",0,0
//Break Periods
//Storyboard Layer 0 (Background)
//Storyboard Layer 1 (Fail)
//Storyboard Layer 2 (Pass)
//Storyboard Layer 3 (Foreground)
//Storyboard Sound Samples

[TimingPoints]
232,352.941176470588,4,2,0,25,1,0
232,-133.333333333333,4,2,0,25,0,0
762,352.941176470588,4,2,0,25,1,0
2879,-133.333333333333,4,2,0,25,0,0
3938,-100,4,2,0,25,0,0
5703,-133.333333333333,4,2,0,25,0,0
6409,-100,4,2,0,55,0,0
17703,-83.3333333333333,4,2,0,55,0,0
18232,-100,4,2,0,55,0,0
20350,-83.3333333333333,4,2,0,55,0,0
21585,-100,4,2,0,55,0,0
23350,-133.333333333333,4,2,0,35,0,0
31820,-100,4,2,0,35,0,0
32879,-133.333333333333,4,2,0,35,0,0
34644,-100,4,2,0,45,0,0
40291,-90.9090909090909,4,2,0,45,0,0
40644,-100,4,2,0,45,0,0
41703,-90.9090909090909,4,2,0,45,0,0
42056,-100,4,2,0,45,0,0
43114,-100,4,2,0,55,0,0
45938,-117.647058823529,4,2,0,55,0,0
54409,-117.647058823529,4,2,0,65,0,0
57232,-117.647058823529,4,2,0,45,0,0
60056,-90.9090909090909,4,2,0,55,0,1
60761,-90.9090909090909,4,2,0,55,0,0
65703,-90.9090909090909,4,2,0,65,0,1
66409,-90.9090909090909,4,2,0,65,0,0
71350,-90.9090909090909,4,2,0,65,0,1
72056,-90.9090909090909,4,2,0,65,0,0
76997,-90.9090909090909,4,2,0,65,0,1
77703,-90.9090909090909,4,2,0,65,0,0
82644,-133.333333333333,4,2,0,35,0,0
83879,-90.9090909090909,4,2,0,55,0,0
85467,-90.9090909090909,4,2,0,65,0,1
87938,-90.9090909090909,4,2,0,65,0,0

[Colours]
Combo1 : 82,158,235
Combo2 : 254,114,254
Combo3 : 237,228,71

[HitObjects]
109,87,232,6,0,P|142:86|175:93,2,66.0000025177003,2|0|0,0:0|0:0|0:0,0:0:0:0:
192,180,762,6,0,B|249:164|249:164|272:39,1,176,4|2,3:0|0:0,0:0:0:0:
484,213,1467,2,0,P|429:151|335:150,1,176,2|2,0:0|0:0,0:0:0:0:
395,358,1997,6,2,B|414:292|383:240|383:240|364:250|324:247,1,176,2|2,0:1|0:1,0:1:0:0:
241,222,2526,1,2,0:0:0:0:
330,50,2703,1,2,0:0:0:0:
330,50,2879,2,0,P|340:92|340:153,2,99.0000037765504,4|4|4,3:0|3:0|3:0,0:0:0:0:
434,157,3585,5,4,3:0:0:0:
243,21,3761,1,8,3:0:0:0:
165,128,3938,2,0,P|213:116|254:111,1,88,2|0,0:0|0:0,0:0:0:0:
371,269,4291,2,0,P|305:276|229:198,1,176,2|2,0:0|0:0,0:0:0:0:
80,293,4820,1,2,0:0:0:0:
80,293,4997,6,0,P|128:289|178:275,2,88,4|0|0,3:0|0:0|0:0,0:0:0:0:
0,249,5526,1,2,0:0:0:0:
66,103,5703,2,0,P|76:145|76:206,2,99.0000037765504,4|4|4,3:0|3:0|3:0,0:0:0:0:
337,175,6409,6,0,B|240:185|267:129|168:143,1,176,4|2,0:1|0:0,0:0:0:0:
381,34,7114,2,0,P|316:6|316:85,1,176,6|2,0:0|0:0,0:0:0:0:
399,133,7644,6,2,B|422:190|378:251|378:251|316:267,1,176,2|2,0:1|0:1,0:1:0:0:
315,172,8173,1,2,0:0:0:0:
245,305,8350,2,0,P|242:257|233:213,1,88,2|4,0:0|3:0,0:0:0:0:
76,94,9056,5,2,0:0:0:0:
76,94,9144,1,0,0:0:0:0:
76,94,9232,2,0,P|124:91|168:82,1,88,4|0,3:0|0:0,0:0:0:0:
255,45,9585,1,2,1:2:0:0:
255,45,9673,1,0,3:0:0:0:
255,45,9761,1,2,0:0:0:0:
110,182,9938,5,2,0:0:0:0:
110,182,10026,2,0,P|101:225|99:269,1,88,2|0,0:3|0:0,0:0:0:0:
103,300,10291,1,2,1:2:0:0:
19,169,10467,1,2,0:0:0:0:
196,234,10644,5,4,0:0:0:0:
107,339,10820,1,4,3:0:0:0:
294,274,10997,2,0,P|291:230|283:186,1,88,4|0,0:0|3:0,0:0:0:0:
271,161,11261,1,8,3:0:0:0:
271,161,11350,2,0,L|272:115,1,44,4|0,3:0|3:0,0:0:0:0:
304,28,11526,1,0,3:0:0:0:
181,143,11703,2,0,P|137:140|93:132,1,88,0|0,1:0|3:0,0:0:0:0:
202,54,12056,5,2,0:0:0:0:
202,230,12232,1,0,0:0:0:0:
366,142,12409,1,2,1:2:0:0:
206,58,12585,1,0,0:0:0:0:
323,322,12761,5,2,0:0:0:0:
323,322,12850,2,0,L|313:228,1,88,2|0,0:0|0:0,0:0:0:0:
313,234,13114,2,0,P|356:242|400:244,1,88,2|0,1:2|0:0,0:0:0:0:
236,171,13467,5,2,0:0:0:0:
236,347,13643,1,0,0:0:0:0:
72,259,13820,1,2,1:2:0:0:
240,175,13997,1,0,0:0:0:0:
117,78,14172,5,2,0:0:0:0:
117,78,14261,2,0,L|127:172,1,88,2|0,0:0|0:0,0:0:0:0:
126,165,14526,2,0,P|83:157|39:155,1,88,2|0,1:2|0:0,0:0:0:0:
204,105,14879,5,2,0:0:0:0:
72,259,15056,1,0,0:0:0:0:
232,301,15232,2,0,P|226:252|214:216,1,88,2|0,1:2|0:0,0:0:0:0:
213,117,15585,5,2,0:0:0:0:
81,271,15761,1,0,0:0:0:0:
241,313,15938,2,0,P|235:264|223:228,1,88,2|0,1:2|0:0,0:0:0:0:
324,364,16291,5,2,0:0:0:0:
90,283,16467,1,0,0:0:0:0:
343,229,16644,5,2,1:2:0:0:
99,295,16820,1,0,0:0:0:0:
242,66,16997,1,2,0:0:0:0:
242,66,17085,2,0,P|250:109|252:153,1,88,2|0,0:0|0:0,0:0:0:0:
262,170,17350,2,0,P|254:213|252:257,1,88,2|0,1:2|3:0,0:0:0:0:
260,265,17614,1,0,3:0:0:0:
268,273,17703,6,0,B|371:293|350:201|467:230,1,211.199993554688,4|0,3:1|1:0,0:0:0:0:
359,82,18232,2,0,B|332:69|292:76|292:76|266:123|294:179,1,176,6|0,0:0|0:0,0:0:0:0:
205,40,18761,2,2,P|164:27|67:28,1,132,6|0,1:2|0:1,0:1:0:0:
56,110,19114,6,2,P|60:65|77:23,1,88,6|2,0:1|0:1,0:1:0:0:
122,178,19467,1,2,1:0:0:0:
0,292,19644,2,2,B|68:258|68:258|168:287,1,176,2|4,0:1|3:0,0:1:0:0:
76,352,20173,1,0,1:0:0:0:
240,346,20350,6,2,B|279:283|240:223|240:223|280:245|324:237,1,211.199993554688,2|2,0:1|0:1,0:1:0:0:
164,285,20879,1,2,1:0:0:0:
342,317,21056,1,2,0:1:0:0:
225,131,21232,1,6,0:1:0:0:
168,289,21409,1,2,0:1:0:0:
50,200,21585,2,0,P|93:190|145:185,1,88,2|0,1:0|1:0,0:0:0:0:
122,73,21938,5,4,3:0:0:0:
241,223,22114,1,8,3:0:0:0:
268,40,22291,1,0,1:0:0:0:
134,84,22467,1,0,3:0:0:0:
134,84,22556,1,0,3:0:0:0:
134,84,22644,1,4,3:0:0:0:
225,131,22820,1,0,1:0:0:0:
47,120,22997,1,4,3:0:0:0:
37,88,23085,1,0,3:0:0:0:
39,55,23173,1,8,3:0:0:0:
53,26,23261,1,0,3:0:0:0:
76,3,23350,6,0,P|148:-10|208:23,1,132.000005035401,4|0,3:0|0:0,0:0:0:0:
264,77,23879,1,4,3:0:0:0:
348,37,24056,2,0,L|262:45,1,66.0000025177003,2|0,0:0|0:0,0:0:0:0:
220,165,24409,2,0,L|306:173,1,66.0000025177003,10|0,0:0|0:0,0:0:0:0:
451,101,24761,6,0,P|396:110|356:156,2,99.0000037765504,4|4|4,3:0|3:0|3:0,0:0:0:0:
441,186,25467,2,0,B|434:271|434:271|408:269|378:280,1,132.000005035401,2|8,0:0|0:0,0:0:0:0:
322,377,25997,1,0,3:0:0:0:
322,377,26085,1,0,3:0:0:0:
322,377,26173,6,0,B|395:389|379:344|455:359,1,132.000005035401,4|0,3:0|0:0,0:0:0:0:
338,289,26703,1,4,3:0:0:0:
238,277,26879,2,0,L|303:270,1,66.0000025177003,2|0,0:0|0:0,0:0:0:0:
171,360,27232,2,0,L|236:366,1,66.0000025177003,10|0,0:0|0:0,0:0:0:0:
120,185,27585,6,0,P|140:214|146:281,2,99.0000037765504,4|4|4,3:0|3:0|3:0,0:0:0:0:
116,189,28203,1,0,0:0:0:0:
112,193,28291,2,0,B|197:186|197:186|195:160|206:130,1,132.000005035401,2|8,0:0|0:0,0:0:0:0:
441,107,28997,5,4,3:0:0:0:
441,107,29350,2,0,P|396:111|361:109,1,66.0000025177003,2|4,0:0|3:0,0:0:0:0:
300,58,29703,5,2,0:0:0:0:
371,200,29879,1,4,3:0:0:0:
512,52,30056,1,10,0:0:0:0:
375,110,30232,1,0,0:0:0:0:
468,225,30409,6,0,P|472:270|470:305,1,66.0000025177003,4|0,3:0|0:0,0:0:0:0:
317,337,30761,2,0,P|316:304|320:271,1,66.0000025177003,2|4,0:0|3:0,0:0:0:0:
371,200,31114,5,2,0:0:0:0:
227,267,31291,1,4,3:0:0:0:
396,383,31467,1,10,0:0:0:0:
320,271,31644,1,0,0:0:0:0:
80,316,31820,6,0,B|181:301|151:367|245:357,1,176,4|0,3:0|0:0,0:0:0:0:
244,357,32526,1,4,3:0:0:0:
227,267,32703,1,4,3:0:0:0:
307,174,32879,2,0,P|314:206|315:239,1,66.0000025177003,10|0,0:0|0:0,0:0:0:0:
454,141,33232,6,0,P|419:135|380:135,2,66.0000025177003,4|0|10,3:0|0:0|0:0,0:0:0:0:
512,215,33761,1,0,0:0:0:0:
407,298,33938,2,0,P|407:265|413:232,2,66.0000025177003,4|0|8,3:0|0:0|0:0,0:0:0:0:
419,384,34467,1,0,0:0:0:0:
300,306,34644,6,0,B|360:315|360:315|407:297|407:297|470:308,2,176,4|2|4,0:1|1:2|3:0,0:0:0:0:
232,242,35526,2,0,P|188:242|144:246,1,88,2|0,0:0|1:0,0:0:0:0:
68,295,35879,1,0,0:0:0:0:
13,115,36056,6,0,P|95:96|156:155,1,176,4|0,3:0|1:0,0:0:0:0:
144,246,36585,1,2,0:0:0:0:
223,87,36761,2,0,P|223:43|219:0,2,88,2|0|0,0:0|0:0|1:0,0:0:0:0:
156,155,37291,1,0,0:0:0:0:
344,240,37467,6,0,B|226:218|226:218|243:195|246:166,2,176,4|2|4,3:0|1:2|3:0,0:0:0:0:
484,348,38350,1,2,0:0:0:0:
435,261,38526,2,0,P|409:301|390:342,1,88,0|0,1:0|0:0,0:0:0:0:
140,353,38879,6,0,B|240:368|209:304|310:321,1,176,4|0,3:0|1:0,0:0:0:0:
391,337,39409,1,0,0:0:0:0:
228,159,39585,2,0,B|183:152|183:152|124:205|178:283,1,176,2|0,0:0|1:0,0:0:0:0:
57,0,40291,6,0,P|99:62|83:137,1,145.200004431152,4|0,0:0|0:0,0:0:0:0:
68,151,40644,2,0,P|72:197|80:254,1,88,0|4,1:0|3:0,0:0:0:0:
43,321,40997,1,2,0:0:0:0:
165,203,41173,1,4,3:0:0:0:
5,81,41350,1,2,1:2:0:0:
77,238,41526,1,2,0:0:0:0:
177,106,41703,6,0,P|234:64|305:74,1,145.200004431152,4|0,0:0|0:0,0:0:0:0:
338,65,42056,2,0,P|334:111|326:168,1,88,0|4,1:0|3:0,0:0:0:0:
377,237,42409,1,2,0:0:0:0:
232,156,42585,1,4,3:0:0:0:
419,23,42761,1,2,1:2:0:0:
328,152,42938,1,2,0:0:0:0:
469,209,43114,6,0,B|376:191|399:261|300:244,1,176,4|0,0:1|1:0,0:0:0:0:
220,230,43644,1,0,0:0:0:0:
226,343,43820,2,0,P|221:291|210:253,1,88,2|0,0:0|0:0,0:0:0:0:
46,300,44173,2,0,P|88:311|132:314,1,88,2|0,1:2|0:0,0:0:0:0:
317,330,44526,6,0,P|312:278|301:240,1,88,4|4,0:0|3:0,0:0:0:0:
410,128,44879,2,0,P|398:170|395:214,1,88,0|0,1:0|0:0,0:0:0:0:
433,297,45232,1,4,0:0:0:0:
309,145,45409,1,4,0:0:0:0:
493,197,45585,1,4,0:0:0:0:
254,72,45938,6,0,B|202:21|202:21|220:172,1,224.40000428009,6|4,0:0|0:0,0:0:0:0:
56,262,46997,2,0,P|111:242|190:248,1,112.200002140045,4|0,0:0|0:0,0:0:0:0:
195,260,47350,5,4,3:0:0:0:
88,159,47526,1,4,3:0:0:0:
55,75,47703,2,0,P|59:124|66:163,1,74.8000014266968,2|0,0:0|0:0,0:0:0:0:
165,18,48056,2,0,P|161:67|154:106,1,74.8000014266968,2|0,0:0|0:0,0:0:0:0:
220,172,48409,1,0,1:0:0:0:
257,173,48497,1,0,3:0:0:0:
292,160,48585,1,0,3:0:0:0:
319,136,48673,1,0,3:0:0:0:
339,97,48761,6,0,B|360:46|430:48|430:48|466:107|428:154,1,224.40000428009,4|4,0:0|0:0,0:0:0:0:
395,335,49820,2,0,P|378:284|384:216,1,112.200002140045,4|0,0:0|0:0,0:0:0:0:
412,240,50173,5,4,3:0:0:0:
310,346,50350,2,0,B|213:339|213:339|215:309|202:277,1,149.600002853394,4|0,3:0|0:0,0:0:0:0:
52,341,50879,2,0,P|99:328|131:326,1,74.8000014266968,2|0,0:0|0:0,0:0:0:0:
258,213,51232,1,0,1:0:0:0:
224,197,51320,1,0,3:0:0:0:
187,197,51409,1,8,3:0:0:0:
152,211,51497,1,0,3:0:0:0:
127,238,51584,5,6,0:2:0:0:
221,113,51761,1,0,0:0:0:0:
205,287,51938,1,2,1:2:0:0:
418,247,52114,2,0,B|381:253|352:280|352:280|327:255|286:246,1,149.600002853394,4|2,3:0|0:0,0:0:0:0:
327,42,52644,1,2,1:2:0:0:
354,67,52732,1,0,0:0:0:0:
368,102,52820,1,0,0:0:0:0:
368,139,52908,1,0,0:0:0:0:
353,173,52997,5,6,0:0:0:0:
444,55,53173,1,0,0:0:0:0:
276,118,53350,1,2,1:2:0:0:
153,56,53526,2,0,B|232:60|210:18|296:25,1,149.600002853394,4|2,3:0|0:0,0:0:0:0:
193,228,54056,2,0,P|185:180|186:144,1,74.8000014266968,2|0,1:2|3:0,0:0:0:0:
190,145,54320,1,0,3:0:0:0:
195,137,54409,5,4,0:0:0:0:
163,325,54585,1,4,3:0:0:0:
276,118,54761,5,4,1:2:0:0:
196,316,54938,1,4,3:0:0:0:
220,58,55114,5,4,0:0:0:0:
228,306,55291,1,4,3:0:0:0:
144,32,55467,5,4,1:2:0:0:
262,298,55644,1,4,3:0:0:0:
300,38,55820,6,0,P|348:30|384:31,1,74.8000014266968,4|4,0:2|3:0,0:0:0:0:
383,35,56084,1,0,3:0:0:0:
391,40,56173,2,0,L|397:125,1,74.8000014266968,2|4,1:2|3:0,0:0:0:0:
323,232,56526,2,0,P|361:213|394:208,1,74.8000014266968,2|4,1:2|0:3,0:0:0:0:
512,310,56879,2,0,P|475:303|442:286,1,74.8000014266968,2|4,1:2|0:3,0:0:0:0:
293,334,57232,6,0,P|329:336|367:332,2,74.8000014266968,6|4|0,0:0|3:0|1:0,0:0:0:0:
162,207,57938,2,0,P|125:204|87:208,2,74.8000014266968,6|4|0,0:0|3:0|1:0,0:0:0:0:
203,339,58467,6,0,B|210:287|210:287|243:254|243:254|249:201,1,149.600002853394,4|8,0:0|3:0,0:0:0:0:
256,211,58909,1,0,3:0:0:0:
263,218,58997,2,0,P|314:213|352:201,1,74.8000014266968,4|4,3:0|3:0,0:0:0:0:
93,124,59526,6,0,P|89:162|90:199,2,74.8000014266968,2|0|0,3:2|1:2|0:0,0:0:0:0:
241,68,60056,6,0,B|141:87|166:11|46:38,2,193.600005908203,4|2|4,0:1|1:2|0:1,0:0:0:0:
321,27,60938,1,0,0:0:0:0:
208,194,61114,1,2,1:2:0:0:
318,157,61291,6,0,P|266:157|212:170,1,96.8000029541017,2|4,0:0|3:0,0:0:0:0:
158,260,61644,1,2,0:0:0:0:
331,170,61820,1,0,1:2:0:0:
250,345,61997,2,0,P|255:291|270:240,1,96.8000029541017,2|4,0:0|3:0,0:0:0:0:
127,177,62350,2,0,P|140:223|143:272,1,96.8000029541017,0|0,0:0|1:0,0:0:0:0:
109,356,62703,1,0,0:0:0:0:
252,235,62879,5,4,3:0:0:0:
51,285,63056,1,0,0:0:0:0:
130,156,63232,1,2,1:2:0:0:
266,250,63409,1,0,0:0:0:0:
116,69,63585,2,0,P|71:87|44:179,1,145.200004431152,4|0,3:0|0:0,0:0:0:0:
52,199,63938,1,2,1:2:0:0:
197,101,64114,6,0,L|308:109,1,96.8000029541017,2|4,0:0|3:0,0:0:0:0:
394,71,64467,2,0,P|386:120|386:182,1,96.8000029541017,0|0,0:0|1:0,0:0:0:0:
483,100,64820,1,0,0:0:0:0:
313,26,64997,1,4,3:0:0:0:
313,26,65085,1,0,3:0:0:0:
313,26,65173,1,2,3:2:0:0:
391,190,65350,1,2,1:2:0:0:
487,104,65526,1,2,0:0:0:0:
438,295,65703,6,0,B|313:272|313:272|311:235|292:209,2,193.600005908203,4|2|4,0:1|1:2|0:1,0:0:0:0:
391,190,66585,1,0,0:0:0:0:
210,244,66761,1,2,1:2:0:0:
223,363,66938,6,0,P|228:311|224:267,1,96.8000029541017,2|4,0:0|3:0,0:0:0:0:
146,193,67291,1,0,0:0:0:0:
300,201,67467,1,2,1:2:0:0:
131,292,67644,2,0,B|51:273|45:198|45:198|67:147,1,193.600005908203,2|0,0:0|0:0,0:0:0:0:
235,24,68173,2,0,P|251:69|253:121,1,96.8000029541017,0|2,1:0|3:2,0:0:0:0:
251,125,68438,1,2,0:0:0:0:
247,132,68526,6,0,L|152:119,1,96.8000029541017,4|0,3:2|3:0,0:0:0:0:
254,237,68879,1,0,1:0:0:0:
254,237,68967,1,0,3:0:0:0:
254,237,69056,1,2,0:0:0:0:
490,231,69232,2,0,P|432:189|359:198,1,145.200004431152,4|0,3:0|0:0,0:0:0:0:
331,185,69585,2,0,L|337:296,1,96.8000029541017,2|0,1:2|3:0,0:0:0:0:
368,101,69938,5,4,0:0:0:0:
157,226,70114,1,0,3:0:0:0:
157,226,70203,1,0,3:0:0:0:
157,226,70291,2,0,P|206:234|255:236,1,96.8000029541017,4|0,3:2|3:0,0:0:0:0:
249,240,70556,1,0,3:0:0:0:
245,244,70644,2,0,L|240:297,1,48.4000014770508,4|0,3:0|0:0,0:0:0:0:
228,384,70820,1,2,3:2:0:0:
70,258,70997,1,2,1:2:0:0:
213,154,71173,1,2,0:0:0:0:
1,130,71350,6,0,B|66:124|66:124|122:143|122:143|197:134,2,193.600005908203,4|2|4,0:1|1:2|0:1,0:0:0:0:
54,216,72232,1,0,0:0:0:0:
141,55,72409,1,2,1:2:0:0:
264,38,72585,6,0,P|220:45|163:41,1,96.8000029541017,2|4,0:0|3:0,0:0:0:0:
82,0,72938,1,2,0:0:0:0:
190,134,73114,1,0,1:2:0:0:
295,19,73291,2,0,P|307:62|312:115,1,96.8000029541017,2|4,0:0|3:0,3:0:0:0:
277,220,73644,2,0,L|372:202,1,96.8000029541017,0|0,0:0|1:0,3:0:0:0:
427,123,73997,1,2,0:0:0:0:
427,123,74085,1,2,0:0:0:0:
427,123,74173,5,4,3:0:0:0:
438,271,74350,1,0,0:0:0:0:
260,236,74526,1,2,1:2:0:0:
431,127,74703,1,0,0:0:0:0:
190,175,74879,2,0,P|166:246|207:316,1,145.200004431152,4|0,3:0|0:0,0:0:0:0:
217,321,75232,1,2,1:2:0:0:
374,238,75409,6,0,P|335:228|270:222,1,96.8000029541017,2|4,0:0|3:0,0:0:0:0:
240,336,75761,2,0,P|279:326|344:320,1,96.8000029541017,0|0,0:0|1:0,0:0:0:0:
425,338,76114,1,0,0:0:0:0:
286,230,76291,1,4,3:0:0:0:
286,230,76379,1,0,3:0:0:0:
286,230,76467,1,2,3:2:0:0:
162,384,76644,1,2,1:2:0:0:
335,320,76820,1,2,0:0:0:0:
133,168,76997,6,0,B|233:187|208:111|328:138,2,193.600005908203,4|2|4,0:1|1:2|0:1,0:0:0:0:
163,74,77879,1,0,0:0:0:0:
284,223,78056,1,2,1:2:0:0:
270,340,78232,6,0,P|262:287|262:239,1,96.8000029541017,2|4,0:0|3:0,0:0:0:0:
207,160,78585,1,0,0:0:0:0:
357,269,78761,1,2,1:2:0:0:
183,384,78938,2,0,B|236:376|270:340|270:340|304:376|354:380,1,193.600005908203,2|0,0:0|0:0,0:0:0:0:
449,272,79467,2,0,L|340:287,1,96.8000029541017,0|2,1:0|0:0,0:0:0:0:
354,286,79732,1,2,0:0:0:0:
354,286,79820,6,0,P|355:232|363:183,1,96.8000029541017,6|0,0:0|0:0,0:0:0:0:
167,218,80173,2,0,P|214:224|263:225,1,96.8000029541017,2|0,1:2|0:0,0:0:0:0:
321,95,80526,1,4,3:0:0:0:
321,95,80614,1,0,3:0:0:0:
321,95,80703,1,0,3:0:0:0:
452,138,80879,2,0,P|458:185|459:234,1,96.8000029541017,2|0,1:2|0:0,0:0:0:0:
351,384,81232,5,4,3:2:0:0:
351,384,81320,1,0,3:0:0:0:
351,384,81409,1,0,3:0:0:0:
491,324,81585,2,0,B|391:343|416:267|296:294,1,193.600005908203,0|4,1:0|3:0,0:0:0:0:
298,299,82026,1,0,0:0:0:0:
291,306,82114,2,0,P|288:251|280:203,1,96.8000029541017,2|2,0:0|1:2,0:0:0:0:
199,53,82467,1,2,0:0:0:0:
157,134,82644,6,0,P|224:139|281:90,1,132.000005035401,2|0,0:0|0:0,0:0:0:0:
72,65,83350,2,0,P|62:123|76:208,1,132.000005035401,2|0,0:0|0:0,0:0:0:0:
219,283,83879,6,0,B|190:250|150:246|150:246|110:295|45:287,1,193.600005908203,4|4,0:0|3:0,0:0:0:0:
161,348,84409,1,0,1:0:0:0:
357,237,84585,2,0,B|319:239|289:218|289:218|325:275|296:335,1,193.600005908203,2|0,0:0|0:0,0:0:0:0:
170,171,85114,1,0,1:0:0:0:
205,162,85202,1,0,3:0:0:0:
241,168,85290,1,0,3:0:0:0:
270,188,85378,1,0,3:0:0:0:
290,219,85466,5,6,0:0:0:0:
144,196,85644,1,4,3:0:0:0:
312,116,85820,5,6,0:0:0:0:
134,230,85997,1,4,3:0:0:0:
246,61,86173,5,6,0:0:0:0:
141,263,86350,1,4,3:0:0:0:
179,7,86526,5,6,0:0:0:0:
163,295,86703,1,4,3:0:0:0:
335,34,86879,5,4,3:2:0:0:
335,34,86967,1,0,3:0:0:0:
335,34,87056,1,4,3:0:0:0:
228,146,87232,1,4,1:2:0:0:
336,268,87409,5,4,3:0:0:0:
359,241,87497,1,0,3:0:0:0:
369,206,87585,1,4,1:2:0:0:
363,171,87673,1,0,3:0:0:0:
342,141,87761,2,0,L|395:145,1,48.4000014770508,4|0,3:0|3:0,3:0:0:0:
512,265,87938,5,4,3:1:0:0:
