osu file format v14

[General]
AudioFilename: audio.mp3
AudioLeadIn: 0
PreviewTime: 59438
Countdown: 0
SampleSet: Soft
StackLeniency: 0.3
Mode: 0
LetterboxInBreaks: 0
WidescreenStoryboard: 1

[Editor]
Bookmarks: 34644
DistanceSpacing: 1
BeatDivisor: 4
GridSize: 16
TimelineZoom: 2.599999

[Metadata]
Title:Baby Sweet Berry Love
TitleUnicode:Baby Sweet Berry Love
Artist:Ogura Yui
ArtistUnicode:小倉唯
Creator:cococolaco
Version:Yuri's Hard
Source:変態王子と笑わない猫。
Tags:hentai ouji to waranai neko anime ending tsukiko tsutsukakushi henneko prince and stony cat yahuri doj
BeatmapID:1567838
BeatmapSetID:683677

[Difficulty]
HPDrainRate:5
CircleSize:3.5
OverallDifficulty:6
ApproachRate:7
SliderMultiplier:1.3
SliderTickRate:1

[Events]
//Background and Video events
0,0,"SBvp1vc.jpg",0,0
//Break Periods
//Storyboard Layer 0 (Background)
//Storyboard Layer 1 (Fail)
//Storyboard Layer 2 (Pass)
//Storyboard Layer 3 (Foreground)
//Storyboard Sound Samples

[TimingPoints]
232,352.941176470588,4,2,0,25,1,0
232,-133.333333333333,4,2,0,25,0,0
762,352.941176470588,4,2,0,25,1,0
762,-133.333333333333,4,2,0,25,0,0
6409,-111.111111111111,4,2,0,45,0,0
12056,-100,4,2,0,55,0,0
23350,-133.333333333333,4,2,0,35,0,0
29703,-133.333333333333,4,2,0,50,0,0
34644,-100,4,2,0,60,0,0
45938,-133.333333333333,4,2,0,50,0,0
51585,-100,4,2,0,60,0,0
54409,-100,4,2,0,65,0,0
57232,-100,4,2,0,55,0,0
60056,-90.9090909090909,4,2,0,70,0,1
71261,-90.9090909090909,4,2,0,70,0,0
71350,-90.9090909090909,4,2,0,70,0,1
82644,-90.9090909090909,4,2,0,50,0,0
83879,-90.9090909090909,4,2,0,60,0,0
85467,-90.9090909090909,4,2,0,70,0,1
87938,-90.9090909090909,4,2,0,70,0,0

[Colours]
Combo1 : 82,158,235
Combo2 : 254,114,254
Combo3 : 237,228,71

[HitObjects]
87,55,232,6,0,P|61:58|24:51,2,48.750001859665,0|0|0,0:0|0:0|0:0,0:0:0:0:
124,86,762,6,0,P|134:134|128:202,1,97.50000371933,4|0,0:0|0:0,0:0:0:0:
212,126,1467,2,0,P|260:115|328:121,1,97.50000371933
349,143,1997,6,0,P|338:191|344:259,2,97.50000371933
308,117,2879,2,0,L|302:42,2,73.1250027894975
268,146,3585,6,0,P|238:151|199:146,1,48.750001859665,0|0,0:0|0:0,0:0:0:0:
173,134,3938,2,0,P|148:133|124:139,1,48.750001859665,0|0,0:0|0:0,0:0:0:0:
92,175,4291,2,0,P|103:223|97:291,1,97.50000371933
85,317,4820,1,0,0:0:0:0:
101,363,4997,6,0,L|165:368,2,48.750001859665
85,317,5526,1,0,0:0:0:0:
69,271,5703,2,0,L|-15:263,2,73.1250027894975
170,241,6409,6,0,P|202:191|182:112,1,116.999996429443,4|0,0:0|0:0,0:0:0:0:
394,63,7114,2,0,P|421:115|499:137,1,116.999996429443,4|0,0:0|0:0,0:0:0:0:
463,244,7644,1,0,0:0:0:0:
436,345,7820,2,0,P|376:342|318:399,1,116.999996429443,4|0,0:0|0:0,0:0:0:0:
239,321,8350,1,0,0:0:0:0:
170,241,8526,6,0,P|202:191|182:112,1,116.999996429443,4|0,0:0|0:0,0:0:0:0:
160,61,9056,1,0,0:0:0:0:
160,61,9144,1,0,0:0:0:0:
160,61,9232,6,0,P|128:58|86:66,1,58.4999982147217,0|0,0:0|1:0,0:0:0:0:
32,105,9585,2,0,P|29:137|37:179,1,58.4999982147217,4|4,0:0|0:3,0:0:0:0:
78,230,9938,2,0,L|109:227,2,29.2499991073609,0|0|0,1:0|1:0|1:0,0:0:0:0:
59,310,10291,1,4,0:0:0:0:
140,303,10467,1,4,0:3:0:0:
233,351,10644,6,0,L|307:357,1,58.4999982147217,4|0,0:0|0:0,0:0:0:0:
351,268,10997,2,0,L|276:274,1,58.4999982147217,4|0,0:0|0:0,0:0:0:0:
233,186,11350,2,0,L|264:188,2,29.2499991073609,4|0|0,0:0|1:0|1:0,0:0:0:0:
260,84,11703,1,0,1:0:0:0:
351,135,11879,1,4,0:3:0:0:
293,273,12056,6,0,P|262:282|208:280,1,65,4|0,0:0|0:0,1:0:0:0:
141,258,12409,2,0,P|171:248|225:250,1,65,0|0,1:0|0:0,1:0:0:0:
158,167,12761,1,0,1:0:0:0:
158,167,12850,2,0,P|148:137|150:83,1,65,0|0,0:0|0:0,1:0:0:0:
116,69,13114,2,0,L|34:84,1,65,0|0,1:0|0:3,0:3:0:0:
68,170,13467,6,0,P|65:202|45:252,1,65
67,323,13820,2,0,P|67:291|88:241,1,65,0|0,1:0|0:0,0:0:0:0:
157,304,14173,1,0,1:3:0:0:
157,304,14262,2,0,P|188:303|238:282,1,65,0|0,0:0|0:0,1:0:0:0:
254,263,14526,2,0,L|336:278,1,65,0|0,1:0|0:0,0:0:0:0:
400,313,14879,5,0,0:0:0:0:
477,264,15056,1,0,0:0:0:0:
453,176,15232,2,0,L|468:94,1,65,0|0,1:0|0:0,0:0:0:0:
415,34,15585,1,0,0:0:0:0:
338,83,15762,1,0,0:0:0:0:
362,171,15938,2,0,L|347:253,1,65,0|0,1:0|0:0,0:0:0:0:
272,187,16291,6,0,P|240:187|190:208,1,65,0|0,0:0|0:0,1:0:0:0:
163,276,16644,2,0,P|194:276|244:297,1,65,0|0,1:0|0:0,1:0:0:0:
303,335,16997,1,0,0:0:0:0:
303,335,17086,2,0,P|313:305|311:251,1,65,0|0,0:0|0:0,1:0:0:0:
348,241,17350,2,0,L|430:227,1,65,0|0,1:0|0:0,0:0:0:0:
388,101,17703,6,0,B|355:100|355:100|306:120,1,65,4|0,0:0|0:0,0:3:0:0:
247,159,18056,1,0,1:0:0:0:
131,101,18232,2,0,B|154:162|154:162|151:242,1,130,4|0,0:0|0:0,0:0:0:0:
93,344,18761,1,4,1:2:0:0:
93,344,19114,6,0,B|123:356|123:356|176:354,1,65,4|0,0:0|0:0,0:0:0:0:
239,319,19467,1,0,1:0:0:0:
364,353,19644,2,0,B|341:292|341:292|344:212,1,130,4|0,0:0|0:0,0:0:0:0:
377,142,20172,1,0,1:0:0:0:
264,76,20350,6,0,B|167:58|167:58|173:92,1,130,4|0,0:0|0:0,0:0:0:0:
225,165,20879,2,0,B|237:195|237:195|235:248,1,65,0|0,1:0|0:0,0:0:0:0:
122,165,21232,2,0,B|109:195|109:195|111:248,1,65,0|0,1:0|0:0,0:0:0:0:
174,294,21585,2,0,B|167:326|167:326|178:378,1,65,0|0,1:0|1:0,0:0:0:0:
300,328,21938,6,0,B|332:335|332:335|384:324,2,65,4|0|0,1:2|1:0|1:0,0:0:0:0:
131,129,22644,1,0,1:0:0:0:
147,40,22820,1,0,1:0:0:0:
236,55,22997,1,0,1:0:0:0:
221,145,23174,1,0,1:0:0:0:
131,129,23350,6,0,P|85:167|75:208,1,97.50000371933,0|0,0:3|0:3,0:0:0:0:
114,282,23879,1,0,0:3:0:0:
114,282,24056,2,0,L|171:302,1,48.750001859665
161,209,24409,2,0,L|221:214,1,48.750001859665,8|0,0:0|0:0,0:0:0:0:
288,250,24761,6,0,P|297:300|294:333,2,73.1250027894975
280,162,25467,2,0,P|330:172|366:211,1,97.50000371933,0|8,0:0|0:0,0:0:0:0:
362,204,26173,6,0,P|407:165|417:124,1,97.50000371933,0|0,0:3|0:3,0:0:0:0:
379,51,26702,1,0,0:3:0:0:
379,51,26879,2,0,L|321:30,1,48.750001859665
283,119,27232,2,0,L|332:124,1,48.750001859665,8|0,0:0|0:0,0:0:0:0:
246,40,27585,6,0,P|196:31|163:34,2,73.1250027894975
201,115,28291,2,0,P|216:168|253:197,1,97.50000371933,0|8,0:0|0:0,0:0:0:0:
247,194,28997,5,0,0:0:0:0:
247,194,29350,2,0,L|251:248,1,48.750001859665
198,312,29703,1,2,0:0:0:0:
198,312,29879,1,2,0:0:0:0:
136,249,30056,1,10,0:0:0:0:
57,209,30233,1,2,0:0:0:0:
89,127,30409,6,0,L|40:122,1,48.750001859665
124,47,30761,2,0,L|173:52,1,48.750001859665
251,90,31114,1,2,0:0:0:0:
251,90,31290,1,2,0:0:0:0:
330,52,31467,1,10,0:0:0:0:
410,90,31644,1,2,0:0:0:0:
375,170,31820,6,0,L|367:271,1,97.50000371933
206,339,32526,2,0,L|198:238,1,97.50000371933,0|8,0:0|0:0,0:0:0:0:
111,88,33232,6,0,L|160:93,1,48.750001859665,2|2,0:0|0:0,0:0:0:0:
221,156,33585,2,0,L|270:161,1,48.750001859665,10|2,0:0|0:0,0:0:0:0:
380,219,33938,2,0,L|331:224,1,48.750001859665,2|2,0:0|0:0,0:0:0:0:
270,287,34291,2,0,L|221:292,1,48.750001859665,10|2,0:0|0:0,0:0:0:0:
221,156,34644,6,0,P|229:93|193:29,2,130,4|0|0,0:0|1:0|0:0,0:0:0:0:
160,225,35526,1,0,0:0:0:0:
222,292,35703,2,0,L|296:305,1,65,0|0,1:0|0:0,0:0:0:0:
372,272,36056,2,0,P|395:231|463:273,1,130,0|0,0:0|1:0,0:0:0:0:
430,342,36585,1,0,0:0:0:0:
372,272,36761,2,0,P|342:216|354:144,1,130,0|0,0:0|1:0,0:0:0:0:
350,152,37467,6,0,P|413:160|477:124,2,130,0|0|0,0:0|1:0|0:0,0:0:0:0:
269,108,38350,1,0,0:0:0:0:
274,198,38526,2,0,L|261:272,1,65,0|0,1:0|0:0,0:0:0:0:
293,348,38879,2,0,P|257:378|207:315,1,130,0|0,0:0|1:0,0:0:0:0:
170,246,39409,1,0,0:0:0:0:
93,200,39585,2,0,P|83:263|116:318,1,130,0|0,0:0|1:0,0:0:0:0:
116,317,40291,6,0,L|190:330,1,65
234,235,40644,2,0,L|160:248,1,65,0|0,1:0|0:0,0:0:0:0:
116,153,40997,1,2,0:0:0:0:
116,153,41173,1,2,0:0:0:0:
234,235,41350,1,2,1:2:0:0:
312,188,41526,1,2,0:0:0:0:
430,270,41703,6,0,L|356:283,1,65
312,188,42056,2,0,L|386:201,1,65,0|0,1:0|0:0,0:0:0:0:
430,106,42409,1,2,0:0:0:0:
430,106,42585,1,2,0:0:0:0:
312,188,42762,1,2,1:2:0:0:
234,141,42938,1,2,0:0:0:0:
156,188,43114,6,0,P|146:251|179:306,1,130,0|0,0:0|1:0,0:0:0:0:
346,378,43820,2,0,P|378:323|368:260,1,130,0|0,0:0|1:0,0:0:0:0:
312,188,44350,1,0,0:0:0:0:
256,260,44526,6,0,P|223:271|175:266,1,65
198,118,44879,2,0,P|210:148|210:181,1,65,0|4,1:0|0:3,0:0:0:0:
56,175,45232,1,4,1:2:0:0:
110,101,45409,1,4,0:3:0:0:
193,271,45585,1,4,1:2:0:0:
193,271,45938,6,0,P|257:260|303:184,1,146.250005578995,4|4,0:0|0:0,0:0:0:0:
301,196,46997,1,4,0:0:0:0:
133,78,47526,2,0,L|76:78,2,48.750001859665
214,111,48056,2,0,L|262:111,1,48.750001859665
344,78,48409,1,0,1:0:0:0:
437,147,48585,1,4,0:3:0:0:
437,147,48673,1,4,0:3:0:0:
437,147,48761,6,0,P|426:211|350:257,1,146.250005578995,4|4,0:0|0:0,0:0:0:0:
362,255,49820,1,4,0:0:0:0:
166,316,50350,2,0,L|166:373,2,48.750001859665
133,235,50880,2,0,L|133:186,1,48.750001859665
166,105,51233,1,0,1:0:0:0:
248,187,51409,1,4,0:3:0:0:
248,187,51497,1,4,0:3:0:0:
248,187,51585,6,0,P|280:187|331:171,1,65,4|0,0:0|0:0,1:0:0:0:
367,108,51938,1,0,1:0:0:0:
401,191,52114,2,0,P|411:254|378:309,1,130
291,279,52644,1,0,1:0:0:0:
291,279,52997,6,0,P|258:278|207:294,1,65,4|0,0:0|0:0,1:0:0:0:
172,358,53350,1,0,1:0:0:0:
138,275,53526,2,0,P|128:212|161:157,1,130
130,70,54056,1,0,1:0:0:0:
130,70,54409,6,0,B|162:64|162:64|199:71,1,65,4|4,1:2|0:3,0:0:0:0:
309,128,54761,2,0,B|276:130|276:130|242:146,1,65,4|4,1:2|0:3,0:0:0:0:
130,186,55114,2,0,B|160:196|160:196|189:221,1,65,4|4,1:2|0:3,0:0:0:0:
309,244,55467,2,0,B|282:262|282:262|260:293,1,65,4|4,1:2|0:3,0:0:0:0:
130,302,55820,2,0,B|151:326|151:326|163:362,1,65,4|4,1:2|0:3,0:0:0:0:
177,363,56085,1,4,0:3:0:0:
190,369,56173,6,0,L|262:388,1,65,4|4,1:2|0:3,0:0:0:0:
309,244,56526,2,0,L|237:224,1,65,4|4,1:2|0:3,0:0:0:0:
130,186,56879,2,0,L|85:197,2,32.5,4|4|4,1:2|1:3|0:3,0:0:0:0:
309,128,57232,5,4,0:0:0:0:
309,128,57409,1,0,0:0:0:0:
194,70,57585,1,0,1:0:0:0:
194,302,57938,5,4,0:0:0:0:
194,302,58115,1,0,0:0:0:0:
309,244,58291,1,0,1:0:0:0:
309,128,58467,1,4,1:2:0:0:
79,244,58821,5,4,0:3:0:0:
79,244,58909,1,4,0:3:0:0:
79,244,58997,1,4,0:3:0:0:
79,128,59174,1,4,0:3:0:0:
194,302,59526,5,4,0:3:0:0:
309,244,59703,2,0,P|274:231|243:234,1,65,0|0,1:0|0:0,0:0:0:0:
390,303,60056,6,0,B|426:288|444:261|444:261|464:185,2,143.000004364014,4|0|0,0:0|1:0|0:0,0:0:0:0:
309,244,60938,1,0,0:0:0:0:
216,281,61114,1,0,1:0:0:0:
230,181,61291,6,0,P|225:144|203:101,1,71.5000021820069
220,13,61644,2,0,P|183:17|140:39,1,71.5000021820069,0|0,0:0|1:0,0:0:0:0:
128,171,61997,2,0,P|95:185|59:189,2,71.5000021820069
70,90,62526,1,0,1:0:0:0:
152,31,62703,1,0,0:0:0:0:
230,181,62879,5,0,0:0:0:0:
166,264,63056,1,0,0:0:0:0:
265,275,63232,1,0,1:0:0:0:
206,356,63409,1,0,0:0:0:0:
305,367,63585,2,0,B|373:336|336:302|399:265,1,143.000004364014,0|0,0:0|1:0,0:0:0:0:
495,297,64114,1,0,0:0:0:0:
475,198,64291,6,0,L|495:120,1,71.5000021820069
374,68,64644,2,0,L|393:138,1,71.5000021820069,0|0,1:0|0:0,0:0:0:0:
274,199,64997,2,0,L|285:155,2,35.7500010910034,0|0|0,0:3|1:0|1:0,0:3:0:0:
173,69,65350,1,4,1:2:0:0:
147,164,65526,1,0,0:0:0:0:
240,290,65703,6,0,B|275:303|310:288|310:288|344:303|379:290,2,143.000004364014,4|0|0,0:2|1:0|0:0,0:0:0:0:
274,199,66585,1,0,0:0:0:0:
175,214,66761,1,0,1:0:0:0:
212,120,66938,6,0,P|274:98|353:138,1,143.000004364014
436,90,67467,1,0,1:0:0:0:
419,189,67644,2,0,L|458:337,1,143.000004364014
365,370,68173,1,0,1:0:0:0:
279,317,68350,1,0,0:0:0:0:
279,317,68438,1,0,0:0:0:0:
279,317,68526,5,0,1:0:0:0:
184,352,68703,1,0,1:0:0:0:
244,222,68879,2,0,L|255:180,2,35.7500010910034,0|4|4,1:0|0:3|1:3,0:0:0:0:
149,257,69232,2,0,P|83:262|17:203,1,143.000004364014,0|0,0:0|1:3,0:0:0:0:
53,121,69761,1,4,0:3:0:0:
149,257,69938,5,4,0:0:0:0:
186,119,70114,2,0,L|174:77,2,35.7500010910034,4|0|4,0:3|1:0|1:3,0:0:0:0:
287,220,70467,2,0,L|298:178,2,35.7500010910034,4|0|4,0:3|1:0|1:3,0:0:0:0:
234,305,70820,1,0,1:0:0:0:
334,309,70997,1,0,1:0:0:0:
423,352,71173,1,4,0:3:0:0:
488,193,71350,6,0,B|502:123|502:123|510:75|446:90|465:120,2,143.000004364014,4|0|0,0:0|1:0|0:0,0:0:0:0:
413,259,72232,1,0,0:0:0:0:
336,194,72409,1,0,1:0:0:0:
256,254,72585,6,0,P|219:249|176:227,1,71.5000021820069
88,244,72938,2,0,P|92:207|114:164,1,71.5000021820069,0|0,0:0|1:0,0:0:0:0:
246,152,73291,2,0,P|260:119|264:83,2,71.5000021820069
165,94,73820,1,0,1:0:0:0:
106,176,73997,1,0,0:0:0:0:
106,176,74085,1,0,0:0:0:0:
106,176,74173,5,0,0:0:0:0:
188,235,74350,1,0,0:0:0:0:
246,152,74526,1,0,1:0:0:0:
328,211,74703,1,0,0:0:0:0:
386,128,74879,2,0,B|447:170|405:197|460:244,1,143.000004364014,0|0,0:0|1:0,0:0:0:0:
508,334,75409,1,0,0:0:0:0:
412,362,75585,6,0,L|334:382,1,71.5000021820069
282,261,75938,2,0,L|352:280,1,71.5000021820069,0|0,1:0|0:0,0:0:0:0:
413,161,76291,2,0,L|355:176,2,35.7500010910034,0|0|0,0:0|1:0|1:0,0:3:0:0:
283,60,76644,1,4,1:2:0:0:
378,34,76820,1,0,0:0:0:0:
279,175,76997,6,0,B|224:176|176:147|176:147|204:123,2,143.000004364014,4|0|0,0:0|1:3|0:3,0:3:0:0:
379,170,77879,1,0,0:0:0:0:
333,259,78056,1,0,1:0:0:0:
432,255,78232,6,0,P|470:207|458:108,1,143.000004364014
386,70,78761,1,0,1:0:0:0:
296,116,78938,2,0,L|148:77,1,143.000004364014
62,110,79467,1,0,1:0:0:0:
135,178,79644,1,0,0:0:0:0:
135,178,79732,1,0,0:0:0:0:
135,178,79820,5,0,1:0:0:0:
94,270,79997,1,0,1:0:0:0:
183,313,80173,2,0,L|172:355,2,35.7500010910034,0|4|4,1:0|0:3|1:3,0:0:0:0:
225,221,80526,2,0,P|291:216|357:275,1,143.000004364014,0|0,0:0|1:3,0:0:0:0:
384,354,81055,1,4,0:3:0:0:
455,230,81232,5,4,0:0:0:0:
372,114,81408,2,0,L|384:156,2,35.7500010910034,4|0|4,0:3|1:0|1:3,0:0:0:0:
495,41,81761,2,0,L|485:75,2,35.7500010910034,4|0|4,0:3|1:0|1:3,0:0:0:0:
397,15,82114,1,0,0:0:0:0:
300,43,82291,1,0,1:0:0:0:
203,71,82467,1,0,0:0:0:0:
249,159,82644,6,0,P|267:228|260:303,1,143.000004364014
64,337,83350,2,0,P|45:267|52:192,1,143.000004364014
140,59,83879,5,4,1:2:0:0:
140,59,84232,1,0,1:0:0:0:
218,121,84409,1,0,1:0:0:0:
364,46,84585,2,0,P|417:25|427:96,1,143.000004364014,4|0,1:2|0:0,0:0:0:0:
347,146,85114,2,0,L|362:204,2,35.7500010910034,0|0|4,1:0|1:0|0:3,3:0:0:0:
233,23,85467,6,0,B|200:22|200:22|164:36,1,71.5000021820069,4|4,3:2|3:3,3:0:0:0:
86,185,85820,2,0,B|118:184|118:184|154:198,1,71.5000021820069,4|4,3:2|3:3,3:0:0:0:
239,311,86173,1,4,1:2:0:0:
254,213,86350,1,4,0:3:0:0:
367,367,86526,1,4,1:2:0:0:
331,274,86703,1,4,0:3:0:0:
504,351,86879,6,0,L|542:361,2,35.7500010910034,4|0|4,1:2|1:0|0:3,0:0:0:0:
428,288,87232,1,0,1:0:0:0:
392,193,87409,1,4,0:3:0:0:
331,274,87585,1,0,1:0:0:0:
256,207,87761,1,4,1:3:0:0:
256,170,87850,1,2,2:0:0:0:
256,134,87938,5,6,1:2:0:0:
