osu file format v14

[General]
AudioFilename: audio.mp3
AudioLeadIn: 0
PreviewTime: 59438
Countdown: 0
SampleSet: Soft
StackLeniency: 0.7
Mode: 0
LetterboxInBreaks: 0
WidescreenStoryboard: 1

[Editor]
Bookmarks: 34644
DistanceSpacing: 1
BeatDivisor: 4
GridSize: 4
TimelineZoom: 2.599999

[Metadata]
Title:Baby Sweet Berry Love
TitleUnicode:Baby Sweet Berry Love
Artist:Ogura Yui
ArtistUnicode:小倉唯
Creator:cococolaco
Version:Doj's Normal
Source:変態王子と笑わない猫。
Tags:hentai ouji to waranai neko anime ending tsukiko tsutsukakushi henneko prince and stony cat yahuri doj
BeatmapID:1549465
BeatmapSetID:683677

[Difficulty]
HPDrainRate:4
CircleSize:3
OverallDifficulty:4
ApproachRate:4
SliderMultiplier:1
SliderTickRate:1

[Events]
//Background and Video events
0,0,"SBvp1vc.jpg",0,0
//Break Periods
//Storyboard Layer 0 (Background)
//Storyboard Layer 1 (Fail)
//Storyboard Layer 2 (Pass)
//Storyboard Layer 3 (Foreground)
//Storyboard Sound Samples

[TimingPoints]
232,352.941176470588,4,2,0,25,1,0
762,352.941176470588,4,2,0,25,1,0
6409,-100,4,2,0,55,0,0
23350,-100,4,2,0,35,0,0
29703,-100,4,2,0,35,0,0
30409,-100,4,2,0,35,0,0
31114,-100,4,2,0,35,0,0
31820,-100,4,2,0,35,0,0
33232,-100,4,2,0,35,0,0
34644,-100,4,2,0,45,0,0
40997,-100,4,2,0,45,0,0
41703,-100,4,2,0,45,0,0
42409,-100,4,2,0,45,0,0
43114,-100,4,2,0,55,0,0
45938,-100,4,2,0,55,0,0
51585,-100,4,2,0,55,0,0
54409,-100,4,2,0,65,0,0
57232,-100,4,2,0,45,0,0
60056,-100,4,2,0,55,0,1
65703,-100,4,2,0,65,0,1
70644,-100,4,2,0,65,0,0
71350,-100,4,2,0,65,0,1
82644,-100,4,2,0,35,0,0
83879,-100,4,2,0,55,0,0
85114,-100,4,2,0,55,0,1
85467,-100,4,2,0,65,0,1
87938,-100,4,2,0,65,0,0

[Colours]
Combo1 : 82,158,235
Combo2 : 254,114,254
Combo3 : 237,228,71

[HitObjects]
104,74,762,6,0,B|122:80|150:81|150:81|172:67|219:65,1,100,4|2,3:0|0:0,0:0:0:0:
291,107,1467,2,0,P|269:146|287:206,1,100,2|2,0:0|0:0,0:0:0:0:
361,257,2173,2,0,P|285:243|201:236,1,150,4|2,3:0|0:0,0:0:0:0:
169,261,2879,2,0,B|169:298|169:298|183:354,2,75,4|4|4,3:0|3:0|3:0,0:0:0:0:
124,238,3585,6,0,P|141:186|116:123,1,100,4|2,3:0|0:0,0:0:0:0:
38,183,4291,2,0,B|28:235|28:308,1,100,2|2,0:0|0:0,0:0:0:0:
105,346,4997,2,0,P|142:351|184:355,1,50,4|0,3:0|0:0,0:0:0:0:
199,329,5350,2,0,P|234:315|272:299,1,50,0|2,0:0|0:0,0:0:0:0:
295,314,5703,2,0,P|344:308|390:311,1,75,4|4,3:0|3:0,0:0:0:0:
450,336,6232,1,4,3:0:0:0:
450,336,6409,6,0,B|469:309|469:309|478:264|462:227,1,100,4|2,0:1|0:0,0:0:0:0:
413,158,7114,2,0,P|406:104|402:59,1,100,6|2,0:0|0:0,0:0:0:0:
307,15,7820,1,2,0:0:0:0:
319,115,8173,1,0,0:0:0:0:
224,72,8526,2,0,B|178:61|178:61|146:62|121:88|59:78,1,150,4|2,3:0|0:0,0:0:0:0:
29,93,9232,6,0,P|24:130|22:165,2,50,4|0|2,3:0|0:0|1:2,0:0:0:0:
104,159,9938,2,0,P|110:195|113:233,2,50,2|0|2,0:0|0:0|1:2,0:0:0:0:
31,228,10644,1,4,0:0:0:0:
51,325,10997,1,4,0:0:0:0:
143,287,11350,1,4,3:0:0:0:
163,384,11703,1,0,1:0:0:0:
237,317,12056,6,0,P|294:306|359:301,1,100,2|2,0:0|1:2,0:0:0:0:
413,238,12761,2,0,P|391:294|423:334,1,100,2|2,0:0|1:2,0:0:0:0:
492,270,13467,2,0,P|497:219|499:157,1,100,2|2,0:0|1:2,0:0:0:0:
499,69,14173,2,0,B|461:82|430:50|389:72,1,100,2|2,0:0|1:2,0:0:0:0:
300,53,14879,2,0,P|267:53|241:-4,1,100
180,79,15585,2,0,L|199:193,1,100
101,146,16291,2,0,L|90:42,2,100,2|2|2,0:0|1:2|0:0,0:0:0:0:
196,177,17350,1,2,1:2:0:0:
277,119,17703,6,0,B|358:83|358:173|439:124,1,150,4|6,3:1|0:0,0:0:0:0:
324,250,18761,1,6,1:2:0:0:
285,157,19114,2,0,P|273:99|269:29,1,100,6|2,0:1|1:0,0:0:0:0:
219,50,19644,2,0,B|168:42|109:33|109:33|92:59|89:85,1,150,2|0,0:1|1:0,0:0:0:0:
64,109,20350,6,0,L|176:126,1,100,2|2,0:1|0:1,0:0:0:0:
189,166,20879,2,0,P|194:198|197:236,1,50,2|2,1:0|0:1,0:0:0:0:
159,250,21232,2,0,P|152:274|134:309,1,50,6|2,0:1|0:1,0:0:0:0:
96,318,21585,1,2,1:0:0:0:
176,376,21938,2,0,P|217:369|246:368,2,50,4|0|0,3:0|1:0|0:0,0:0:0:0:
310,309,22644,2,0,P|346:314|381:318,1,50,4|4,3:0|3:0,0:0:0:0:
409,314,22997,1,0,0:0:0:0:
474,238,23350,6,0,P|496:189|406:160,1,150,4|4,3:0|3:0,0:0:0:0:
426,146,24409,1,10,0:0:0:0:
330,150,24761,2,0,P|335:197|348:244,2,75,4|4|4,3:0|3:0|3:0,0:0:0:0:
410,23,25820,1,8,0:0:0:0:
319,64,26173,6,0,B|272:85|232:91|232:91|210:59|162:57,1,150,4|4,3:0|3:0,0:0:0:0:
184,59,27232,1,10,0:0:0:0:
157,160,27585,2,0,L|170:248,2,75,4|4|4,3:0|3:0|3:0,0:0:0:0:
110,17,28644,1,8,0:0:0:0:
33,81,28997,2,0,B|-9:137|55:164|21:237,1,150,4|4,3:0|3:0,0:0:0:0:
1,269,29703,2,0,P|3:297|7:321,1,50,2|4,0:0|3:0,0:0:0:0:
55,327,30056,2,0,B|59:347|59:348|75:377,1,50,10|0,0:0|0:0,0:0:0:0:
120,356,30409,6,0,P|182:328|259:359,1,150,4|4,3:0|3:0,0:0:0:0:
296,383,31114,2,0,P|325:380|354:376,1,50,2|4,0:0|3:0,0:0:0:0:
390,355,31467,2,0,P|425:361|465:372,1,50,10|0,0:0|0:0,0:0:0:0:
486,349,31820,1,4,3:0:0:0:
478,249,32173,1,0,0:0:0:0:
380,272,32526,1,4,3:0:0:0:
372,172,32879,1,10,0:0:0:0:
285,222,33232,2,0,P|277:265|272:302,2,50,4|0|10,3:0|0:0|0:0,0:0:0:0:
233,136,33938,2,0,P|235:182|229:250,1,100,4|8,3:0|0:0,0:0:0:0:
186,325,34644,6,0,P|171:303|95:290,1,100,4|2,0:1|1:2,0:0:0:0:
65,379,35350,1,4,3:0:0:0:
10,295,35703,1,0,1:0:0:0:
45,203,36056,2,0,B|41:183|29:165|29:165|33:135|33:89,1,100,4|0,3:0|1:0,0:0:0:0:
26,56,36585,2,0,P|77:44|139:39,1,100,2|0,0:0|0:0,0:0:0:0:
174,43,37114,1,0,1:0:0:0:
258,95,37467,6,0,P|306:114|356:80,1,100,4|2,3:0|1:2,0:0:0:0:
417,23,38173,1,4,3:0:0:0:
511,56,38526,1,0,1:0:0:0:
478,150,38879,2,0,B|462:179|462:179|463:219|455:262,1,100,4|0,3:0|1:0,0:0:0:0:
467,295,39409,2,0,P|416:286|381:323,1,100
350,354,39938,1,0,1:0:0:0:
270,293,40291,6,0,P|259:246|254:194,1,100,4|0,0:0|1:0,0:0:0:0:
159,226,40997,2,0,P|160:253|169:287,2,50,2|4|2,0:0|3:0|1:2,0:0:0:0:
178,179,41526,1,2,0:0:0:0:
178,179,41703,2,0,P|128:192|80:166,1,100,4|0,0:0|1:0,0:0:0:0:
8,102,42409,2,0,P|-1:136|-4:165,2,50,2|4|2,0:0|3:0|1:2,0:0:0:0:
42,65,42938,1,2,0:0:0:0:
42,65,43114,6,0,B|70:76|70:76|161:54,1,100,4|0,0:1|1:0,0:0:0:0:
238,56,43820,2,0,B|276:42|276:42|353:62,1,100,2|2,0:0|1:2,0:0:0:0:
263,142,44526,2,0,P|251:194|247:295,2,150,4|0|4,0:0|1:0|0:0,0:0:0:0:
345,84,45938,6,0,P|382:144|341:201,1,150,6|4,0:0|0:0,0:0:0:0:
341,201,46997,1,4,0:0:0:0:
268,269,47350,1,4,3:0:0:0:
268,269,47526,2,0,P|276:301|283:336,2,50,4|2|0,3:0|0:0|0:0,0:0:0:0:
233,231,48056,2,0,P|231:203|231:162,1,50,2|0,0:0|0:0,0:0:0:0:
278,39,48761,6,0,B|230:64|172:22|127:47,1,150,4|4,0:0|0:0,0:0:0:0:
130,45,49820,1,4,0:0:0:0:
45,115,50173,1,4,3:0:0:0:
45,115,50350,2,0,P|38:89|31:38,2,50,4|0|0,3:0|0:0|0:0,0:0:0:0:
26,166,50879,2,0,P|33:206|35:240,1,50,2|0,0:0|0:0,0:0:0:0:
138,342,51585,6,0,B|182:365|224:350|224:350|229:318|202:269,1,150,6|4,0:2|3:0,0:0:0:0:
156,196,52467,1,2,0:0:0:0:
156,196,52644,2,0,P|186:189|224:183,1,50,2|0,1:2|0:0,0:0:0:0:
253,212,52997,1,6,0:0:0:0:
253,212,53173,2,0,L|328:221,1,50,0|2,0:0|1:2,0:0:0:0:
343,255,53526,2,0,P|359:198|409:184,1,100,4|2,3:0|0:0,0:0:0:0:
448,188,54056,1,2,1:2:0:0:
256,192,54409,12,4,55820,0:2:0:0:
404,100,57232,6,0,L|343:118,1,50,6|4,0:0|3:0,0:0:0:0:
204,47,57938,2,0,L|132:32,1,50,6|4,0:0|3:0,0:0:0:0:
49,69,58467,1,4,0:0:0:0:
49,69,59526,1,2,3:2:0:0:
49,69,59703,2,0,P|59:108|64:136,1,50,0|0,1:2|0:0,0:0:0:0:
30,162,60056,6,0,P|5:202|14:256,1,100,4|2,0:1|1:2,0:0:0:0:
57,352,60761,2,0,P|97:325|118:268,1,100,4|2,0:1|1:2,0:0:0:0:
208,216,61467,2,0,P|201:270|196:345,1,100,4|0,3:0|1:2,0:0:0:0:
293,369,62173,2,0,P|286:315|281:240,1,100,4|0,3:0|1:0,0:0:0:0:
331,243,62703,1,0,0:0:0:0:
375,275,62879,6,0,P|375:307|373:337,2,50,4|0|2,3:0|0:0|1:2,0:0:0:0:
462,225,63585,2,0,P|462:255|464:287,2,50,4|0|2,3:0|0:0|1:2,0:0:0:0:
458,114,64291,1,4,3:0:0:0:
373,184,64644,1,0,1:0:0:0:
332,81,64997,2,0,P|334:48|340:21,1,50,4|0,3:2|0:0,0:0:0:0:
284,48,65350,2,0,P|280:9|275:-10,1,50
234,33,65703,6,0,P|230:88|232:138,1,100,4|0,0:1|0:0,0:0:0:0:
162,218,66409,2,0,P|157:158|151:110,1,100,4|0,0:1|0:0,0:0:0:0:
64,52,67114,2,0,L|56:-26,2,50,4|0|2,3:0|0:0|1:2,0:0:0:0:
5,145,67820,2,0,L|13:67,2,50,4|0|0,3:2|0:0|1:0,0:0:0:0:
0,200,68350,1,0,0:0:0:0:
1,255,68526,6,0,L|14:356,1,100,4|0,3:2|1:0,0:0:0:0:
122,379,69232,2,0,L|134:279,1,100,4|2,3:0|1:2,0:0:0:0:
237,239,69938,1,4,0:0:0:0:
255,347,70291,1,4,3:2:0:0:
360,314,70644,2,0,L|363:264,2,50,4|2|2,3:0|3:2|1:2,0:0:0:0:
255,347,71350,6,0,P|203:335|138:330,1,100,4|2,0:1|1:2,0:0:0:0:
78,252,72056,2,0,P|130:240|195:235,1,100,4|2,0:1|1:2,0:0:0:0:
256,159,72761,2,0,P|258:202|301:238,1,100,4|0,3:0|1:2,0:0:0:0:
366,150,73467,2,0,P|381:113|350:52,1,100,4|0,3:0|1:0,0:0:0:0:
306,44,73997,1,0,0:0:0:0:
252,35,74173,6,0,L|195:28,2,50,4|0|2,3:0|0:0|1:2,0:0:0:0:
173,113,74879,2,0,L|123:114,2,50,4|0|2,3:0|0:0|1:2,0:0:0:0:
101,28,75585,1,4,3:0:0:0:
28,111,75938,1,0,1:0:0:0:
34,220,76291,2,0,P|25:263|16:281,1,50,0|0,3:2|0:0,0:0:0:0:
72,292,76644,2,0,P|62:330|56:354,1,50
114,342,76997,6,0,B|143:328|143:328|181:328|238:339,1,100,4|2,0:1|1:2,0:0:0:0:
268,240,77703,2,0,P|275:198|278:127,1,100,4|2,0:1|1:2,0:0:0:0:
297,32,78409,2,0,P|331:70|401:56,1,100,4|2,3:0|1:2,0:0:0:0:
473,18,79114,2,0,L|478:152,1,100,0|0,0:0|1:0,0:0:0:0:
477,173,79644,1,0,0:0:0:0:
486,227,79820,6,0,P|491:253|499:280,2,50,6|0|2,0:0|0:0|1:2,0:0:0:0:
398,293,80526,2,0,P|395:324|391:351,2,50,4|0|2,3:0|3:0|1:2,0:0:0:0:
325,209,81232,2,0,P|315:275|298:323,1,100,4|0,3:2|1:0,0:0:0:0:
198,335,81938,2,0,B|161:325|161:325|94:342,1,100,4|2,3:0|1:2,0:0:0:0:
69,244,82644,1,2,0:0:0:0:
185,66,83879,5,4,0:0:0:0:
206,179,84232,2,0,P|196:215|187:240,1,50,4|0,3:0|1:0,0:0:0:0:
168,276,84585,2,0,P|137:223|46:234,1,150,2|0,0:0|1:0,0:0:0:0:
82,321,85467,2,0,P|137:319|214:307,1,100,6|6,0:0|0:0,0:0:0:0:
279,336,86173,2,0,P|334:338|411:350,1,100,6|6,0:0|0:0,0:0:0:0:
256,192,86879,12,4,87938,3:1:0:0:
