osu file format v14

[General]
AudioFilename: audio.mp3
AudioLeadIn: 0
PreviewTime: 136668
Countdown: 0
SampleSet: Soft
StackLeniency: 0.7
Mode: 0
LetterboxInBreaks: 0
EpilepsyWarning: 1
WidescreenStoryboard: 1

[Editor]
Bookmarks: 100668,178315,183962
DistanceSpacing: 1.6
BeatDivisor: 4
GridSize: 32
TimelineZoom: 2.2

[Metadata]
Title:Baby Sweet Berry Love
TitleUnicode:Baby Sweet Berry Love
Artist:Ogura Yui
ArtistUnicode:小倉唯
Creator:Yuuma
Version:Azusa Normal
Source:変態王子と笑わない猫。
Tags:yasaija 714 captain hentai ouji to waranai neko henneko the prince and stony cat ed ending japanese anime strawberry jam
BeatmapID:2404249
BeatmapSetID:1151838

[Difficulty]
HPDrainRate:3
CircleSize:3
OverallDifficulty:4.5
ApproachRate:6
SliderMultiplier:1.1
SliderTickRate:1

[Events]
//Background and Video events
0,0,"tsukiko.jpg",0,0
//Break Periods
2,24633,34677
2,100868,110912
2,178515,182912
//Storyboard Layer 0 (Background)
Sprite,Background,Centre,"tsukiko.jpg",320,240 F,0,0,,0
//Storyboard Layer 1 (Fail)
//Storyboard Layer 2 (Pass)
//Storyboard Layer 3 (Foreground)
//Storyboard Layer 4 (Overlay)
//Storyboard Sound Samples

[TimingPoints]
1845,352.941176470588,4,2,1,50,1,0
1845,-111.111111111111,4,2,1,50,0,0
3080,-111.111111111111,4,2,2,50,0,0
3962,-111.111111111111,4,2,1,50,0,0
7492,-100,4,2,1,60,0,0
10315,-100,4,2,1,70,0,0
13139,-100,4,2,2,80,0,0
13227,-100,4,2,1,80,0,0
13844,-100,4,2,2,80,0,0
14374,-100,4,2,1,80,0,0
15256,-100,4,2,2,80,0,0
17374,-100,4,2,1,80,0,0
18786,-100,4,2,3,80,0,0
18874,-100,4,2,1,80,0,0
24433,-100,4,2,3,50,0,0
35727,-100,4,2,1,60,0,0
47021,-100,4,2,1,55,0,0
48609,-100,4,2,2,55,0,0
49492,-100,4,2,1,55,0,0
51433,-100,4,2,2,55,0,0
52315,-100,4,2,1,55,0,0
52668,-100,4,2,1,60,0,0
55492,-100,4,2,1,70,0,0
60609,-100,4,2,1,60,0,0
61139,-100,4,2,2,80,0,1
61227,-100,4,2,1,80,0,1
62374,-100,4,2,2,80,0,1
63256,-100,4,2,1,80,0,1
68021,-100,4,2,2,80,0,1
68903,-100,4,2,1,80,0,1
72433,-100,4,2,2,80,0,1
72521,-100,4,2,1,80,0,1
73668,-100,4,2,2,80,0,1
74550,-100,4,2,1,80,0,1
79315,-100,4,2,2,80,0,1
80197,-100,4,2,1,80,0,1
83727,-100,4,2,2,60,0,0
84962,-100,4,2,1,80,0,1
89374,-100,4,2,2,80,0,0
89462,-100,4,2,1,80,0,0
90080,-100,4,2,2,80,0,0
90609,-100,4,2,1,80,0,0
91492,-100,4,2,2,80,0,0
93609,-100,4,2,1,80,0,0
95021,-100,4,2,3,80,0,0
95109,-100,4,2,1,80,0,0
100668,-100,4,2,3,50,0,0
110550,-100,4,2,1,50,0,0
110903,-100,4,2,3,50,0,0
111256,-100,4,2,1,50,0,0
111609,-100,4,2,3,50,0,0
111786,-100,4,2,1,50,0,0
111962,-100,4,2,1,60,0,0
123256,-100,4,2,1,55,0,0
124844,-100,4,2,2,55,0,0
125727,-100,4,2,1,55,0,0
127668,-100,4,2,2,55,0,0
128550,-100,4,2,1,55,0,0
128903,-100,4,2,1,60,0,0
131727,-100,4,2,1,70,0,0
137374,-100,4,2,2,80,0,1
137462,-100,4,2,1,80,0,1
138609,-100,4,2,2,80,0,1
139492,-100,4,2,1,80,0,1
144256,-100,4,2,2,80,0,1
145139,-100,4,2,1,80,0,1
148668,-100,4,2,2,80,0,1
148756,-100,4,2,1,80,0,1
149903,-100,4,2,2,80,0,1
150786,-100,4,2,1,80,0,1
155550,-100,4,2,2,80,0,1
156433,-100,4,2,1,80,0,1
159962,-100,4,2,2,60,0,0
161197,-100,4,2,1,80,0,1
165609,-100,4,2,3,80,0,0
165697,-100,4,2,1,80,0,0
178315,-100,4,2,4,60,0,0
183962,-111.111111111111,4,2,1,60,0,0
186786,-100,4,2,1,70,0,0
191021,-100,4,2,2,80,0,1
191109,-100,4,2,1,80,0,1
192256,-100,4,2,2,80,0,1
193139,-100,4,2,1,80,0,1
197903,-100,4,2,2,80,0,1
198786,-100,4,2,1,80,0,1
202315,-100,4,2,2,80,0,1
202403,-100,4,2,1,80,0,1
203550,-100,4,2,2,80,0,1
204433,-100,4,2,1,80,0,1
209197,-100,4,2,2,80,0,1
210080,-100,4,2,1,80,0,1
213609,-100,4,2,2,60,0,0
214844,-100,4,2,1,80,0,1
219256,-100,4,2,2,80,0,0
219344,-100,4,2,1,80,0,0
219962,-100,4,2,2,80,0,0
220492,-100,4,2,1,80,0,0
221374,-100,4,2,2,80,0,0
223492,-100,4,2,1,80,0,0
224903,-100,4,2,3,80,0,0
224992,-100,4,2,1,80,0,0
238668,-100,4,2,4,80,0,0

[Colours]
Combo1 : 250,190,230
Combo2 : 130,200,230
Combo3 : 255,230,140
Combo4 : 170,245,170

[HitObjects]
512,45,1845,6,0,P|457:48|405:58,1,98.9999969787599,2|2,3:2|0:0,0:0:0:0:
349,129,2550,2,0,P|294:125|246:114,1,98.9999969787599,2|2,0:0|0:0,0:0:0:0:
204,99,3080,1,2,0:0:0:0:
112,137,3433,2,0,L|105:197,1,49.4999984893799,2|2,0:0|0:0,0:0:0:0:
101,235,3786,1,2,0:0:0:0:
273,344,4492,1,0,3:0:0:0:
273,344,4668,6,0,L|333:335,1,49.4999984893799,2|0,0:0|3:0,0:0:0:0:
370,327,5021,2,0,L|377:267,1,49.4999984893799,2|0,0:0|0:0,0:0:0:0:
425,271,5374,2,0,L|412:163,1,98.9999969787599,2|2,0:0|0:0,0:0:0:0:
408,126,5903,1,2,0:0:0:0:
408,126,6080,2,0,P|368:75|293:162,1,197.99999395752,2|2,3:2|3:2,0:0:0:0:
234,337,7492,6,0,L|223:207,1,110,6|2,0:0|0:0,0:0:0:0:
268,129,8197,2,0,P|209:116|156:147,1,110,6|2,0:0|0:0,0:0:0:0:
114,233,8903,1,10,0:0:0:0:
224,227,9256,1,10,0:0:0:0:
334,221,9609,1,6,0:0:0:0:
462,36,10315,6,0,P|403:40|388:46,1,55,2|8,3:2|0:0,0:0:0:0:
378,84,10668,2,0,P|319:80|304:74,1,55,8|8,0:0|0:0,0:0:0:0:
278,52,11021,2,0,P|228:30|164:31,1,110,10|8,0:0|0:0,0:0:0:0:
125,55,11550,1,8,0:0:0:0:
125,55,11727,2,0,L|136:188,1,110,14|12,0:0|0:0,0:0:0:0:
87,265,12433,1,10,0:0:0:0:
181,319,12786,1,8,0:0:0:0:
230,220,13139,6,0,P|270:210|302:215,1,55,6|0,0:0|0:0,0:0:0:0:
331,239,13492,2,0,P|357:247|384:248,1,55,8|0,0:0|0:0,0:0:0:0:
440,241,13844,2,0,L|447:142,1,82.5,2|2,0:0|0:0,0:0:0:0:
397,30,14550,2,0,L|331:38,1,55,2|0,0:0|0:0,0:0:0:0:
305,77,14903,2,0,L|250:70,1,55,8|0,0:0|0:0,0:0:0:0:
207,34,15256,2,0,P|141:21|108:29,1,82.5,2|2,0:0|0:0,0:0:0:0:
25,111,15962,6,0,L|33:176,1,55,2|2,0:0|0:0,0:0:0:0:
40,219,16315,1,10,0:0:0:0:
121,296,16668,2,0,L|129:231,1,55,2|2,0:0|0:0,0:0:0:0:
136,188,17021,1,10,0:0:0:0:
223,118,17374,2,0,P|274:130|291:143,1,55,6|0,0:0|0:0,0:0:0:0:
309,174,17727,2,0,P|334:184|361:186,1,55,8|0,0:0|0:0,0:0:0:0:
416,192,18080,2,0,P|450:150|452:107,1,82.5,2|2,0:0|0:0,0:0:0:0:
381,15,18786,6,0,L|316:20,1,55,6|2,0:0|0:0,0:0:0:0:
287,56,19139,1,10,0:0:0:0:
287,56,19315,2,0,L|173:67,1,110,6|2,0:0|0:0,0:0:0:0:
123,74,19844,1,10,0:0:0:0:
47,153,20197,2,0,P|46:195|57:217,1,55,6|2,0:0|0:0,0:0:0:0:
78,250,20550,1,10,0:0:0:0:
78,250,20727,2,0,P|156:269|234:229,1,165,6|8,0:0|0:0,0:0:0:0:
273,200,21433,6,0,P|331:173|397:186,1,110,6|2,0:0|0:0,0:0:0:0:
419,213,21962,1,10,0:0:0:0:
512,158,22315,2,0,L|506:87,1,55,6|2,0:0|0:0,0:0:0:0:
503,47,22668,1,10,0:0:0:0:
401,10,23021,2,0,P|314:9|275:22,1,110,6|8,0:0|0:0,0:0:0:0:
235,110,23727,2,0,P|181:120|126:114,1,110,10|8,0:0|0:0,0:0:0:0:
36,50,24433,5,6,3:2:0:0:
54,86,35727,6,0,L|70:210,1,110,6|8,3:2|0:0,0:0:0:0:
114,297,36433,1,2,3:2:0:0:
206,236,36786,1,8,0:0:0:0:
302,289,37139,2,0,P|359:318|425:300,1,110,2|8,3:2|0:0,0:0:0:0:
447,286,37668,1,0,3:0:0:0:
447,286,37844,2,0,L|438:161,1,110,2|8,0:0|0:0,0:0:0:0:
484,74,38550,6,0,P|413:69|376:85,1,110,6|8,0:0|0:0,0:0:0:0:
296,158,39256,1,0,3:2:0:0:
241,61,39609,1,8,0:0:0:0:
130,53,39962,2,0,P|66:60|31:158,1,165,2|0,0:0|3:0,0:0:0:0:
43,192,40668,1,2,0:0:0:0:
92,287,41021,1,8,0:0:0:0:
186,343,41374,6,0,P|199:288|195:227,1,110,6|8,0:0|0:0,0:0:0:0:
188,181,41903,1,0,3:0:0:0:
405,47,42786,2,0,P|392:102|396:163,1,110,6|8,0:0|0:0,0:0:0:0:
405,210,43315,1,0,3:0:0:0:
188,356,44197,6,0,L|72:338,1,110,6|8,0:0|0:0,0:0:0:0:
31,238,44903,2,0,L|147:220,1,110,2|8,3:2|0:0,0:0:0:0:
192,209,45433,1,0,3:0:0:0:
192,209,45609,2,0,P|190:161|166:101,1,110,2|12,3:2|0:0,0:0:0:0:
63,69,46315,2,0,P|56:106|60:133,2,55,6|0|8,0:0|3:0|0:0,0:0:0:0:
154,8,47021,6,0,L|326:25,1,165,6|2,0:0|3:2,0:0:0:0:
481,39,48080,1,2,3:2:0:0:
382,170,48609,2,0,P|381:197|387:224,1,55,2|2,0:0|0:0,0:0:0:0:
429,258,48962,2,0,P|429:285|423:312,1,55,2|2,0:0|0:0,0:0:0:0:
388,354,49315,1,2,0:0:0:0:
222,348,49844,6,0,P|142:322|129:235,1,165,6|2,0:0|3:2,0:0:0:0:
114,87,50903,1,2,3:2:0:0:
230,205,51433,2,0,L|352:181,1,110,2|2,0:0|0:0,0:0:0:0:
391,167,51962,2,0,L|454:178,1,55,2|2,0:0|0:0,0:0:0:0:
500,167,52315,2,0,P|510:138|509:109,1,55,8|8,0:0|0:0,0:0:0:0:
471,75,52668,6,0,L|402:66,1,55,6|0,3:2|0:0,0:0:0:0:
386,28,53021,1,8,0:0:0:0:
386,28,53197,2,0,P|308:28|274:50,1,110,2|0,3:2|3:0,0:0:0:0:
251,85,53727,1,8,0:0:0:0:
200,176,54080,2,0,L|206:242,2,55,6|0|8,3:2|3:0|0:0,0:0:0:0:
163,142,54609,2,0,P|105:134|55:160,1,110,2|0,3:2|3:0,0:0:0:0:
26,196,55139,1,8,0:0:0:0:
17,309,55492,6,0,L|141:289,1,110,14|10,0:0|0:0,0:0:0:0:
226,249,56197,2,0,L|334:266,1,110,10|10,0:0|0:0,0:0:0:0:
428,328,56903,1,14,0:0:0:0:
493,238,57256,2,0,P|502:180|486:124,2,110,14|10|10,0:0|0:0|0:0,0:0:0:0:
396,187,58315,5,14,0:0:0:0:
396,187,59021,2,0,P|373:134|415:31,1,165,10|14,0:0|0:0,0:0:0:0:
123,89,61139,6,0,P|98:139|102:206,2,110,6|8|2,3:2|0:0|3:2,0:0:0:0:
210,19,62197,1,8,0:0:0:0:
210,19,62374,2,0,P|235:69|231:136,1,110,2|2,0:0|0:0,0:0:0:0:
222,174,62903,1,10,0:0:0:0:
222,174,63080,2,0,L|341:161,1,110,2|0,0:0|0:0,0:0:0:0:
438,119,63786,5,0,0:0:0:0:
438,119,63962,2,0,P|446:144|447:172,1,55,2|0,3:2|0:0,0:0:0:0:
424,222,64315,2,0,P|415:247|414:275,1,55,8|0,0:0|0:0,0:0:0:0:
438,324,64668,2,0,P|384:310|324:318,1,110,2|8,3:2|0:0,0:0:0:0:
282,342,65197,1,0,0:0:0:0:
282,342,65374,2,0,P|215:356|158:348,1,110,2|8,3:2|0:0,0:0:0:0:
82,290,66080,1,10,0:0:0:0:
82,290,66256,2,0,L|74:227,1,55,8|12,0:0|0:0,0:0:0:0:
180,246,66786,6,0,L|190:129,2,110,6|8|2,3:2|0:0|3:2,0:0:0:0:
292,276,67844,1,8,0:0:0:0:
292,276,68021,2,0,P|362:285|406:262,1,110,2|2,0:0|0:0,0:0:0:0:
439,235,68550,1,10,0:0:0:0:
439,235,68727,2,0,L|429:125,1,110,2|0,0:0|0:0,0:0:0:0:
314,14,69609,6,0,P|275:18|248:27,1,55,2|8,3:2|0:0,0:0:0:0:
229,68,69962,2,0,P|202:74|174:76,1,55,12|0,0:0|3:0,0:0:0:0:
125,49,70315,2,0,P|76:82|63:136,1,110,2|12,3:2|0:0,0:0:0:0:
73,183,70844,1,8,0:0:0:0:
73,183,71021,2,0,L|189:203,1,110,6|12,0:0|0:0,0:0:0:0:
283,243,71727,1,8,0:0:0:0:
370,177,72080,1,8,0:0:0:0:
465,227,72433,6,0,L|475:352,2,110,6|8|2,0:0|0:0|3:2,0:0:0:0:
378,286,73492,1,8,0:0:0:0:
378,286,73668,2,0,P|326:311|260:303,1,110,2|2,0:0|0:0,0:0:0:0:
234,284,74197,1,10,0:0:0:0:
234,284,74374,2,0,P|131:256|106:262,1,110,2|0,0:0|0:0,0:0:0:0:
26,243,75080,5,2,0:0:0:0:
26,243,75256,2,0,L|40:176,1,55,2|0,3:2|0:0,0:0:0:0:
84,157,75609,2,0,L|72:103,1,55,8|0,0:0|0:0,0:0:0:0:
51,52,75962,2,0,P|110:32|164:41,1,110,2|8,3:2|0:0,0:0:0:0:
206,59,76492,1,0,0:0:0:0:
206,59,76668,2,0,P|257:78|311:72,1,110,2|8,3:2|0:0,0:0:0:0:
418,36,77374,1,10,0:0:0:0:
418,36,77550,2,0,L|424:97,1,55,8|12,0:0|0:0,0:0:0:0:
436,197,78080,5,6,3:2:0:0:
497,286,78433,2,0,P|435:310|389:292,1,110,8|2,0:0|3:2,0:0:0:0:
299,242,79139,1,8,0:0:0:0:
299,242,79315,2,0,P|246:229|198:253,1,110,2|2,0:0|0:0,0:0:0:0:
168,298,79844,1,10,0:0:0:0:
168,298,80021,2,0,P|106:322|60:304,1,110,2|0,0:0|0:0,0:0:0:0:
41,155,80903,6,0,L|117:146,1,55,2|0,3:2|0:0,0:0:0:0:
134,110,81256,2,0,L|188:116,1,55,12|0,0:0|0:0,0:0:0:0:
230,153,81609,2,0,P|307:181|345:169,1,110,2|12,3:2|0:0,0:0:0:0:
378,147,82139,1,0,3:0:0:0:
378,147,82315,1,14,0:0:0:0:
367,38,82668,1,10,0:0:0:0:
259,14,83021,1,10,0:0:0:0:
156,53,83374,1,10,0:0:0:0:
62,111,83727,6,0,B|39:189|124:247|83:330,1,220,2|2,0:0|0:0,0:0:0:0:
245,361,84962,2,0,P|297:371|365:329,1,110,6|10,0:0|0:0,0:0:0:0:
388,311,85492,1,10,0:0:0:0:
388,311,85668,2,0,L|399:197,1,110,6|10,0:0|0:0,0:0:0:0:
406,146,86197,1,8,0:0:0:0:
423,38,86550,6,0,P|385:27|355:31,1,55,14|0,0:0|3:0,0:0:0:0:
326,62,86903,2,0,P|288:73|258:69,1,55,10|0,0:0|3:0,0:0:0:0:
231,37,87256,2,0,P|190:24|120:28,1,110,10|10,0:0|0:0,0:0:0:0:
77,52,87786,1,0,3:0:0:0:
77,52,87962,2,0,L|66:168,1,110,14|10,0:0|0:0,0:0:0:0:
54,270,88668,1,10,0:0:0:0:
143,333,89021,1,10,0:0:0:0:
232,268,89374,6,0,P|258:262|286:262,1,55,6|0,0:0|0:0,0:0:0:0:
335,286,89727,2,0,P|361:291|389:291,1,55,8|0,0:0|0:0,0:0:0:0:
443,283,90080,2,0,B|468:259|468:259|462:189,1,82.5,2|2,0:0|0:0,0:0:0:0:
478,77,90786,2,0,L|413:83,1,55,2|0,0:0|0:0,0:0:0:0:
379,114,91139,2,0,L|324:108,1,55,8|0,0:0|0:0,0:0:0:0:
295,63,91492,2,0,P|239:47|195:58,1,82.5,2|2,0:0|0:0,0:0:0:0:
97,116,92197,6,0,L|106:183,1,55,2|2,0:0|0:0,0:0:0:0:
111,226,92550,1,10,0:0:0:0:
190,306,92903,2,0,L|257:297,1,55,2|2,0:0|0:0,0:0:0:0:
300,292,93256,1,10,0:0:0:0:
398,242,93609,2,0,P|403:202|397:175,1,55,6|0,0:0|0:0,0:0:0:0:
386,133,93962,2,0,P|346:128|319:134,1,55,8|8,0:0|0:0,0:0:0:0:
284,159,94315,2,0,P|239:173|185:164,1,82.5,2|2,0:0|0:0,0:0:0:0:
70,139,95021,6,0,L|85:81,1,55,6|2,0:0|0:0,0:0:0:0:
108,37,95374,1,10,0:0:0:0:
108,37,95550,2,0,P|162:30|214:45,1,110,6|2,0:0|0:0,0:0:0:0:
266,67,96080,1,10,0:0:0:0:
349,140,96433,2,0,P|355:187|349:206,1,55,6|2,0:0|0:0,0:0:0:0:
334,245,96786,1,10,0:0:0:0:
334,245,96962,2,0,P|274:232|217:237,1,110,6|0,0:0|0:0,0:0:0:0:
191,278,97492,1,8,0:0:0:0:
191,278,97668,6,0,P|131:300|75:293,1,110,6|2,0:0|0:0,0:0:0:0:
37,273,98197,1,10,0:0:0:0:
1,173,98550,2,0,L|12:96,1,55,6|2,0:0|0:0,0:0:0:0:
23,66,98903,1,10,0:0:0:0:
131,93,99256,2,0,P|179:106|243:95,1,110,6|8,0:0|0:0,0:0:0:0:
327,37,99962,2,0,P|380:27|433:41,1,110,8|8,0:0|0:0,0:0:0:0:
376,138,100668,5,6,3:2:0:0:
129,200,111962,6,0,P|198:169|252:180,2,110,6|8|2,3:2|0:0|3:2,0:0:0:0:
70,294,113021,1,8,0:0:0:0:
21,197,113374,2,0,P|-1:124|8:79,1,110,2|8,3:2|0:0,0:0:0:0:
43,53,113903,1,0,3:0:0:0:
43,53,114080,2,0,L|177:62,1,110,2|8,0:0|0:0,0:0:0:0:
221,146,114786,6,0,P|213:212|199:262,2,110,6|8|2,3:2|0:0|3:2,0:0:0:0:
263,44,115844,1,8,0:0:0:0:
320,137,116197,2,0,P|399:156|440:144,1,110,2|8,3:2|0:0,0:0:0:0:
475,126,116727,1,0,3:0:0:0:
475,126,116903,2,0,P|456:200|475:245,1,110,2|8,0:0|0:0,0:0:0:0:
410,325,117609,6,0,L|341:316,1,55,6|0,3:2|0:0,0:0:0:0:
302,331,117962,2,0,L|233:322,1,55,8|0,0:0|3:0,0:0:0:0:
18,172,119021,6,0,L|87:163,1,55,6|0,3:2|0:0,0:0:0:0:
126,178,119374,2,0,L|195:169,1,55,8|0,0:0|3:0,0:0:0:0:
434,64,120433,6,0,P|424:146|432:206,1,110,6|8,0:0|0:0,0:0:0:0:
323,213,121139,2,0,P|324:158|314:103,1,110,2|8,3:2|0:0,0:0:0:0:
219,48,121844,6,0,P|134:33|46:124,1,220,6|10,0:0|0:0,0:0:0:0:
69,229,122903,1,8,0:0:0:0:
177,210,123256,6,0,P|308:189|358:188,2,165,6|2|2,0:0|3:2|3:2,0:0:0:0:
68,334,124844,2,0,L|-6:328,2,55,2|2|2,0:0|0:0|0:0,0:0:0:0:
114,363,125374,2,0,L|188:357,1,55,2|2,0:0|0:0,0:0:0:0:
333,343,126080,6,0,P|366:269|317:192,2,165,6|2|2,0:0|3:2|3:2,0:0:0:0:
184,269,127668,2,0,P|176:236|174:206,2,55,2|2|2,0:0|0:0|0:0,0:0:0:0:
224,306,128197,2,0,P|232:339|234:369,1,55,2|2,0:0|0:0,0:0:0:0:
68,368,128903,6,0,P|13:274|29:241,1,110,6|8,3:2|0:0,0:0:0:0:
12,228,129433,2,0,L|12:104,1,110,2|0,3:2|3:0,0:0:0:0:
15,62,129962,1,8,0:0:0:0:
120,32,130315,6,0,L|120:90,2,55,6|0|8,3:2|3:0|0:0,0:0:0:0:
168,5,130844,2,0,P|245:6|279:32,1,110,2|0,3:2|3:0,0:0:0:0:
300,69,131374,1,8,0:0:0:0:
396,16,131727,5,14,0:0:0:0:
479,87,132080,1,10,0:0:0:0:
508,192,132433,1,10,0:0:0:0:
479,297,132786,1,10,0:0:0:0:
396,368,133139,1,14,0:0:0:0:
310,299,133492,6,0,P|241:290|195:305,2,110,14|10|10,0:0|0:0|0:0,0:0:0:0:
377,211,134550,2,0,L|362:133,2,55,14|10|10,0:0|0:0|0:0,0:0:0:0:
485,190,135256,2,0,L|500:112,2,55,10|10|10,0:0|0:0|0:0,0:0:0:0:
467,242,135786,1,14,0:0:0:0:
257,322,137374,6,0,P|191:341|130:326,1,110,6|8,3:2|0:0,0:0:0:0:
87,244,138080,2,0,L|105:124,1,110,2|8,3:2|0:0,0:0:0:0:
113,80,138609,2,0,P|182:66|257:96,2,110,2|2|2,0:0|0:0|0:0,0:0:0:0:
60,63,139492,1,0,3:0:0:0:
18,163,139844,1,8,0:0:0:0:
87,244,140197,6,0,L|174:243,1,55,2|0,3:2|0:0,0:0:0:0:
189,215,140550,2,0,L|276:214,1,55,8|0,0:0|0:0,0:0:0:0:
294,192,140903,2,0,P|320:248|314:309,2,110,2|8|2,3:2|0:0|3:2,0:0:0:0:
217,112,141962,1,8,0:0:0:0:
307,50,142315,1,10,0:0:0:0:
307,50,142492,2,0,L|364:58,2,55,8|12|8,0:0|0:0|0:0,0:0:0:0:
259,21,143021,6,0,P|197:6|138:20,1,110,6|8,3:2|0:0,0:0:0:0:
56,68,143727,2,0,L|76:181,1,110,2|8,3:2|0:0,0:0:0:0:
121,206,144256,2,0,L|101:319,2,110,2|2|2,0:0|0:0|0:0,0:0:0:0:
168,179,145139,1,2,3:2:0:0:
256,244,145492,1,8,0:0:0:0:
341,174,145844,6,0,L|332:106,2,55,2|8|12,3:2|0:0|0:0,0:0:0:0:
426,243,146550,2,0,L|433:297,2,55,2|0|12,3:2|0:0|0:0,0:0:0:0:
459,198,147080,1,8,0:0:0:0:
459,198,147256,2,0,P|492:129|468:52,1,110,6|12,0:0|0:0,0:0:0:0:
411,20,147962,2,0,L|339:32,1,55,10|8,0:0|0:0,0:0:0:0:
315,66,148315,2,0,L|243:78,1,55,8|8,0:0|0:0,0:0:0:0:
216,107,148668,6,0,P|209:176|218:233,1,110,6|8,3:2|0:0,0:0:0:0:
285,300,149374,2,0,L|405:273,1,110,2|8,3:2|0:0,0:0:0:0:
427,232,149903,2,0,P|369:204|319:207,2,110,2|2|2,0:0|0:0|0:0,0:0:0:0:
474,263,150786,1,0,3:0:0:0:
410,353,151139,1,8,0:0:0:0:
308,308,151492,6,0,P|284:291|242:285,1,55,2|0,3:2|0:0,0:0:0:0:
238,233,151844,2,0,P|208:230|169:246,1,55,8|0,0:0|0:0,0:0:0:0:
139,203,152197,2,0,P|112:215|77:289,2,110,2|8|2,3:2|0:0|3:2,0:0:0:0:
229,139,153256,1,8,0:0:0:0:
149,63,153609,1,10,0:0:0:0:
149,63,153786,2,0,L|70:72,2,55,2|12|0,0:0|0:0|0:0,0:0:0:0:
188,24,154315,6,0,P|253:13|301:41,1,110,6|8,3:2|0:0,0:0:0:0:
399,13,155021,2,0,L|388:128,1,110,2|8,3:2|0:0,0:0:0:0:
347,159,155550,2,0,L|358:274,2,110,2|2|2,0:0|0:0|0:0,0:0:0:0:
303,125,156433,1,2,3:2:0:0:
241,214,156786,1,8,0:0:0:0:
152,151,157139,6,0,P|109:136|36:160,1,110,2|12,3:2|0:0,0:0:0:0:
32,259,157844,2,0,L|50:321,1,55,2|0,3:2|3:0,0:0:0:0:
99,328,158197,2,0,L|114:275,1,55,12|0,0:0|3:0,0:0:0:0:
163,250,158550,2,0,B|214:230|214:230|274:243,1,110,12|10,0:0|0:0,0:0:0:0:
372,277,159256,2,0,L|390:204,1,55,10|10,0:0|0:0,0:0:0:0:
419,180,159609,2,0,L|401:107,1,55,10|10,0:0|0:0,0:0:0:0:
379,78,159962,5,2,0:0:0:0:
165,26,160668,1,2,0:0:0:0:
165,26,161197,6,0,P|186:104|187:174,1,110,6|10,0:0|0:0,0:0:0:0:
170,185,161727,1,10,0:0:0:0:
170,185,161903,2,0,L|53:177,1,110,6|10,0:0|0:0,0:0:0:0:
4,176,162433,1,8,0:0:0:0:
31,282,162786,6,0,P|50:318|71:337,1,55,10|0,0:0|3:0,0:0:0:0:
114,328,163139,2,0,P|131:306|142:281,1,55,10|0,0:0|3:0,0:0:0:0:
197,282,163492,2,0,P|226:329|275:362,1,110,10|10,0:0|0:0,0:0:0:0:
325,362,164021,1,2,3:2:0:0:
325,362,164197,2,0,P|369:330|398:283,2,110,14|10|10,0:0|0:0|0:0,0:0:0:0:
104,357,165609,6,0,P|78:289|101:197,1,165,6|2,0:0|0:0,0:0:0:0:
208,197,166492,2,0,L|216:133,2,55,2|10|2,0:0|0:0|0:0,0:0:0:0:
211,252,167021,2,0,B|258:232|258:232|409:259,1,165,2|2,3:2|0:0,0:0:0:0:
462,315,167903,2,0,L|459:383,2,55,2|10|2,0:0|0:0|0:0,0:0:0:0:
489,267,168433,6,0,P|499:203|480:147,1,110,2|10,3:2|0:0,0:0:0:0:
414,77,169139,2,0,P|350:67|294:86,1,110,2|10,3:2|0:0,0:0:0:0:
265,115,169668,1,2,0:0:0:0:
265,115,169844,2,0,L|277:232,1,110,2|8,3:2|0:0,0:0:0:0:
267,335,170550,2,0,P|236:319|204:321,1,55,2|0,3:2|0:0,0:0:0:0:
164,338,170903,2,0,P|132:337|101:324,1,55,8|0,3:2|0:0,0:0:0:0:
86,281,171256,6,0,L|109:160,1,110,6|10,0:0|0:0,0:0:0:0:
200,114,171962,2,0,L|220:222,1,110,6|10,3:2|0:0,0:0:0:0:
316,275,172668,2,0,L|336:172,2,55,6|2|10,3:2|3:2|0:0,0:0:0:0:
337,325,173197,2,0,P|416:354|464:330,1,110,14|8,3:2|0:0,0:0:0:0:
479,311,173727,1,0,3:0:0:0:
494,202,174080,6,0,P|478:136|451:90,1,110,6|10,0:0|0:0,0:0:0:0:
362,43,174786,2,0,L|296:54,1,55,2|2,3:2|0:0,0:0:0:0:
269,91,175139,2,0,L|203:102,1,55,10|10,0:0|0:0,0:0:0:0:
176,139,175492,2,0,L|62:159,2,110,6|10|2,3:2|0:0|3:2,0:0:0:0:
220,172,176374,1,2,3:2:0:0:
220,172,176550,2,0,L|233:244,1,55,10|2,0:0|0:0,0:0:0:0:
256,192,176903,12,2,178315,0:0:0:0:
61,320,183962,6,0,P|120:346|218:269,2,197.99999395752,2|2|0,0:0|0:0|3:0,0:0:0:0:
85,126,186080,1,2,0:0:0:0:
275,31,186786,6,0,L|402:50,1,110,14|8,0:0|0:0,0:0:0:0:
455,133,187492,2,0,L|328:152,1,110,10|8,0:0|0:0,0:0:0:0:
306,186,188021,1,8,0:0:0:0:
306,186,188197,2,0,L|188:166,1,110,14|12,0:0|0:0,0:0:0:0:
111,100,188903,2,0,P|83:151|92:201,1,110,8|8,0:0|0:0,0:0:0:0:
149,297,189609,2,0,L|212:289,1,55,10|10,0:0|0:0,0:0:0:0:
312,266,190139,1,10,0:0:0:0:
91,44,191021,6,0,P|144:32|207:43,2,110,6|8|2,3:2|0:0|3:2,0:0:0:0:
149,142,192080,1,8,0:0:0:0:
149,142,192256,2,0,P|203:149|256:137,1,110,2|2,0:0|0:0,0:0:0:0:
305,113,192786,1,10,0:0:0:0:
305,113,192962,2,0,P|358:101|421:112,1,110,2|0,0:0|0:0,0:0:0:0:
475,236,193844,6,0,L|414:242,1,55,2|0,3:2|0:0,0:0:0:0:
393,288,194197,2,0,L|338:293,1,55,8|0,0:0|0:0,0:0:0:0:
288,315,194550,2,0,P|269:281|273:205,1,110,2|8,3:2|0:0,0:0:0:0:
291,162,195080,1,0,0:0:0:0:
291,162,195256,2,0,P|298:104|280:48,1,110,2|10,3:2|0:0,0:0:0:0:
183,17,195962,1,10,0:0:0:0:
183,17,196139,2,0,L|117:25,1,55,8|12,0:0|0:0,0:0:0:0:
34,75,196668,6,0,L|20:198,2,110,6|8|2,3:2|0:0|3:2,0:0:0:0:
120,144,197727,1,8,0:0:0:0:
120,144,197903,2,0,P|133:194|123:253,1,110,2|2,0:0|0:0,0:0:0:0:
107,303,198433,1,10,0:0:0:0:
107,303,198609,2,0,P|170:327|232:314,1,110,2|0,0:0|0:0,0:0:0:0:
364,341,199492,6,0,L|373:271,1,55,2|8,3:2|0:0,0:0:0:0:
420,263,199844,2,0,L|414:204,1,55,12|0,0:0|3:0,0:0:0:0:
453,170,200197,2,0,P|435:120|382:83,1,110,10|12,0:0|0:0,0:0:0:0:
339,68,200727,1,8,0:0:0:0:
339,68,200903,2,0,L|272:75,1,55,6|8,0:2|0:0,0:0:0:0:
250,116,201256,2,0,L|126:126,1,110,12|2,0:0|0:0,0:0:0:0:
52,192,201962,1,8,0:0:0:0:
126,278,202315,6,0,P|186:300|248:291,2,110,6|12|2,3:2|0:0|3:2,0:0:0:0:
195,194,203374,1,8,0:0:0:0:
195,194,203550,2,0,P|279:207|313:237,1,110,2|2,0:0|0:0,0:0:0:0:
336,260,204080,1,10,0:0:0:0:
336,260,204256,2,0,P|399:287|461:273,1,110,2|0,0:0|0:0,0:0:0:0:
462,145,205139,6,0,L|452:81,1,55,2|0,3:2|0:0,0:0:0:0:
443,36,205492,2,0,L|368:49,1,55,8|0,0:0|0:0,0:0:0:0:
354,89,205844,2,0,L|229:73,1,110,2|8,3:2|0:0,0:0:0:0:
212,33,206374,1,0,0:0:0:0:
212,33,206550,2,0,L|92:47,1,110,2|10,3:2|0:0,0:0:0:0:
42,135,207256,1,10,0:0:0:0:
42,135,207433,2,0,P|29:187|35:207,1,55,0|12,0:0|0:0,0:0:0:0:
91,280,207962,6,0,P|149:299|209:288,2,110,6|12|2,3:2|0:0|3:2,0:0:0:0:
155,190,209021,1,8,0:0:0:0:
155,190,209197,2,0,P|249:194|276:211,1,110,2|2,0:0|0:0,0:0:0:0:
304,235,209727,1,10,0:0:0:0:
304,235,209903,2,0,L|293:355,1,110,2|0,0:0|0:0,0:0:0:0:
442,323,210786,6,0,L|438:259,1,55,2|0,3:2|0:0,0:0:0:0:
479,232,211139,2,0,L|474:167,1,55,12|0,0:0|0:0,0:0:0:0:
470,122,211492,2,0,P|396:105|343:122,1,110,2|12,3:2|0:0,0:0:0:0:
324,149,212021,1,0,3:0:0:0:
324,149,212197,2,0,P|286:156|257:154,1,55,12|8,0:0|0:0,0:0:0:0:
214,152,212550,2,0,L|226:36,1,110,10|10,0:0|0:0,0:0:0:0:
331,7,213256,1,10,0:0:0:0:
364,112,213609,6,0,P|368:215|274:260,1,220,2|2,0:0|0:0,0:0:0:0:
120,198,214844,2,0,P|106:238|117:309,1,110,4|8,0:0|0:0,0:0:0:0:
145,348,215374,1,8,0:0:0:0:
145,348,215550,2,0,P|208:329|272:342,1,110,4|8,0:0|0:0,0:0:0:0:
304,356,216080,1,8,0:0:0:0:
416,350,216433,6,0,P|428:325|431:290,1,55,14|0,0:0|3:0,0:0:0:0:
471,260,216786,2,0,P|458:220|439:200,1,55,10|0,0:0|3:0,0:0:0:0:
451,157,217139,2,0,P|405:148|339:169,1,110,10|10,0:0|0:0,0:0:0:0:
311,206,217668,1,0,3:0:0:0:
311,206,217844,2,0,P|261:224|201:216,1,110,14|12,0:0|0:0,0:0:0:0:
220,108,218550,1,8,0:0:0:0:
116,69,218903,1,8,0:0:0:0:
23,127,219256,6,0,L|28:196,1,55,6|0,0:0|0:0,0:0:0:0:
71,216,219609,2,0,L|76:285,1,55,8|0,0:0|0:0,0:0:0:0:
82,326,219962,2,0,P|134:351|179:344,1,82.5,2|2,0:0|0:0,0:0:0:0:
273,286,220668,2,0,P|313:282|337:287,1,55,0|0,0:0|0:0,0:0:0:0:
376,313,221021,2,0,P|417:321|441:316,1,55,8|0,0:0|0:0,0:0:0:0:
479,292,221374,2,0,B|492:266|492:266|486:193,1,82.5,2|2,0:0|0:0,0:0:0:0:
474,77,222080,6,0,L|411:83,1,55,2|2,0:0|0:0,0:0:0:0:
366,92,222433,1,10,0:0:0:0:
286,162,222786,2,0,L|223:156,1,55,2|2,0:0|0:0,0:0:0:0:
178,147,223139,1,10,0:0:0:0:
89,85,223492,2,0,P|65:140|76:197,1,110,6|8,0:0|0:0,0:0:0:0:
111,288,224197,2,0,P|166:312|223:301,1,110,2|12,0:0|0:0,0:0:0:0:
257,273,224727,6,0,P|327:254|381:270,1,110,2|2,0:0|0:0,0:0:0:0:
408,291,225256,2,0,L|466:280,1,55,10|2,0:0|3:0,0:0:0:0:
512,259,225609,1,2,3:2:0:0:
426,191,225962,1,8,0:0:0:0:
426,191,226139,2,0,P|416:161|436:87,1,110,4|2,0:0|0:0,0:0:0:0:
439,35,226668,2,0,L|371:25,1,55,10|2,0:0|3:2,0:0:0:0:
330,22,227021,2,0,L|211:35,1,110,2|8,3:2|0:0,0:0:0:0:
125,94,227727,6,0,L|68:87,2,55,6|2|10,3:2|0:0|0:0,0:0:0:0:
180,107,228256,2,0,P|193:161|174:232,1,110,2|2,0:0|0:0,0:0:0:0:
140,318,228962,1,2,0:0:0:0:
140,318,229139,2,0,L|208:311,1,55,6|2,3:2|0:0,0:0:0:0:
246,332,229492,1,10,0:0:0:0:
246,332,229668,2,0,P|306:353|354:341,1,110,6|0,3:2|0:0,0:0:0:0:
400,321,230197,1,8,0:0:0:0:
419,213,230550,6,0,L|410:138,1,55,6|2,3:2|0:0,0:0:0:0:
365,140,230903,1,10,0:0:0:0:
365,140,231080,2,0,P|305:119|257:131,1,110,6|2,0:0|0:0,0:0:0:0:
223,165,231609,1,10,0:0:0:0:
170,257,231962,2,0,P|114:275|100:273,1,55,6|2,0:0|0:0,0:0:0:0:
71,267,232315,1,10,0:0:0:0:
71,267,232492,2,0,L|59:150,1,110,6|0,3:2|3:0,0:0:0:0:
57,105,233021,1,8,0:0:0:0:
76,56,233197,6,0,P|126:42|209:51,1,110,6|2,3:2|0:0,0:0:0:0:
237,54,233727,1,10,0:0:0:0:
342,74,234080,2,0,L|347:140,1,55,6|2,0:0|0:0,0:0:0:0:
349,184,234433,1,10,0:0:0:0:
408,277,234786,2,0,P|350:297|292:274,1,110,6|8,0:0|0:0,0:0:0:0:
220,213,235492,2,0,P|181:207|163:207,1,55,8|8,0:0|0:0,0:0:0:0:
143,256,235844,2,0,P|100:267|82:268,1,55,8|8,0:0|0:0,0:0:0:0:
39,242,236197,6,0,P|3:199|78:58,1,220,6|6,0:0|0:0,0:0:0:0:
219,26,237433,2,0,L|224:151,1,110,6|2,0:0|3:2,0:0:0:0:
234,248,238139,2,0,B|326:266|312:193|407:209,1,165,6|2,0:0|0:0,0:0:0:0:
